  0
SECTION
  2
HEADER
  9
$ACADVER
  1
AC1018
  9
$ACADMAINTVER
 70
    76
  9
$DWGCODEPAGE
  3
ANSI_1252
  9
$CUSTOMPROPERTYTAG
  1
AmdtFileType
  9
$CUSTOMPROPERTY
  1
84
  9
$INSBASE
 10
0.0
 20
0.0
 30
0.0
  9
$EXTMIN
 10
0.0
 20
0.0
 30
0.0
  9
$EXTMAX
 10
0.85
 20
1.1
 30
0.0
  9
$LIMMIN
 10
0.0
 20
0.0
  9
$LIMMAX
 10
0.0
 20
0.0
  9
$ORTHOMODE
 70
     0
  9
$REGENMODE
 70
     1
  9
$FILLMODE
 70
     1
  9
$QTEXTMODE
 70
     0
  9
$MIRRTEXT
 70
     1
  9
$LTSCALE
 40
1.0
  9
$ATTMODE
 70
     1
  9
$TEXTSIZE
 40
0.0
  9
$TRACEWID
 40
0.05
  9
$TEXTSTYLE
  7
STANDARD
  9
$CLAYER
  8
0
  9
$CELTYPE
  6
CONTINUOUS
  9
$CECOLOR
 62
     1
  9
$CELTSCALE
 40
1.0
  9
$DISPSILH
 70
     0
  9
$DIMSCALE
 40
1.0
  9
$DIMASZ
 40
0.18
  9
$DIMEXO
 40
0.0625
  9
$DIMDLI
 40
0.38
  9
$DIMRND
 40
0.0
  9
$DIMDLE
 40
0.0
  9
$DIMEXE
 40
0.25
  9
$DIMTP
 40
0.01
  9
$DIMTM
 40
0.01
  9
$DIMTXT
 40
0.0125
  9
$DIMCEN
 40
0.09
  9
$DIMTSZ
 40
0.0
  9
$DIMTOL
 70
     0
  9
$DIMLIM
 70
     0
  9
$DIMTIH
 70
     1
  9
$DIMTOH
 70
     1
  9
$DIMSE1
 70
     0
  9
$DIMSE2
 70
     0
  9
$DIMTAD
 70
     0
  9
$DIMZIN
 70
     0
  9
$DIMBLK
  1

  9
$DIMASO
 70
     1
  9
$DIMSHO
 70
     1
  9
$DIMPOST
  1

  9
$DIMAPOST
  1

  9
$DIMALT
 70
     0
  9
$DIMALTD
 70
     2
  9
$DIMALTF
 40
25.4
  9
$DIMLFAC
 40
1.0
  9
$DIMTOFL
 70
     0
  9
$DIMTVP
 40
0.0
  9
$DIMTIX
 70
     0
  9
$DIMSOXD
 70
     0
  9
$DIMSAH
 70
     0
  9
$DIMBLK1
  1

  9
$DIMBLK2
  1

  9
$DIMSTYLE
  2
STANDARD
  9
$DIMCLRD
 70
     0
  9
$DIMCLRE
 70
     0
  9
$DIMCLRT
 70
     1
  9
$DIMTFAC
 40
1.0
  9
$DIMGAP
 40
0.09
  9
$DIMJUST
 70
     0
  9
$DIMSD1
 70
     0
  9
$DIMSD2
 70
     0
  9
$DIMTOLJ
 70
     1
  9
$DIMTZIN
 70
     0
  9
$DIMALTZ
 70
     0
  9
$DIMALTTZ
 70
     0
  9
$DIMUPT
 70
     0
  9
$DIMDEC
 70
     4
  9
$DIMTDEC
 70
     4
  9
$DIMALTU
 70
     2
  9
$DIMALTTD
 70
     2
  9
$DIMTXSTY
  7
STANDARD
  9
$DIMAUNIT
 70
     0
  9
$DIMADEC
 70
     0
  9
$DIMALTRND
 40
0.0
  9
$DIMAZIN
 70
     0
  9
$DIMDSEP
 70
    46
  9
$DIMATFIT
 70
     3
  9
$DIMFRAC
 70
     0
  9
$DIMLDRBLK
  1

  9
$DIMLUNIT
 70
     2
  9
$DIMLWD
 70
    -2
  9
$DIMLWE
 70
    -2
  9
$DIMTMOVE
 70
     0
  9
$LUNITS
 70
     2
  9
$LUPREC
 70
    10
  9
$SKETCHINC
 40
0.1
  9
$FILLETRAD
 40
0.0
  9
$AUNITS
 70
     0
  9
$AUPREC
 70
     0
  9
$MENU
  1
acad
  9
$ELEVATION
 40
0.0
  9
$PELEVATION
 40
0.0
  9
$THICKNESS
 40
0.0
  9
$LIMCHECK
 70
     0
  9
$CHAMFERA
 40
0.0
  9
$CHAMFERB
 40
0.0
  9
$CHAMFERC
 40
0.0
  9
$CHAMFERD
 40
0.0
  9
$SKPOLY
 70
     0
  9
$TDCREATE
 40
2444971.833333334
  9
$TDUCREATE
 40
2444972.000000000
  9
$TDUPDATE
 40
2453626.381495220
  9
$TDUUPDATE
 40
2453626.548161887
  9
$TDINDWG
 40
0.0822539583
  9
$TDUSRTIMER
 40
0.0822539583
  9
$USRTIMER
 70
     1
  9
$ANGBASE
 50
0.0
  9
$ANGDIR
 70
     0
  9
$PDMODE
 70
     2
  9
$PDSIZE
 40
0.0
  9
$PLINEWID
 40
0.0
  9
$SPLFRAME
 70
     0
  9
$SPLINETYPE
 70
     6
  9
$SPLINESEGS
 70
     8
  9
$HANDSEED
  5
2FB
  9
$SURFTAB1
 70
     6
  9
$SURFTAB2
 70
     6
  9
$SURFTYPE
 70
     6
  9
$SURFU
 70
     6
  9
$SURFV
 70
     6
  9
$UCSBASE
  2

  9
$UCSNAME
  2

  9
$UCSORG
 10
0.0
 20
0.0
 30
0.0
  9
$UCSXDIR
 10
1.0
 20
0.0
 30
0.0
  9
$UCSYDIR
 10
0.0
 20
1.0
 30
0.0
  9
$UCSORTHOREF
  2

  9
$UCSORTHOVIEW
 70
     0
  9
$UCSORGTOP
 10
0.0
 20
0.0
 30
0.0
  9
$UCSORGBOTTOM
 10
0.0
 20
0.0
 30
0.0
  9
$UCSORGLEFT
 10
0.0
 20
0.0
 30
0.0
  9
$UCSORGRIGHT
 10
0.0
 20
0.0
 30
0.0
  9
$UCSORGFRONT
 10
0.0
 20
0.0
 30
0.0
  9
$UCSORGBACK
 10
0.0
 20
0.0
 30
0.0
  9
$PUCSBASE
  2

  9
$PUCSNAME
  2

  9
$PUCSORG
 10
0.0
 20
0.0
 30
0.0
  9
$PUCSXDIR
 10
1.0
 20
0.0
 30
0.0
  9
$PUCSYDIR
 10
0.0
 20
1.0
 30
0.0
  9
$PUCSORTHOREF
  2

  9
$PUCSORTHOVIEW
 70
     0
  9
$PUCSORGTOP
 10
0.0
 20
0.0
 30
0.0
  9
$PUCSORGBOTTOM
 10
0.0
 20
0.0
 30
0.0
  9
$PUCSORGLEFT
 10
0.0
 20
0.0
 30
0.0
  9
$PUCSORGRIGHT
 10
0.0
 20
0.0
 30
0.0
  9
$PUCSORGFRONT
 10
0.0
 20
0.0
 30
0.0
  9
$PUCSORGBACK
 10
0.0
 20
0.0
 30
0.0
  9
$USERI1
 70
     0
  9
$USERI2
 70
     0
  9
$USERI3
 70
     0
  9
$USERI4
 70
     0
  9
$USERI5
 70
     0
  9
$USERR1
 40
0.0
  9
$USERR2
 40
0.0
  9
$USERR3
 40
0.0
  9
$USERR4
 40
0.0
  9
$USERR5
 40
0.0
  9
$WORLDVIEW
 70
     1
  9
$SHADEDGE
 70
     3
  9
$SHADEDIF
 70
    70
  9
$TILEMODE
 70
     1
  9
$MAXACTVP
 70
    16
  9
$PINSBASE
 10
0.0
 20
0.0
 30
0.0
  9
$PLIMCHECK
 70
     0
  9
$PEXTMIN
 10
1.000000000000000E+20
 20
1.000000000000000E+20
 30
1.000000000000000E+20
  9
$PEXTMAX
 10
-1.000000000000000E+20
 20
-1.000000000000000E+20
 30
-1.000000000000000E+20
  9
$PLIMMIN
 10
0.0
 20
0.0
  9
$PLIMMAX
 10
12.0
 20
9.0
  9
$UNITMODE
 70
     0
  9
$VISRETAIN
 70
     0
  9
$PLINEGEN
 70
     1
  9
$PSLTSCALE
 70
     0
  9
$TREEDEPTH
 70
  3020
  9
$CMLSTYLE
  2
STANDARD
  9
$CMLJUST
 70
     0
  9
$CMLSCALE
 40
1.0
  9
$PROXYGRAPHICS
 70
     1
  9
$MEASUREMENT
 70
     0
  9
$CELWEIGHT
370
    -1
  9
$ENDCAPS
280
     0
  9
$JOINSTYLE
280
     0
  9
$LWDISPLAY
290
     0
  9
$INSUNITS
 70
     0
  9
$HYPERLINKBASE
  1

  9
$STYLESHEET
  1

  9
$XEDIT
290
     1
  9
$CEPSNTYPE
380
     0
  9
$PSTYLEMODE
290
     1
  9
$FINGERPRINTGUID
  2
{14EBA378-6357-11D6-8A02-00902758FDDF}
  9
$VERSIONGUID
  2
{48923D98-232E-4FB4-9881-926720F51E15}
  9
$EXTNAMES
290
     1
  9
$PSVPSCALE
 40
0.0
  9
$OLESTARTUP
290
     0
  9
$SORTENTS
280
   127
  9
$INDEXCTL
280
     1
  9
$HIDETEXT
280
     0
  9
$XCLIPFRAME
290
     0
  9
$HALOGAP
280
     0
  9
$OBSCOLOR
 70
   257
  9
$OBSLTYPE
280
     0
  9
$INTERSECTIONDISPLAY
280
     0
  9
$INTERSECTIONCOLOR
 70
   257
  9
$DIMASSOC
280
     1
  9
$PROJECTNAME
  1

  0
ENDSEC
  0
SECTION
  2
CLASSES
  0
CLASS
  1
IMAGE
  2
AcDbRasterImage
  3
ISM
 90
      127
 91
        0
280
     0
281
     1
  0
CLASS
  1
DICTIONARYVAR
  2
AcDbDictionaryVar
  3
ObjectDBX Classes
 90
        0
 91
        2
280
     0
281
     0
  0
CLASS
  1
RASTERVARIABLES
  2
AcDbRasterVariables
  3
ISM
 90
        0
 91
        0
280
     0
281
     0
  0
CLASS
  1
IMAGEDEF
  2
AcDbRasterImageDef
  3
ISM
 90
        0
 91
        0
280
     0
281
     0
  0
CLASS
  1
IMAGEDEF_REACTOR
  2
AcDbRasterImageDefReactor
  3
ISM
 90
        1
 91
        0
280
     0
281
     0
  0
CLASS
  1
IDBUFFER
  2
AcDbIdBuffer
  3
ObjectDBX Classes
 90
        0
 91
        5
280
     0
281
     0
  0
CLASS
  1
SPATIAL_FILTER
  2
AcDbSpatialFilter
  3
ObjectDBX Classes
 90
        0
 91
        0
280
     0
281
     0
  0
CLASS
  1
SORTENTSTABLE
  2
AcDbSortentsTable
  3
ObjectDBX Classes
 90
        0
 91
        0
280
     0
281
     0
  0
CLASS
  1
LAYER_INDEX
  2
AcDbLayerIndex
  3
ObjectDBX Classes
 90
        0
 91
        1
280
     0
281
     0
  0
CLASS
  1
SPATIAL_INDEX
  2
AcDbSpatialIndex
  3
ObjectDBX Classes
 90
        0
 91
        0
280
     0
281
     0
  0
CLASS
  1
OBJECT_PTR
  2
CAseDLPNTableRecord
  3
ASE-LPNTableRecord
 90
        1
 91
        0
280
     0
281
     0
  0
CLASS
  1
ACDBDICTIONARYWDFLT
  2
AcDbDictionaryWithDefault
  3
ObjectDBX Classes
 90
        0
 91
        1
280
     0
281
     0
  0
CLASS
  1
TABLESTYLE
  2
AcDbTableStyle
  3
ObjectDBX Classes
 90
     2047
 91
        1
280
     0
281
     0
  0
CLASS
  1
ACME_DOCUMENT
  2
AcMeDbDoc
  3
AcMeServices
 90
        0
 91
        2
280
     0
281
     0
  0
CLASS
  1
AMGSETTINGSOBJ
  2
AmgSettingsObj
  3
"AcadM|Product Description: AutoCAD Mechanical 2000|Company: Autodesk"
 90
        0
 91
        2
280
     0
281
     0
  0
CLASS
  1
ACMESCOPE
  2
AcMeScope
  3
AcMeServices
 90
        0
 91
        1
280
     0
281
     0
  0
CLASS
  1
ACMECOMMANDHISTORY
  2
AcMeCommandHistory
  3
AcMeServices
 90
        0
 91
        1
280
     0
281
     0
  0
CLASS
  1
ACIMSYSVARMAN
  2
AcImSysVarManager
  3
AcMeServices
 90
        0
 91
        6
280
     0
281
     0
  0
CLASS
  1
ACIMREALSYSVAR
  2
AcImRealSysVar
  3
AcMeServices
 90
        0
 91
       16
280
     0
281
     0
  0
CLASS
  1
ACIMINTSYSVAR
  2
AcImIntSysVar
  3
AcMeServices
 90
        0
 91
       45
280
     0
281
     0
  0
CLASS
  1
ACMEDRAWINGMAN
  2
AcMeDrawingMan
  3
AcMeServices
 90
        0
 91
        1
280
     0
281
     0
  0
CLASS
  1
ACMEVIEW
  2
AcMeView
  3
AcMeServices
 90
        0
 91
        1
280
     0
281
     0
  0
CLASS
  1
ACDBENTITYCACHE
  2
AcMeEntityCache
  3
AcMeServices
 90
        0
 91
        1
280
     0
281
     0
  0
CLASS
  1
GSMANAGER
  2
AcMeGSManager
  3
AcMeServices
 90
        0
 91
        1
280
     0
281
     0
  0
CLASS
  1
AMDTINTERNALREACTOR
  2
AmdtInternalReactor
  3
AcMeServices
 90
        0
 91
        2
280
     0
281
     0
  0
CLASS
  1
ACMESTATEMGR
  2
AcMeStateMgr
  3
AcMeServices
 90
        0
 91
        1
280
     0
281
     0
  0
CLASS
  1
ACGREFMASTER
  2
AcGrefMaster
  3
AcAttribServices
 90
        0
 91
        1
280
     0
281
     0
  0
CLASS
  1
AM_DRAWING_MGR
  2
AcDmDwgMgr
  3
AcMechDwgViewMgmt
 90
        0
 91
        1
280
     0
281
     0
  0
CLASS
  1
AM_DWG_DOCUMENT
  2
AcDmDwgDocument
  3
AcMechDwgViewMgmt
 90
        0
 91
        1
280
     0
281
     0
  0
CLASS
  1
AM_DWG_SHEET
  2
AcDmSheet
  3
AcMechDwgViewMgmt
 90
        0
 91
        1
280
     0
281
     0
  0
CLASS
  1
AM_VIEWDIMPARMAP
  2
AcDmViewDimParMap
  3
AcMechDwgViewMgmt
 90
        0
 91
        1
280
     0
281
     0
  0
CLASS
  1
AM_DWGMGR_NAME
  2
AcDmDwgMgrName
  3
AcMechDwgViewMgmt
 90
        0
 91
        1
280
     0
281
     0
  0
CLASS
  1
ACME_DATABASE
  2
AcMeDbDatabase
  3
AcMeServices
 90
        0
 91
        1
280
     0
281
     0
  0
CLASS
  1
ACRFINSADJUSTERMGR
  2
AcRfInsAdjusterMgr
  3
AcMeServices
 90
        0
 91
        1
280
     0
281
     0
  0
CLASS
  1
ACGREFACADMASTER
  2
AcGrefacadMaster
  3
AcGrefServices
 90
        0
 91
        1
280
     0
281
     0
  0
CLASS
  1
AMDTMENUSTATEMGR
  2
AmdtMenuStateMgr
  3
McadcomServices
 90
        0
 91
        1
280
     0
281
     0
  0
CLASS
  1
AMDTMCOMMENUSTATE
  2
AmdtMcomMenuState
  3
McadcomServices
 90
        0
 91
        1
280
     0
281
     0
  0
CLASS
  1
AMIMASTER
  2
AmiMaster
  3
AmiServices
 90
        0
 91
        1
280
     0
281
     0
  0
CLASS
  1
ASAPP
  2
AcAsAppObject
  3
AutoSurfServices
 90
        0
 91
        1
280
     0
281
     0
  0
CLASS
  1
IM_STATIC_MAN
  2
AcImStaticVarManager
  3
AcMeServices
 90
        0
 91
        1
280
     0
281
     0
  0
CLASS
  1
ACIMSTRSYSVAR
  2
AcImStrSysVar
  3
AcMeServices
 90
        0
 91
       11
280
     0
281
     0
  0
CLASS
  1
ACIMDBLSTATICVAR
  2
AcImDblStaticVar
  3
AcMeServices
 90
        0
 91
       20
280
     0
281
     0
  0
CLASS
  1
ACIMSTRSTATICVAR
  2
AcImStrStaticVar
  3
AcMeServices
 90
        0
 91
       12
280
     0
281
     0
  0
CLASS
  1
ACIMINTSTATICVAR
  2
AcImIntStaticVar
  3
AcMeServices
 90
        0
 91
       17
280
     0
281
     0
  0
CLASS
  1
ACASGREFMASTER
  2
AcAsGrefMaster
  3
AutoSurfResolverServices
 90
        0
 91
        1
280
     0
281
     0
  0
CLASS
  1
ACADGREFMODULE
  2
AcAdGrefModule
  3
AdGrefServices
 90
        0
 91
        1
280
     0
281
     0
  0
CLASS
  1
AMDTMAPISURFMOUDULE
  2
AmdtMApiSurfModule
  3
MApiSurfServices
 90
        0
 91
        1
280
     0
281
     0
  0
CLASS
  1
MAPIAMMOUDLE
  2
MApiAmModule
  3
MApiAmServices
 90
        0
 91
        1
280
     0
281
     0
  0
CLASS
  1
AMDTADMENUSTATE
  2
AmdtAdMenuState
  3
DesignerServices
 90
        0
 91
        1
280
     0
281
     0
  0
CLASS
  1
ADAPPL
  2
AcAdAppl
  3
DesignerServices
 90
        0
 91
        1
280
     0
281
     0
  0
CLASS
  1
DEPMGR
  2
AcAdDepMgr
  3
DesignerServices
 90
        0
 91
        1
280
     0
281
     0
  0
CLASS
  1
PARAMMGR
  2
AcAdParamMgr
  3
DesignerServices
 90
        0
 91
        1
280
     0
281
     0
  0
CLASS
  1
PARAMSCOPE
  2
AcAdParamScope
  3
DesignerServices
 90
        0
 91
        1
280
     0
281
     0
  0
CLASS
  1
NAMEDAPPL
  2
AcAdNamedAppl
  3
DesignerServices
 90
        0
 91
        1
280
     0
281
     0
  0
CLASS
  1
AMDTDMMENUSTATE
  2
AmdtDmMenuState
  3
AcMechDwgViewMgmt
 90
        0
 91
        1
280
     0
281
     0
  0
CLASS
  1
MAPIADMODULE
  2
MApiAdModule
  3
MApiAdServices
 90
        0
 91
        1
280
     0
281
     0
  0
CLASS
  1
AMDTAMMENUSTATE
  2
AmdtAmMenuState
  3
DesignerAssemblies
 90
        0
 91
        1
280
     0
281
     0
  0
CLASS
  1
ACAMPROJECT
  2
AcAmProject
  3
DesignerAssemblies
 90
        0
 91
        1
280
     0
281
     0
  0
CLASS
  1
ACAMGRCOMPDEF
  2
AcAmGrCompDef
  3
DesignerAssemblies
 90
        0
 91
        1
280
     0
281
     0
  0
CLASS
  1
ACCMCONTEXT
  2
AcCmContext
  3
DesignerAssemblies
 90
        0
 91
        1
280
     0
281
     0
  0
CLASS
  1
ACAMCOMPDEF
  2
AcAmCompDef
  3
DesignerAssemblies
 90
        0
 91
        1
280
     0
281
     0
  0
CLASS
  1
ACAMCOMPDEFMGR
  2
AcAmCompDefMgr
  3
DesignerAssemblies
 90
        0
 91
        1
280
     0
281
     0
  0
CLASS
  1
AMCONTEXTMGR
  2
AcAmContextMgr
  3
DesignerAssemblies
 90
        0
 91
        1
280
     0
281
     0
  0
CLASS
  1
ACAMCONTEXTMODELER
  2
AcAmContextModeler
  3
DesignerAssemblies
 90
        0
 91
        1
280
     0
281
     0
  0
CLASS
  1
ACMDATADICTIONARY
  2
AcmDataDictionary
  3
"AcmSymBB|Product Description: AutoCAD Mechanical 2004 DX|Company: Autodesk"
 90
        0
 91
        1
280
     0
281
     0
  0
CLASS
  1
ACMDATAENTRYBLOCK
  2
AcmDataEntryBlock
  3
"AcmSymBB|Product Description: AutoCAD Mechanical 2004 DX|Company: Autodesk"
 90
        0
 91
        1
280
     0
281
     0
  0
CLASS
  1
CATALOGSTATE
  2
AcAmCatalogState
  3
DesignerAssemblies
 90
        0
 91
        1
280
     0
281
     0
  0
CLASS
  1
ACAMGRCOMPDEFSET
  2
AcAmGrCompDefSet
  3
DesignerAssemblies
 90
        0
 91
        1
280
     0
281
     0
  0
CLASS
  1
AMDTBROWSERDBTAB
  2
AmdtBrowserDbTab
  3
McadcomServices
 90
        0
 91
        1
280
     0
281
     0
  0
CLASS
  1
CBROWSERAPPOBJECT
  2
CBrowserAppObject
  3
McadcomServices
 90
        0
 91
        3
280
     0
281
     0
  0
CLASS
  1
DM_PLACEHOLDER
  2
AcDmSelsetPlaceholder
  3
AcMechDwgViewMgmt
 90
        0
 91
        1
280
     0
281
     0
  0
CLASS
  1
ACMSTANDARDANSI
  2
AcmStandardANSI
  3
"Amdt_StdImp|Product Description: AutoCAD Mechanical 2004 DX|Company: Autodesk"
 90
        0
 91
        1
280
     0
281
     0
  0
CLASS
  1
AMGOBJPROPCFG
  2
AmgObjPropCfg
  3
"AmgLay|Product Description: AutoCAD Mechanical 2000|Company: Autodesk"
 90
        1
 91
        1
280
     0
281
     0
  0
CLASS
  1
ACMSURFSTANDARDANSI
  2
AcmSurfTextStdANSI
  3
"Amdt_StdImp|Product Description: AutoCAD Mechanical 2004 DX|Company: Autodesk"
 90
        0
 91
        1
280
     0
281
     0
  0
CLASS
  1
ACMFCFSTANDARDANSI
  2
AcmFCFStdANSI
  3
"Amdt_StdImp|Product Description: AutoCAD Mechanical 2004 DX|Company: Autodesk"
 90
        0
 91
        1
280
     0
281
     0
  0
CLASS
  1
ACMWELDSTANDARDANSI
  2
AcmWeldingStdANSI
  3
"Amdt_StdImp|Product Description: AutoCAD Mechanical 2004 DX|Company: Autodesk"
 90
        0
 91
        1
280
     0
281
     0
  0
CLASS
  1
ACMIDSTANDARDANSI
  2
AcmIdStdANSI
  3
"Amdt_StdImp|Product Description: AutoCAD Mechanical 2004 DX|Company: Autodesk"
 90
        0
 91
        1
280
     0
281
     0
  0
CLASS
  1
ACMDATUMSTANDARDANSI
  2
AcmDatumStdANSI
  3
"Amdt_StdImp|Product Description: AutoCAD Mechanical 2004 DX|Company: Autodesk"
 90
        0
 91
        1
280
     0
281
     0
  0
CLASS
  1
ACMBOMSTANDARDANSI
  2
AcmBOMStdANSI
  3
"Amdt_StdImp|Product Description: AutoCAD Mechanical 2004 DX|Company: Autodesk"
 90
        0
 91
        1
280
     0
281
     0
  0
CLASS
  1
ACMDETAILSTANDARDANSI
  2
AmdtDetailSymStdANSI
  3
"Amdt_StdImp|Product Description: AutoCAD Mechanical 2004 DX|Company: Autodesk"
 90
        0
 91
        1
280
     0
281
     0
  0
CLASS
  1
ACMSECTIONSTANDARDANSI
  2
AmdtSectionSymStdANSI
  3
"Amdt_StdImp|Product Description: AutoCAD Mechanical 2004 DX|Company: Autodesk"
 90
        0
 91
        1
280
     0
281
     0
  0
CLASS
  1
ACMCENTERLINESTANDARDANSI
  2
AmdtCenterLineStdANSI
  3
"Amdt_StdImp|Product Description: AutoCAD Mechanical 2004 DX|Company: Autodesk"
 90
        0
 91
        1
280
     0
281
     0
  0
CLASS
  1
ACMTHREADLINESTANDARDANSI
  2
AmdtThreadLineStdANSI
  3
"Amdt_StdImp|Product Description: AutoCAD Mechanical 2004 DX|Company: Autodesk"
 90
        0
 91
        1
280
     0
281
     0
  0
CLASS
  1
ACMNOTESTANDARDANSI
  2
AmdtNoteStdANSI
  3
"Amdt_StdImp|Product Description: AutoCAD Mechanical 2004 DX|Company: Autodesk"
 90
        0
 91
        1
280
     0
281
     0
  0
CLASS
  1
AMDTNOTETEMPLATEDB
  2
AmdtNoteTemplateDB
  3
AMDT_STDIMP_MODULE_NAME
 90
        0
 91
        6
280
     0
281
     0
  0
CLASS
  1
ACAMGLAYSTD
  2
AcAmgLayStd
  3
"AcAmgLayStd|Product Description: AutoCAD Mechanical 2000|Company: Autodesk"
 90
        0
 91
        1
280
     0
281
     0
  0
CLASS
  1
ACAMGDIMSTD
  2
AcAmgDimStd
  3
"AcAmgDimStd|Product Description: AutoCAD Mechanical 2000|Company: Autodesk"
 90
        0
 91
        1
280
     0
281
     0
  0
CLASS
  1
ACAMGHOLECHARTSTDANSI
  2
AcAmgHoleChartStdANSI
  3
ACMSYMBB_MODULE_NAME
 90
        0
 91
        1
280
     0
281
     0
  0
CLASS
  1
ACAMGTITLESTD
  2
AcAmgTitleStd
  3
"TITLEAPP"
 90
        0
 91
        1
280
     0
281
     0
  0
CLASS
  1
ACAMGFILTERDAT
  2
AcAmgFilterDat
  3
"AcadM|Product Description: AutoCAD Mechanical 2000|Company: Autodesk"
 90
        0
 91
        6
280
     0
281
     0
  0
CLASS
  1
EXACXREFPANELOBJECT
  2
ExAcXREFPanelObject
  3
EXAC_ESW
 90
        0
 91
        1
280
     0
281
     0
  0
ENDSEC
  0
SECTION
  2
TABLES
  0
TABLE
  2
VPORT
  5
7
330
0
100
AcDbSymbolTable
 70
     5
  0
VPORT
  5
2FA
330
7
100
AcDbSymbolTableRecord
100
AcDbViewportTableRecord
  2
*Active
 70
     0
 10
0.0
 20
0.0
 11
1.0
 21
1.0
 12
0.1286052287365069
 22
-0.126667842804637
 13
0.0
 23
0.0
 14
1.0
 24
1.0
 15
0.0
 25
0.0
 16
0.0
 26
0.0
 36
1.0
 17
0.42499487103109
 27
0.7344177331246896
 37
0.0
 40
0.721560957015555
 41
1.435540069686411
 42
50.0
 43
0.0
 44
0.0
 50
0.0
 51
0.0
 71
     0
 72
   100
 73
     1
 74
     1
 75
     0
 76
     0
 77
     0
 78
     0
281
     0
 65
     0
110
0.0
120
0.0
130
0.0
111
1.0
121
0.0
131
0.0
112
0.0
122
1.0
132
0.0
 79
     0
146
0.0
  0
ENDTAB
  0
TABLE
  2
LTYPE
  5
4
330
0
100
AcDbSymbolTable
 70
    20
  0
LTYPE
  5
11
330
4
100
AcDbSymbolTableRecord
100
AcDbLinetypeTableRecord
  2
BYBLOCK
 70
     0
  3

 72
    65
 73
     0
 40
0.0
  0
LTYPE
  5
12
330
4
100
AcDbSymbolTableRecord
100
AcDbLinetypeTableRecord
  2
BYLAYER
 70
     0
  3

 72
    65
 73
     0
 40
0.0
  0
LTYPE
  5
13
330
4
100
AcDbSymbolTableRecord
100
AcDbLinetypeTableRecord
  2
CONTINUOUS
 70
     0
  3
Solid line
 72
    65
 73
     0
 40
0.0
  0
LTYPE
  5
1D
330
4
100
AcDbSymbolTableRecord
100
AcDbLinetypeTableRecord
  2
DASHED
 70
     0
  3
_ _ _ _ _ _ _ _ _ _ _ _ _ _ _ _
 72
    65
 73
     2
 40
0.2
 49
0.1
 74
     0
 49
-0.1
 74
     0
  0
LTYPE
  5
1E
330
4
100
AcDbSymbolTableRecord
100
AcDbLinetypeTableRecord
  2
CENTER
 70
     0
  3
___ _ ___ _ ___ _ ___ _ ___ _ ___ _ ___ _ ___ _
 72
    65
 73
     4
 40
0.95
 49
0.625
 74
     0
 49
-0.125
 74
     0
 49
0.075
 74
     0
 49
-0.125
 74
     0
  0
LTYPE
  5
1F
330
4
100
AcDbSymbolTableRecord
100
AcDbLinetypeTableRecord
  2
PHANTOM
 70
     0
  3
______  __  __  ______  __  __  ______  __  __  
 72
    65
 73
     6
 40
1.024999999999999
 49
0.625
 74
     0
 49
-0.125
 74
     0
 49
0.075
 74
     0
 49
-0.125
 74
     0
 49
0.075
 74
     0
 49
-0.125
 74
     0
  0
LTYPE
  5
17C
330
4
100
AcDbSymbolTableRecord
100
AcDbLinetypeTableRecord
  2
HIDDEN
 70
     0
  3
Hidden __ __ __ __ __ __ __ __ __ __ __ __ __ _
 72
    65
 73
     2
 40
0.375
 49
0.25
 74
     0
 49
-0.125
 74
     0
  0
LTYPE
  5
17D
330
4
100
AcDbSymbolTableRecord
100
AcDbLinetypeTableRecord
  2
PHANTOM2
 70
     0
  3
Phantom (.5x) ___ _ _ ___ _ _ ___ _ _ ___ _ _
 72
    65
 73
     6
 40
1.25
 49
0.625
 74
     0
 49
-0.125
 74
     0
 49
0.125
 74
     0
 49
-0.125
 74
     0
 49
0.125
 74
     0
 49
-0.125
 74
     0
  0
LTYPE
  5
1CC
330
4
100
AcDbSymbolTableRecord
100
AcDbLinetypeTableRecord
  2
ASULTYPE
 70
     0
  3
Solid line
 72
    65
 73
     2
 40
3.0
 49
2.5
 74
     0
 49
0.5
 74
     0
  0
LTYPE
  5
1CD
330
4
100
AcDbSymbolTableRecord
100
AcDbLinetypeTableRecord
  2
ASVLTYPE
 70
     0
  3
__ __ __ __ __ __ __ __ __ __ __ __ __ __ __ __ __ __ __ __ __
 72
    65
 73
     2
 40
0.75
 49
0.5
 74
     0
 49
-0.25
 74
     0
  0
LTYPE
  5
214
330
4
100
AcDbSymbolTableRecord
100
AcDbLinetypeTableRecord
  2
AM_ISO02W050
 70
     0
  3
__ __ __ __ __ __ __ __ __ __ __ __ __ __ __
 72
    65
 73
     2
 40
7.5
 49
6.0
 74
     0
 49
-1.5
 74
     0
  0
LTYPE
  5
215
330
4
100
AcDbSymbolTableRecord
100
AcDbLinetypeTableRecord
  2
AM_ISO08W050
 70
     0
  3
____ . ____ . ____ . ____ . ____ . ____ . ____
 72
    65
 73
     4
 40
18.0
 49
12.0
 74
     0
 49
-1.5
 74
     0
 49
3.0
 74
     0
 49
-1.5
 74
     0
  0
LTYPE
  5
216
330
4
100
AcDbSymbolTableRecord
100
AcDbLinetypeTableRecord
  2
AM_ISO09W050
 70
     0
  3
_____ . . _____ . . _____ . . ____ .. ____
 72
    65
 73
     6
 40
22.5
 49
12.0
 74
     0
 49
-1.5
 74
     0
 49
3.0
 74
     0
 49
-1.5
 74
     0
 49
3.0
 74
     0
 49
-1.5
 74
     0
  0
LTYPE
  5
217
330
4
100
AcDbSymbolTableRecord
100
AcDbLinetypeTableRecord
  2
Amconstr
 70
     0
  3
_______________________
 72
    65
 73
     2
 40
9999.0
 49
9999.0
 74
     0
 49
0.0
 74
     0
  0
LTYPE
  5
218
330
4
100
AcDbSymbolTableRecord
100
AcDbLinetypeTableRecord
  2
AM_ISO08W050x2
 70
     0
  3
__ . __ . __ . __ . __ . __
 72
    65
 73
     4
 40
9.0
 49
6.0
 74
     0
 49
-0.75
 74
     0
 49
1.5
 74
     0
 49
-0.75
 74
     0
  0
LTYPE
  5
219
330
4
100
AcDbSymbolTableRecord
100
AcDbLinetypeTableRecord
  2
AM_ISO02W050x2
 70
     0
  3
 _ _ _ _ _ _ _ _ _ _ _ _
 72
    65
 73
     2
 40
3.75
 49
3.0
 74
     0
 49
-0.75
 74
     0
  0
LTYPE
  5
21C
330
4
100
AcDbSymbolTableRecord
100
AcDbLinetypeTableRecord
  2
Amzigzag
 70
     0
  3
/\/-/\/-/\/-/\/-/\/-/\/
 72
    65
 73
     2
 40
11.0001
 49
0.0001
 74
     4
 75
   136
340
21B
 46
0.04
 50
0.0
 44
0.0
 45
0.0
 49
-11.0
 74
     0
  0
LTYPE
  5
21D
330
4
100
AcDbSymbolTableRecord
100
AcDbLinetypeTableRecord
  2
CENTER2
 70
     0
  3
Center (.5x) ___ _ ___ _ ___ _ ___ _ ___ _ ___
 72
    65
 73
     4
 40
1.125
 49
0.75
 74
     0
 49
-0.125
 74
     0
 49
0.125
 74
     0
 49
-0.125
 74
     0
  0
LTYPE
  5
21E
330
4
100
AcDbSymbolTableRecord
100
AcDbLinetypeTableRecord
  2
HIDDEN2
 70
     0
  3
Hidden (.5x) _ _ _ _ _ _ _ _ _ _ _ _ _ _ _ _ _
 72
    65
 73
     2
 40
0.1875
 49
0.125
 74
     0
 49
-0.0625
 74
     0
  0
LTYPE
  5
21F
330
4
100
AcDbSymbolTableRecord
100
AcDbLinetypeTableRecord
  2
Amzigzag2
 70
     0
  3
/\/-/\/-/\/-/\/-/\/-/\/
 72
    65
 73
     2
 40
0.4401
 49
0.0001
 74
     4
 75
   136
340
21B
 46
0.0016
 50
0.0
 44
0.0
 45
0.0
 49
-0.4400000000000001
 74
     0
  0
LTYPE
  5
22D
330
4
100
AcDbSymbolTableRecord
100
AcDbLinetypeTableRecord
  2
ACANSTGB
 70
     0
  3
__ . . __ . .
 72
    65
 73
     6
 40
0.35433070866
 49
0.15748031496
 74
     0
 49
-0.03937007874
 74
     0
 49
0.03937007874
 74
     0
 49
-0.03937007874
 74
     0
 49
0.03937007874
 74
     0
 49
-0.03937007874
 74
     0
  0
LTYPE
  5
22E
330
4
100
AcDbSymbolTableRecord
100
AcDbLinetypeTableRecord
  2
ACANSTGL
 70
     0
  3
_ _ _ _ _
 72
    65
 73
     2
 40
0.11811023622
 49
0.07874015748
 74
     0
 49
-0.03937007874
 74
     0
  0
ENDTAB
  0
TABLE
  2
LAYER
  5
2
102
{ACAD_XDICTIONARY
360
270
102
}
330
0
100
AcDbSymbolTable
 70
     5
  0
LAYER
  5
14
330
2
100
AcDbSymbolTableRecord
100
AcDbLayerTableRecord
  2
0
 70
     0
 62
     7
  6
CONTINUOUS
370
    -3
390
E7
  0
LAYER
  5
25
330
2
100
AcDbSymbolTableRecord
100
AcDbLayerTableRecord
  2
DIMENSIONS
 70
     0
 62
     7
  6
CONTINUOUS
370
    -3
390
E7
  0
LAYER
  5
36
330
2
100
AcDbSymbolTableRecord
100
AcDbLayerTableRecord
  2
DEFPOINTS
 70
     0
 62
     7
  6
CONTINUOUS
290
     0
370
    -3
390
E7
  0
LAYER
  5
26E
330
2
100
AcDbSymbolTableRecord
100
AcDbLayerTableRecord
  2
PRODUCT
 70
     0
 62
     7
  6
CONTINUOUS
370
    -3
390
E7
1001
AcAecLayerStandard
1000

1000

  0
ENDTAB
  0
TABLE
  2
STYLE
  5
3
330
0
100
AcDbSymbolTable
 70
     4
  0
STYLE
  5
17
330
3
100
AcDbSymbolTableRecord
100
AcDbTextStyleTableRecord
  2
STANDARD
 70
     0
 40
0.0
 41
1.0
 50
0.0
 71
     0
 42
0.0
  3
txt
  4

  0
STYLE
  5
21B
330
3
100
AcDbSymbolTableRecord
100
AcDbTextStyleTableRecord
  2

 70
     1
 40
0.0
 41
1.0
 50
0.0
 71
     0
 42
0.0125
  3
genltshp.shx
  4

  0
STYLE
  5
220
330
3
100
AcDbSymbolTableRecord
100
AcDbTextStyleTableRecord
  2
ACANSTS
 70
     0
 40
1.0
 41
1.0
 50
0.0
 71
     0
 42
0.0125
  3
romans.shx
  4

  0
STYLE
  5
22C
330
3
100
AcDbSymbolTableRecord
100
AcDbTextStyleTableRecord
  2
ACANSGDT
 70
     0
 40
0.0
 41
1.0
 50
0.0
 71
     0
 42
0.0125
  3
AMGDT
  4

  0
ENDTAB
  0
TABLE
  2
VIEW
  5
5
330
0
100
AcDbSymbolTable
 70
     0
  0
ENDTAB
  0
TABLE
  2
UCS
  5
6
330
0
100
AcDbSymbolTable
 70
     1
  0
UCS
  5
20
330
6
100
AcDbSymbolTableRecord
100
AcDbUCSTableRecord
  2
CK_VIEW_1
 70
     0
 10
0.0
 20
0.0
 30
1.0
 11
1.0
 21
0.0
 31
0.0
 12
0.0
 22
1.0
 32
0.0
 79
     0
146
0.0
  0
ENDTAB
  0
TABLE
  2
APPID
  5
8
330
0
100
AcDbSymbolTable
 70
    17
  0
APPID
  5
16
330
8
100
AcDbSymbolTableRecord
100
AcDbRegAppTableRecord
  2
ACAD
 70
     0
  0
APPID
  5
F0
330
8
100
AcDbSymbolTableRecord
100
AcDbRegAppTableRecord
  2
DCO15
 70
     0
  0
APPID
  5
148
330
8
100
AcDbSymbolTableRecord
100
AcDbRegAppTableRecord
  2
GENIUS_GENDIM_13
 70
     0
  0
APPID
  5
149
330
8
100
AcDbSymbolTableRecord
100
AcDbRegAppTableRecord
  2
GENIUS_GENDTOL_13
 70
     0
  0
APPID
  5
14A
330
8
100
AcDbSymbolTableRecord
100
AcDbRegAppTableRecord
  2
GENIUS_GE3DTOL_13
 70
     0
  0
APPID
  5
14D
330
8
100
AcDbSymbolTableRecord
100
AcDbRegAppTableRecord
  2
MCAD_NO_VIS
 70
     0
  0
APPID
  5
14E
330
8
100
AcDbSymbolTableRecord
100
AcDbRegAppTableRecord
  2
ACAD_TEMP_GRAPHIC
 70
     0
  0
APPID
  5
17F
330
8
100
AcDbSymbolTableRecord
100
AcDbRegAppTableRecord
  2
AD_DRAW
 70
     0
  0
APPID
  5
182
330
8
100
AcDbSymbolTableRecord
100
AcDbRegAppTableRecord
  2
ACATTRIBSERVICES
 70
     0
  0
APPID
  5
1CE
330
8
100
AcDbSymbolTableRecord
100
AcDbRegAppTableRecord
  2
ASURF_PCURVE_APPNAME
 70
     0
  0
APPID
  5
1D3
330
8
100
AcDbSymbolTableRecord
100
AcDbRegAppTableRecord
  2
AMG_3D2D_5.0
 70
     0
  0
APPID
  5
204
330
8
100
AcDbSymbolTableRecord
100
AcDbRegAppTableRecord
  2
DESIGNERASSEMBLIES
 70
     0
  0
APPID
  5
20B
330
8
100
AcDbSymbolTableRecord
100
AcDbRegAppTableRecord
  2
ACADM_DIM_EDIT
 70
     0
  0
APPID
  5
20C
330
8
100
AcDbSymbolTableRecord
100
AcDbRegAppTableRecord
  2
AMDT_DM_ADJ
 70
     0
  0
APPID
  5
23A
330
8
100
AcDbSymbolTableRecord
100
AcDbRegAppTableRecord
  2
ACAD_DSTYLE_DIMARC_LENGTH_SYMBOL
 70
     0
  0
APPID
  5
23B
330
8
100
AcDbSymbolTableRecord
100
AcDbRegAppTableRecord
  2
ACAD_DSTYLE_DIMJOGGED_JOGANGLE_SYMBOL
 70
     0
  0
APPID
  5
26F
330
8
100
AcDbSymbolTableRecord
100
AcDbRegAppTableRecord
  2
AcAecLayerStandard
 70
     0
  0
ENDTAB
  0
TABLE
  2
DIMSTYLE
  5
9
330
0
100
AcDbSymbolTable
 70
    13
100
AcDbDimStyleTable
 71
     0
  0
DIMSTYLE
105
18
330
9
100
AcDbSymbolTableRecord
100
AcDbDimStyleTableRecord
  2
STANDARD
 70
     0
289
     0
340
17
  0
DIMSTYLE
105
32
102
{ACAD_REACTORS
330
35
102
}
330
9
100
AcDbSymbolTableRecord
100
AcDbDimStyleTableRecord
  2
DIMSTYLE1
 70
     0
 41
0.0125
 44
0.0125
140
0.0125
289
     0
340
17
  0
DIMSTYLE
105
42
102
{ACAD_REACTORS
330
45
102
}
330
9
100
AcDbSymbolTableRecord
100
AcDbDimStyleTableRecord
  2
DIMSTYLE2
 70
     0
 41
0.0125
 44
0.0125
140
0.0125
289
     0
340
17
  0
DIMSTYLE
105
55
102
{ACAD_REACTORS
330
58
102
}
330
9
100
AcDbSymbolTableRecord
100
AcDbDimStyleTableRecord
  2
DIMSTYLE3
 70
     0
 41
0.0125
 44
0.0125
140
0.0125
289
     0
340
17
  0
DIMSTYLE
105
65
102
{ACAD_REACTORS
330
68
102
}
330
9
100
AcDbSymbolTableRecord
100
AcDbDimStyleTableRecord
  2
DIMSTYLE4
 70
     0
 41
0.0125
 44
0.0125
140
0.0125
289
     0
340
17
  0
DIMSTYLE
105
75
102
{ACAD_REACTORS
330
78
102
}
330
9
100
AcDbSymbolTableRecord
100
AcDbDimStyleTableRecord
  2
DIMSTYLE5
 70
     0
 41
0.0125
 44
0.0125
140
0.0125
289
     0
340
17
  0
DIMSTYLE
105
84
102
{ACAD_REACTORS
330
87
102
}
330
9
100
AcDbSymbolTableRecord
100
AcDbDimStyleTableRecord
  2
DIMSTYLE6
 70
     0
 41
0.0125
 44
0.0125
140
0.0125
289
     0
340
17
  0
DIMSTYLE
105
239
330
9
100
AcDbSymbolTableRecord
100
AcDbDimStyleTableRecord
  2
AM_ANSI
 70
     0
  4
mm
 41
0.1
 42
0.05
 43
0.5
 44
0.1
 47
0.1
 48
0.1
 78
     7
 79
     2
140
0.12
141
0.0
146
0.71
147
0.06
176
   256
177
   256
178
     2
274
     4
284
     7
340
17
371
    -1
372
    -1
1001
ACAD_DSTYLE_DIMARC_LENGTH_SYMBOL
1070
   379
1070
     1
1001
ACAD_DSTYLE_DIMJOGGED_JOGANGLE_SYMBOL
1070
   384
1040
0.7853981633974483
  0
DIMSTYLE
105
242
330
9
100
AcDbSymbolTableRecord
100
AcDbDimStyleTableRecord
  2
AM_ANSI$3
 70
     0
  4
mm
 41
0.1
 42
0.05
 43
0.5
 44
0.1
 47
0.1
 48
0.1
 78
     7
 79
     2
140
0.12
141
0.0
146
0.71
147
0.06
176
   256
177
   256
178
     2
274
     4
284
     7
288
     1
289
     0
340
17
371
    -1
372
    -1
1001
ACAD_DSTYLE_DIMARC_LENGTH_SYMBOL
1070
   379
1070
     1
1001
ACAD_DSTYLE_DIMJOGGED_JOGANGLE_SYMBOL
1070
   384
1040
0.7853981633974483
  0
DIMSTYLE
105
245
330
9
100
AcDbSymbolTableRecord
100
AcDbDimStyleTableRecord
  2
AM_ANSI$4
 70
     0
  4
mm
 41
0.1
 42
0.05
 43
0.5
 44
0.1
 47
0.1
 48
0.1
 78
     7
 79
     2
140
0.12
141
0.0
146
0.71
147
0.06
176
   256
177
   256
178
     2
274
     4
284
     7
288
     1
289
     0
340
17
371
    -1
372
    -1
1001
ACAD_DSTYLE_DIMARC_LENGTH_SYMBOL
1070
   379
1070
     1
1001
ACAD_DSTYLE_DIMJOGGED_JOGANGLE_SYMBOL
1070
   384
1040
0.7853981633974483
  0
DIMSTYLE
105
24A
330
9
100
AcDbSymbolTableRecord
100
AcDbDimStyleTableRecord
  2
AM_ANSI$7
 70
     0
  4
mm
 41
0.1
 42
0.05
 43
0.5
 44
0.1
 47
0.1
 48
0.1
 78
     7
 79
     2
140
0.24
141
0.0
146
0.71
147
0.06
176
   256
177
   256
178
     2
274
     4
284
     7
340
17
371
    -1
372
    -1
1001
ACAD_DSTYLE_DIMARC_LENGTH_SYMBOL
1070
   379
1070
     1
1001
ACAD_DSTYLE_DIMJOGGED_JOGANGLE_SYMBOL
1070
   384
1040
0.7853981633974483
  0
DIMSTYLE
105
24D
330
9
100
AcDbSymbolTableRecord
100
AcDbDimStyleTableRecord
  2
AM_ANSI$SF
 70
     0
  4
mm
 41
0.1
 42
0.05
 43
0.5
 44
0.1
 47
0.1
 48
0.1
 75
     1
 76
     1
 78
     7
 79
     2
140
0.12
141
0.0
146
0.71
147
0.06
176
   256
177
   256
178
     2
274
     4
284
     7
340
17
371
    -1
372
    -1
1001
ACAD_DSTYLE_DIMARC_LENGTH_SYMBOL
1070
   379
1070
     1
1001
ACAD_DSTYLE_DIMJOGGED_JOGANGLE_SYMBOL
1070
   384
1040
0.7853981633974483
  0
DIMSTYLE
105
254
330
9
100
AcDbSymbolTableRecord
100
AcDbDimStyleTableRecord
  2
AM_ANSI$SH
 70
     0
  4
mm
 41
0.1
 42
0.05
 43
0.5
 44
0.1
 47
0.1
 48
0.1
 75
     1
 76
     1
 78
     7
 79
     2
140
0.12
141
0.0
146
0.71
147
0.06
173
     1
176
   256
177
   256
178
     2
274
     4
284
     7
340
17
343
24E
371
    -1
372
    -1
1001
ACAD_DSTYLE_DIMARC_LENGTH_SYMBOL
1070
   379
1070
     1
1001
ACAD_DSTYLE_DIMJOGGED_JOGANGLE_SYMBOL
1070
   384
1040
0.7853981633974483
  0
ENDTAB
  0
TABLE
  2
BLOCK_RECORD
  5
1
330
0
100
AcDbSymbolTable
 70
     8
  0
BLOCK_RECORD
  5
A
102
{ACAD_XDICTIONARY
360
25A
102
}
330
1
100
AcDbSymbolTableRecord
100
AcDbBlockTableRecord
  2
*MODEL_SPACE
340
EA
  0
BLOCK_RECORD
  5
B
330
1
100
AcDbSymbolTableRecord
100
AcDbBlockTableRecord
  2
*PAPER_SPACE
340
EB
  0
BLOCK_RECORD
  5
33
330
1
100
AcDbSymbolTableRecord
100
AcDbBlockTableRecord
  2
*D0
340
0
  0
BLOCK_RECORD
  5
43
330
1
100
AcDbSymbolTableRecord
100
AcDbBlockTableRecord
  2
*D1
340
0
  0
BLOCK_RECORD
  5
56
330
1
100
AcDbSymbolTableRecord
100
AcDbBlockTableRecord
  2
*D2
340
0
  0
BLOCK_RECORD
  5
66
330
1
100
AcDbSymbolTableRecord
100
AcDbBlockTableRecord
  2
*D3
340
0
  0
BLOCK_RECORD
  5
76
330
1
100
AcDbSymbolTableRecord
100
AcDbBlockTableRecord
  2
*D4
340
0
  0
BLOCK_RECORD
  5
85
330
1
100
AcDbSymbolTableRecord
100
AcDbBlockTableRecord
  2
*D5
340
0
  0
BLOCK_RECORD
  5
1FB
330
1
100
AcDbSymbolTableRecord
100
AcDbBlockTableRecord
  2
*U6
340
0
  0
BLOCK_RECORD
  5
24E
330
1
100
AcDbSymbolTableRecord
100
AcDbBlockTableRecord
  2
GENAXEH
340
0
  0
ENDTAB
  0
ENDSEC
  0
SECTION
  2
BLOCKS
  0
BLOCK
  5
D
330
A
100
AcDbEntity
  8
0
100
AcDbBlockBegin
  2
*MODEL_SPACE
 70
     0
 10
0.0
 20
0.0
 30
0.0
  3
*MODEL_SPACE
  1

  0
ENDBLK
  5
E
330
A
100
AcDbEntity
  8
0
100
AcDbBlockEnd
  0
BLOCK
  5
F
330
B
100
AcDbEntity
 67
     1
  8
0
100
AcDbBlockBegin
  2
*PAPER_SPACE
 70
     0
 10
0.0
 20
0.0
 30
0.0
  3
*PAPER_SPACE
  1

  0
ENDBLK
  5
10
330
B
100
AcDbEntity
 67
     1
  8
0
100
AcDbBlockEnd
  0
BLOCK
  5
34
330
33
100
AcDbEntity
  8
0
100
AcDbBlockBegin
  2
*D0
 70
     1
 10
0.0
 20
0.0
 30
0.0
  3
*D0
  1

  0
LINE
  5
2BC
330
33
100
AcDbEntity
  8
DIMENSIONS
  6
Continuous
 62
     0
370
    -2
100
AcDbLine
 10
0.3625000000000016
 20
0.7462500000000003
 30
0.0
 11
0.2373243956593882
 21
0.7462500000000004
 31
0.0
  0
LINE
  5
2BD
330
33
100
AcDbEntity
  8
DIMENSIONS
  6
Continuous
 62
     0
370
    -2
100
AcDbLine
 10
0.2790000000000026
 20
0.4562500000000003
 30
0.0
 11
0.2373243956593881
 21
0.4562500000000003
 31
0.0
  0
LINE
  5
2BE
330
33
100
AcDbEntity
  8
DIMENSIONS
  6
Continuous
 62
     0
370
    -2
100
AcDbLine
 10
0.2498243956593882
 20
0.7337500000000005
 30
0.0
 11
0.2498243956593881
 21
0.6165000000000004
 31
0.0
  0
LINE
  5
2BF
330
33
100
AcDbEntity
  8
DIMENSIONS
  6
Continuous
 62
     0
370
    -2
100
AcDbLine
 10
0.2498243956593881
 20
0.4687500000000003
 30
0.0
 11
0.2498243956593881
 21
0.5860000000000004
 31
0.0
  0
SOLID
  5
2C0
330
33
100
AcDbEntity
  8
DIMENSIONS
  6
Continuous
 62
     0
100
AcDbTrace
 10
0.2477410623260549
 20
0.7337500000000005
 30
0.0
 11
0.2519077289927215
 21
0.7337500000000004
 31
0.0
 12
0.2498243956593882
 22
0.7462500000000004
 32
0.0
 13
0.2498243956593882
 23
0.7462500000000004
 33
0.0
  0
SOLID
  5
2C1
330
33
100
AcDbEntity
  8
DIMENSIONS
  6
Continuous
 62
     0
100
AcDbTrace
 10
0.2477410623260548
 20
0.4687500000000003
 30
0.0
 11
0.2519077289927214
 21
0.4687500000000003
 31
0.0
 12
0.2498243956593881
 22
0.4562500000000003
 32
0.0
 13
0.2498243956593881
 23
0.4562500000000003
 33
0.0
  0
MTEXT
  5
2C2
330
33
100
AcDbEntity
  8
DIMENSIONS
  6
Continuous
 62
     0
100
AcDbMText
 10
0.249824395659388
 20
0.6012500000000004
 30
0.0
 40
0.0125
 41
0.0
 71
     5
 72
     1
  1
\A1;0.2900
 73
     1
 44
1.0
  0
POINT
  5
2C3
330
33
100
AcDbEntity
  8
DEFPOINTS
  6
Continuous
 62
     0
100
AcDbPoint
 10
0.4250000000000016
 20
0.7462500000000003
 30
0.0
  0
POINT
  5
2C4
330
33
100
AcDbEntity
  8
DEFPOINTS
  6
Continuous
 62
     0
100
AcDbPoint
 10
0.3415000000000026
 20
0.4562500000000003
 30
0.0
  0
POINT
  5
2C5
330
33
100
AcDbEntity
  8
DEFPOINTS
  6
Continuous
 62
     0
100
AcDbPoint
 10
0.2498243956593881
 20
0.4562500000000003
 30
0.0
  0
ENDBLK
  5
41
330
33
100
AcDbEntity
  8
0
100
AcDbBlockEnd
  0
BLOCK
  5
44
330
43
100
AcDbEntity
  8
0
100
AcDbBlockBegin
  2
*D1
 70
     1
 10
0.0
 20
0.0
 30
0.0
  3
*D1
  1

  0
LINE
  5
2EF
330
43
100
AcDbEntity
  8
DIMENSIONS
  6
Continuous
 62
     0
370
    -2
100
AcDbLine
 10
0.3175000000000007
 20
0.7012500000000009
 30
0.0
 11
0.3175000000000007
 21
0.8257475231154279
 31
0.0
  0
LINE
  5
2F0
330
43
100
AcDbEntity
  8
DIMENSIONS
  6
Continuous
 62
     0
370
    -2
100
AcDbLine
 10
0.5325000000000007
 20
0.7012500000000009
 30
0.0
 11
0.5325000000000007
 21
0.8257475231154279
 31
0.0
  0
LINE
  5
2F1
330
43
100
AcDbEntity
  8
DIMENSIONS
  6
Continuous
 62
     0
370
    -2
100
AcDbLine
 10
0.3300000000000007
 20
0.8132475231154277
 30
0.0
 11
0.3889166666666673
 21
0.8132475231154277
 31
0.0
  0
LINE
  5
2F2
330
43
100
AcDbEntity
  8
DIMENSIONS
  6
Continuous
 62
     0
370
    -2
100
AcDbLine
 10
0.5200000000000007
 20
0.8132475231154277
 30
0.0
 11
0.4610833333333341
 21
0.8132475231154277
 31
0.0
  0
SOLID
  5
2F3
330
43
100
AcDbEntity
  8
DIMENSIONS
  6
Continuous
 62
     0
100
AcDbTrace
 10
0.3300000000000007
 20
0.8153308564487611
 30
0.0
 11
0.3300000000000007
 21
0.8111641897820945
 31
0.0
 12
0.3175000000000007
 22
0.8132475231154277
 32
0.0
 13
0.3175000000000007
 23
0.8132475231154277
 33
0.0
  0
SOLID
  5
2F4
330
43
100
AcDbEntity
  8
DIMENSIONS
  6
Continuous
 62
     0
100
AcDbTrace
 10
0.5200000000000007
 20
0.8153308564487611
 30
0.0
 11
0.5200000000000007
 21
0.8111641897820945
 31
0.0
 12
0.5325000000000007
 22
0.8132475231154277
 32
0.0
 13
0.5325000000000007
 23
0.8132475231154277
 33
0.0
  0
MTEXT
  5
2F5
330
43
100
AcDbEntity
  8
DIMENSIONS
  6
Continuous
 62
     0
100
AcDbMText
 10
0.4250000000000007
 20
0.8132475231154277
 30
0.0
 40
0.0125
 41
0.0
 71
     5
 72
     1
  1
\A1;0.2150
 73
     1
 44
1.0
  0
POINT
  5
2F6
330
43
100
AcDbEntity
  8
DEFPOINTS
  6
Continuous
 62
     0
100
AcDbPoint
 10
0.3175000000000007
 20
0.6387500000000009
 30
0.0
  0
POINT
  5
2F7
330
43
100
AcDbEntity
  8
DEFPOINTS
  6
Continuous
 62
     0
100
AcDbPoint
 10
0.5325000000000007
 20
0.6387500000000009
 30
0.0
  0
POINT
  5
2F8
330
43
100
AcDbEntity
  8
DEFPOINTS
  6
Continuous
 62
     0
100
AcDbPoint
 10
0.5325000000000007
 20
0.8132475231154277
 30
0.0
  0
ENDBLK
  5
50
330
43
100
AcDbEntity
  8
0
100
AcDbBlockEnd
  0
BLOCK
  5
57
330
56
100
AcDbEntity
  8
0
100
AcDbBlockBegin
  2
*D2
 70
     1
 10
0.0
 20
0.0
 30
0.0
  3
*D2
  1

  0
LINE
  5
2D0
330
56
100
AcDbEntity
  8
DIMENSIONS
  6
Continuous
 62
     0
370
    -2
100
AcDbLine
 10
0.5710000000000007
 20
0.4862500000000005
 30
0.0
 11
0.59339312531975
 21
0.4862500000000005
 31
0.0
  0
LINE
  5
2D1
330
56
100
AcDbEntity
  8
DIMENSIONS
  6
Continuous
 62
     0
370
    -2
100
AcDbLine
 10
0.5710000000000007
 20
0.4562500000000003
 30
0.0
 11
0.59339312531975
 21
0.4562500000000003
 31
0.0
  0
LINE
  5
2D2
330
56
100
AcDbEntity
  8
DIMENSIONS
  6
Continuous
 62
     0
370
    -2
100
AcDbLine
 10
0.58089312531975
 20
0.4987500000000005
 30
0.0
 11
0.58089312531975
 21
0.5112500000000005
 31
0.0
  0
LINE
  5
2D3
330
56
100
AcDbEntity
  8
DIMENSIONS
  6
Continuous
 62
     0
370
    -2
100
AcDbLine
 10
0.58089312531975
 20
0.4437500000000003
 30
0.0
 11
0.58089312531975
 21
0.4312500000000003
 31
0.0
  0
LINE
  5
2D4
330
56
100
AcDbEntity
  8
DIMENSIONS
  6
Continuous
 62
     0
370
    -2
100
AcDbLine
 10
0.58089312531975
 20
0.4312500000000003
 30
0.0
 11
0.5683931253197501
 21
0.4312500000000003
 31
0.0
  0
SOLID
  5
2D5
330
56
100
AcDbEntity
  8
DIMENSIONS
  6
Continuous
 62
     0
100
AcDbTrace
 10
0.5788097919864167
 20
0.4987500000000005
 30
0.0
 11
0.5829764586530834
 21
0.4987500000000005
 31
0.0
 12
0.58089312531975
 22
0.4862500000000005
 32
0.0
 13
0.58089312531975
 23
0.4862500000000005
 33
0.0
  0
SOLID
  5
2D6
330
56
100
AcDbEntity
  8
DIMENSIONS
  6
Continuous
 62
     0
100
AcDbTrace
 10
0.5788097919864167
 20
0.4437500000000003
 30
0.0
 11
0.5829764586530834
 21
0.4437500000000003
 31
0.0
 12
0.58089312531975
 22
0.4562500000000003
 32
0.0
 13
0.58089312531975
 23
0.4562500000000003
 33
0.0
  0
MTEXT
  5
2D7
330
56
100
AcDbEntity
  8
DIMENSIONS
  6
Continuous
 62
     0
100
AcDbMText
 10
0.5323097919864166
 20
0.4312500000000003
 30
0.0
 40
0.0125
 41
0.0
 71
     5
 72
     1
  1
\A1;0.0300
 73
     1
 44
1.0
  0
POINT
  5
2D8
330
56
100
AcDbEntity
  8
DEFPOINTS
  6
Continuous
 62
     0
100
AcDbPoint
 10
0.5085000000000007
 20
0.4862500000000005
 30
0.0
  0
POINT
  5
2D9
330
56
100
AcDbEntity
  8
DEFPOINTS
  6
Continuous
 62
     0
100
AcDbPoint
 10
0.5085000000000007
 20
0.4562500000000003
 30
0.0
  0
POINT
  5
2DA
330
56
100
AcDbEntity
  8
DEFPOINTS
  6
Continuous
 62
     0
100
AcDbPoint
 10
0.58089312531975
 20
0.4562500000000003
 30
0.0
  0
ENDBLK
  5
64
330
56
100
AcDbEntity
  8
0
100
AcDbBlockEnd
  0
BLOCK
  5
67
330
66
100
AcDbEntity
  8
0
100
AcDbBlockBegin
  2
*D3
 70
     1
 10
0.0
 20
0.0
 30
0.0
  3
*D3
  1

  0
LINE
  5
2E5
330
66
100
AcDbEntity
  8
DIMENSIONS
  6
Continuous
 62
     0
370
    -2
100
AcDbLine
 10
0.5075000000000004
 20
0.7012500000000009
 30
0.0
 11
0.5075000000000004
 21
0.6512573130436101
 31
0.0
  0
LINE
  5
2E6
330
66
100
AcDbEntity
  8
DIMENSIONS
  6
Continuous
 62
     0
370
    -2
100
AcDbLine
 10
0.532500000000001
 20
0.7012500000000009
 30
0.0
 11
0.532500000000001
 21
0.6512573130436101
 31
0.0
  0
LINE
  5
2E7
330
66
100
AcDbEntity
  8
DIMENSIONS
  6
Continuous
 62
     0
370
    -2
100
AcDbLine
 10
0.4950000000000004
 20
0.6387573130436102
 30
0.0
 11
0.4825000000000004
 21
0.6387573130436102
 31
0.0
  0
LINE
  5
2E8
330
66
100
AcDbEntity
  8
DIMENSIONS
  6
Continuous
 62
     0
370
    -2
100
AcDbLine
 10
0.5450000000000009
 20
0.6387573130436102
 30
0.0
 11
0.557500000000001
 21
0.6387573130436102
 31
0.0
  0
SOLID
  5
2E9
330
66
100
AcDbEntity
  8
DIMENSIONS
  6
Continuous
 62
     0
100
AcDbTrace
 10
0.4950000000000004
 20
0.6408406463769435
 30
0.0
 11
0.4950000000000004
 21
0.6366739797102769
 31
0.0
 12
0.5075000000000004
 22
0.6387573130436102
 32
0.0
 13
0.5075000000000004
 23
0.6387573130436102
 33
0.0
  0
SOLID
  5
2EA
330
66
100
AcDbEntity
  8
DIMENSIONS
  6
Continuous
 62
     0
100
AcDbTrace
 10
0.5450000000000009
 20
0.6408406463769435
 30
0.0
 11
0.5450000000000009
 21
0.6366739797102769
 31
0.0
 12
0.532500000000001
 22
0.6387573130436102
 32
0.0
 13
0.532500000000001
 23
0.6387573130436102
 33
0.0
  0
MTEXT
  5
2EB
330
66
100
AcDbEntity
  8
DIMENSIONS
  6
Continuous
 62
     0
100
AcDbMText
 10
0.594625000000001
 20
0.6387573130436102
 30
0.0
 40
0.0125
 41
0.0
 71
     5
 72
     1
  1
\A1;0.0250
 73
     1
 44
1.0
  0
POINT
  5
2EC
330
66
100
AcDbEntity
  8
DEFPOINTS
  6
Continuous
 62
     0
100
AcDbPoint
 10
0.5075000000000004
 20
0.6387500000000009
 30
0.0
  0
POINT
  5
2ED
330
66
100
AcDbEntity
  8
DEFPOINTS
  6
Continuous
 62
     0
100
AcDbPoint
 10
0.532500000000001
 20
0.6387500000000009
 30
0.0
  0
POINT
  5
2EE
330
66
100
AcDbEntity
  8
DEFPOINTS
  6
Continuous
 62
     0
100
AcDbPoint
 10
0.532500000000001
 20
0.6387573130436102
 30
0.0
  0
ENDBLK
  5
74
330
66
100
AcDbEntity
  8
0
100
AcDbBlockEnd
  0
BLOCK
  5
77
330
76
100
AcDbEntity
  8
0
100
AcDbBlockBegin
  2
*D4
 70
     1
 10
0.0
 20
0.0
 30
0.0
  3
*D4
  1

  0
LINE
  5
2DB
330
76
100
AcDbEntity
  8
DIMENSIONS
  6
Continuous
 62
     0
370
    -2
100
AcDbLine
 10
0.5710000000000007
 20
0.4562500000000003
 30
0.0
 11
0.6434956332553569
 21
0.4562500000000002
 31
0.0
  0
LINE
  5
2DC
330
76
100
AcDbEntity
  8
DIMENSIONS
  6
Continuous
 62
     0
370
    -2
100
AcDbLine
 10
0.4950000000000002
 20
0.5312500000000014
 30
0.0
 11
0.6434956332553569
 21
0.5312500000000014
 31
0.0
  0
LINE
  5
2DD
330
76
100
AcDbEntity
  8
DIMENSIONS
  6
Continuous
 62
     0
370
    -2
100
AcDbLine
 10
0.6309956332553569
 20
0.4687500000000002
 30
0.0
 11
0.6309956332553569
 21
0.4785000000000008
 31
0.0
  0
LINE
  5
2DE
330
76
100
AcDbEntity
  8
DIMENSIONS
  6
Continuous
 62
     0
370
    -2
100
AcDbLine
 10
0.6309956332553569
 20
0.5187500000000015
 30
0.0
 11
0.6309956332553569
 21
0.5090000000000008
 31
0.0
  0
SOLID
  5
2DF
330
76
100
AcDbEntity
  8
DIMENSIONS
  6
Continuous
 62
     0
100
AcDbTrace
 10
0.6289122999220235
 20
0.4687500000000002
 30
0.0
 11
0.6330789665886902
 21
0.4687500000000002
 31
0.0
 12
0.6309956332553569
 22
0.4562500000000002
 32
0.0
 13
0.6309956332553569
 23
0.4562500000000002
 33
0.0
  0
SOLID
  5
2E0
330
76
100
AcDbEntity
  8
DIMENSIONS
  6
Continuous
 62
     0
100
AcDbTrace
 10
0.6289122999220235
 20
0.5187500000000015
 30
0.0
 11
0.6330789665886902
 21
0.5187500000000015
 31
0.0
 12
0.6309956332553569
 22
0.5312500000000014
 32
0.0
 13
0.6309956332553569
 23
0.5312500000000014
 33
0.0
  0
MTEXT
  5
2E1
330
76
100
AcDbEntity
  8
DIMENSIONS
  6
Continuous
 62
     0
100
AcDbMText
 10
0.6309956332553567
 20
0.4937500000000009
 30
0.0
 40
0.0125
 41
0.0
 71
     5
 72
     1
  1
\A1;0.0750
 73
     1
 44
1.0
  0
POINT
  5
2E2
330
76
100
AcDbEntity
  8
DEFPOINTS
  6
Continuous
 62
     0
100
AcDbPoint
 10
0.5085000000000007
 20
0.4562500000000003
 30
0.0
  0
POINT
  5
2E3
330
76
100
AcDbEntity
  8
DEFPOINTS
  6
Continuous
 62
     0
100
AcDbPoint
 10
0.4325000000000002
 20
0.5312500000000014
 30
0.0
  0
POINT
  5
2E4
330
76
100
AcDbEntity
  8
DEFPOINTS
  6
Continuous
 62
     0
100
AcDbPoint
 10
0.6309956332553569
 20
0.5312500000000014
 30
0.0
  0
ENDBLK
  5
83
330
76
100
AcDbEntity
  8
0
100
AcDbBlockEnd
  0
BLOCK
  5
86
330
85
100
AcDbEntity
  8
0
100
AcDbBlockBegin
  2
*D5
 70
     1
 10
0.0
 20
0.0
 30
0.0
  3
*D5
  1

  0
LINE
  5
2C6
330
85
100
AcDbEntity
  8
DIMENSIONS
  6
Continuous
 62
     0
370
    -2
100
AcDbLine
 10
0.3315000000000011
 20
0.4037500000000001
 30
0.0
 11
0.3315000000000011
 21
0.3838836754604574
 31
0.0
  0
LINE
  5
2C7
330
85
100
AcDbEntity
  8
DIMENSIONS
  6
Continuous
 62
     0
370
    -2
100
AcDbLine
 10
0.5185000000000022
 20
0.4037500000000001
 30
0.0
 11
0.5185000000000022
 21
0.3838836754604574
 31
0.0
  0
LINE
  5
2C8
330
85
100
AcDbEntity
  8
DIMENSIONS
  6
Continuous
 62
     0
370
    -2
100
AcDbLine
 10
0.3440000000000011
 20
0.3963836754604574
 30
0.0
 11
0.3889166666666683
 21
0.3963836754604574
 31
0.0
  0
LINE
  5
2C9
330
85
100
AcDbEntity
  8
DIMENSIONS
  6
Continuous
 62
     0
370
    -2
100
AcDbLine
 10
0.5060000000000022
 20
0.3963836754604574
 30
0.0
 11
0.461083333333335
 21
0.3963836754604574
 31
0.0
  0
SOLID
  5
2CA
330
85
100
AcDbEntity
  8
DIMENSIONS
  6
Continuous
 62
     0
100
AcDbTrace
 10
0.3440000000000011
 20
0.3984670087937907
 30
0.0
 11
0.3440000000000011
 21
0.3943003421271241
 31
0.0
 12
0.3315000000000011
 22
0.3963836754604574
 32
0.0
 13
0.3315000000000011
 23
0.3963836754604574
 33
0.0
  0
SOLID
  5
2CB
330
85
100
AcDbEntity
  8
DIMENSIONS
  6
Continuous
 62
     0
100
AcDbTrace
 10
0.5060000000000022
 20
0.3984670087937907
 30
0.0
 11
0.5060000000000022
 21
0.3943003421271241
 31
0.0
 12
0.5185000000000022
 22
0.3963836754604574
 32
0.0
 13
0.5185000000000022
 23
0.3963836754604574
 33
0.0
  0
MTEXT
  5
2CC
330
85
100
AcDbEntity
  8
DIMENSIONS
  6
Continuous
 62
     0
100
AcDbMText
 10
0.4250000000000017
 20
0.3963836754604574
 30
0.0
 40
0.0125
 41
0.0
 71
     5
 72
     1
  1
\A1;0.1870
 73
     1
 44
1.0
  0
POINT
  5
2CD
330
85
100
AcDbEntity
  8
DEFPOINTS
  6
Continuous
 62
     0
100
AcDbPoint
 10
0.3315000000000011
 20
0.4662500000000001
 30
0.0
  0
POINT
  5
2CE
330
85
100
AcDbEntity
  8
DEFPOINTS
  6
Continuous
 62
     0
100
AcDbPoint
 10
0.5185000000000022
 20
0.4662500000000001
 30
0.0
  0
POINT
  5
2CF
330
85
100
AcDbEntity
  8
DEFPOINTS
  6
Continuous
 62
     0
100
AcDbPoint
 10
0.5185000000000022
 20
0.3963836754604574
 30
0.0
  0
ENDBLK
  5
92
330
85
100
AcDbEntity
  8
0
100
AcDbBlockEnd
  0
BLOCK
  5
1FC
330
1FB
100
AcDbEntity
  8
0
 62
     1
100
AcDbBlockBegin
  2
*U6
 70
     1
 10
0.0
 20
0.0
 30
0.0
  3
*U6
  1

  0
ENDBLK
  5
1FD
330
1FB
100
AcDbEntity
  8
0
 62
     1
100
AcDbBlockEnd
  0
BLOCK
  5
250
330
24E
100
AcDbEntity
  8
0
 62
     1
100
AcDbBlockBegin
  2
GENAXEH
 70
     0
 10
0.0
 20
0.0
 30
0.0
  3
GENAXEH
  1

  0
LINE
  5
24F
330
24E
100
AcDbEntity
  8
0
100
AcDbLine
 10
-1.0
 20
0.0
 30
0.0
 11
1.0
 21
0.0
 31
0.0
  0
ENDBLK
  5
251
330
24E
100
AcDbEntity
  8
0
 62
     1
100
AcDbBlockEnd
  0
ENDSEC
  0
SECTION
  2
ENTITIES
  0
DIMENSION
  5
35
330
A
100
AcDbEntity
  8
DIMENSIONS
  6
Continuous
 62
     1
100
AcDbDimension
  2
*D0
 10
0.2498243956593881
 20
0.4562500000000003
 30
0.0
 11
0.249824395659388
 21
0.6012500000000004
 31
0.0
 70
    32
 71
     5
 42
0.2900000000000001
  3
DIMSTYLE1
100
AcDbAlignedDimension
 13
0.4250000000000016
 23
0.7462500000000003
 33
0.0
 14
0.3415000000000026
 24
0.4562500000000003
 34
0.0
 50
90.0
100
AcDbRotatedDimension
1001
ACAD
1000
DSTYLE
1002
{
1070
   147
1040
0.009
1002
}
  0
DIMENSION
  5
45
330
A
100
AcDbEntity
  8
DIMENSIONS
  6
Continuous
 62
     1
100
AcDbDimension
  2
*D1
 10
0.5325000000000007
 20
0.8132475231154277
 30
0.0
 11
0.4250000000000007
 21
0.8132475231154277
 31
0.0
 70
    32
 71
     5
 42
0.2149999999999999
  3
DIMSTYLE2
100
AcDbAlignedDimension
 13
0.3175000000000007
 23
0.6387500000000009
 33
0.0
 14
0.5325000000000007
 24
0.6387500000000009
 34
0.0
100
AcDbRotatedDimension
1001
ACAD
1000
DSTYLE
1002
{
1070
   147
1040
0.009
1002
}
  0
ARC
  5
51
330
A
100
AcDbEntity
  8
PRODUCT
  6
Continuous
 62
     5
100
AcDbCircle
 10
0.4250000000000007
 20
0.6387500000000009
 30
0.0
 40
0.1075
100
AcDbArc
 50
287.1046351766442
 51
612.8953648233566
  0
ARC
  5
52
330
A
100
AcDbEntity
  8
PRODUCT
  6
Continuous
 62
     5
100
AcDbCircle
 10
0.4625000000000017
 20
0.5168894239304616
 30
0.0
 40
0.02
100
AcDbArc
 50
107.1046351766444
 51
180.0
  0
ARC
  5
53
330
A
100
AcDbEntity
  8
PRODUCT
  6
Continuous
 62
     5
100
AcDbCircle
 10
0.3875000000000015
 20
0.5168894239304612
 30
0.0
 40
0.02
100
AcDbArc
 50
0.0
 51
72.8953648233565
  0
CIRCLE
  5
54
330
A
100
AcDbEntity
  8
PRODUCT
  6
Continuous
 62
     5
100
AcDbCircle
 10
0.4250000000000007
 20
0.6387500000000009
 30
0.0
 40
0.0825
  0
DIMENSION
  5
58
330
A
100
AcDbEntity
  8
DIMENSIONS
  6
Continuous
 62
     1
100
AcDbDimension
  2
*D2
 10
0.58089312531975
 20
0.4562500000000003
 30
0.0
 11
0.5323097919864166
 21
0.4312500000000003
 31
0.0
 70
    32
 71
     5
 42
0.0300000000000001
  3
DIMSTYLE3
100
AcDbAlignedDimension
 13
0.5085000000000007
 23
0.4862500000000005
 33
0.0
 14
0.5085000000000007
 24
0.4562500000000003
 34
0.0
 50
90.0
100
AcDbRotatedDimension
1001
ACAD
1000
DSTYLE
1002
{
1070
   147
1040
0.009
1002
}
  0
DIMENSION
  5
68
330
A
100
AcDbEntity
  8
DIMENSIONS
  6
Continuous
 62
     1
100
AcDbDimension
  2
*D3
 10
0.532500000000001
 20
0.6387573130436102
 30
0.0
 11
0.594625000000001
 21
0.6387573130436102
 31
0.0
 70
    32
 71
     5
 42
0.0250000000000006
  3
DIMSTYLE4
100
AcDbAlignedDimension
 13
0.5075000000000004
 23
0.6387500000000009
 33
0.0
 14
0.532500000000001
 24
0.6387500000000009
 34
0.0
100
AcDbRotatedDimension
1001
ACAD
1000
DSTYLE
1002
{
1070
   147
1040
0.009
1002
}
  0
DIMENSION
  5
78
330
A
100
AcDbEntity
  8
DIMENSIONS
  6
Continuous
 62
     1
100
AcDbDimension
  2
*D4
 10
0.6309956332553569
 20
0.5312500000000014
 30
0.0
 11
0.6309956332553567
 21
0.4937500000000009
 31
0.0
 70
    32
 71
     5
 42
0.0750000000000011
  3
DIMSTYLE5
100
AcDbAlignedDimension
 13
0.5085000000000007
 23
0.4562500000000003
 33
0.0
 14
0.4325000000000002
 24
0.5312500000000014
 34
0.0
 50
90.0
100
AcDbRotatedDimension
1001
ACAD
1000
DSTYLE
1002
{
1070
   147
1040
0.009
1002
}
  0
DIMENSION
  5
87
330
A
100
AcDbEntity
  8
DIMENSIONS
  6
Continuous
 62
     1
100
AcDbDimension
  2
*D5
 10
0.5185000000000022
 20
0.3963836754604574
 30
0.0
 11
0.4250000000000017
 21
0.3963836754604574
 31
0.0
 70
    32
 71
     5
 42
0.1870000000000011
  3
DIMSTYLE6
100
AcDbAlignedDimension
 13
0.3315000000000011
 23
0.4662500000000001
 33
0.0
 14
0.5185000000000022
 24
0.4662500000000001
 34
0.0
100
AcDbRotatedDimension
1001
ACAD
1000
DSTYLE
1002
{
1070
   147
1040
0.009
1002
}
  0
ARC
  5
93
330
A
100
AcDbEntity
  8
PRODUCT
  6
Continuous
 62
     5
100
AcDbCircle
 10
0.4174999999999997
 20
0.5212500000000007
 30
0.0
 40
0.01
100
AcDbArc
 50
90.0
 51
180.0
  0
ARC
  5
94
330
A
100
AcDbEntity
  8
PRODUCT
  6
Continuous
 62
     5
100
AcDbCircle
 10
0.4325000000000002
 20
0.5212500000000007
 30
0.0
 40
0.01
100
AcDbArc
 50
0.0
 51
90.0
  0
LINE
  5
95
330
A
100
AcDbEntity
  8
PRODUCT
  6
Continuous
 62
     5
100
AcDbLine
 10
0.4174999999999997
 20
0.5312500000000014
 30
0.0
 11
0.4325000000000002
 21
0.5312500000000014
 31
0.0
  0
ARC
  5
96
330
A
100
AcDbEntity
  8
PRODUCT
  6
Continuous
 62
     5
100
AcDbCircle
 10
0.4524999999999998
 20
0.4962500000000003
 30
0.0
 40
0.01
100
AcDbArc
 50
180.0
 51
270.0
  0
ARC
  5
97
330
A
100
AcDbEntity
  8
PRODUCT
  6
Continuous
 62
     5
100
AcDbCircle
 10
0.3975
 20
0.4962500000000003
 30
0.0
 40
0.01
100
AcDbArc
 50
270.0000000000001
 51
360.0
  0
LINE
  5
98
330
A
100
AcDbEntity
  8
PRODUCT
  6
Continuous
 62
     5
100
AcDbLine
 10
0.4524999999999998
 20
0.4862500000000005
 30
0.0
 11
0.5085000000000007
 21
0.4862500000000005
 31
0.0
  0
LINE
  5
99
330
A
100
AcDbEntity
  8
PRODUCT
  6
Continuous
 62
     5
100
AcDbLine
 10
0.4425000000000018
 20
0.4962500000000003
 30
0.0
 11
0.4425000000000018
 21
0.5212500000000007
 31
0.0
  0
LINE
  5
9A
330
A
100
AcDbEntity
  8
PRODUCT
  6
Continuous
 62
     5
100
AcDbLine
 10
0.4075000000000017
 20
0.4962500000000003
 30
0.0
 11
0.4075000000000017
 21
0.5212500000000007
 31
0.0
  0
ARC
  5
9B
330
A
100
AcDbEntity
  8
PRODUCT
  6
Continuous
 62
     5
100
AcDbCircle
 10
0.3415000000000026
 20
0.4762500000000007
 30
0.0
 40
0.01
100
AcDbArc
 50
89.99999999999998
 51
180.0
  0
ARC
  5
9C
330
A
100
AcDbEntity
  8
PRODUCT
  6
Continuous
 62
     5
100
AcDbCircle
 10
0.5085000000000007
 20
0.4762500000000007
 30
0.0
 40
0.01
100
AcDbArc
 50
0.0
 51
90.0
  0
LINE
  5
9D
330
A
100
AcDbEntity
  8
PRODUCT
  6
Continuous
 62
     5
100
AcDbLine
 10
0.3415000000000026
 20
0.4862500000000005
 30
0.0
 11
0.3975
 21
0.4862500000000005
 31
0.0
  0
ARC
  5
9E
330
A
100
AcDbEntity
  8
PRODUCT
  6
Continuous
 62
     5
100
AcDbCircle
 10
0.5085000000000007
 20
0.4662500000000001
 30
0.0
 40
0.01
100
AcDbArc
 50
270.0000000000001
 51
360.0000000000001
  0
ARC
  5
9F
330
A
100
AcDbEntity
  8
PRODUCT
  6
Continuous
 62
     5
100
AcDbCircle
 10
0.3415000000000026
 20
0.4662500000000001
 30
0.0
 40
0.01
100
AcDbArc
 50
180.0
 51
270.0000000000001
  0
LINE
  5
A0
330
A
100
AcDbEntity
  8
PRODUCT
  6
Continuous
 62
     5
100
AcDbLine
 10
0.3315000000000011
 20
0.4662500000000001
 30
0.0
 11
0.3315000000000011
 21
0.4762500000000007
 31
0.0
  0
LINE
  5
A1
330
A
100
AcDbEntity
  8
PRODUCT
  6
Continuous
 62
     5
100
AcDbLine
 10
0.5185000000000022
 20
0.4662500000000001
 30
0.0
 11
0.5185000000000022
 21
0.4762500000000007
 31
0.0
  0
LINE
  5
A2
330
A
100
AcDbEntity
  8
PRODUCT
  6
Continuous
 62
     5
100
AcDbLine
 10
0.3415000000000026
 20
0.4562500000000003
 30
0.0
 11
0.5085000000000007
 21
0.4562500000000003
 31
0.0
  0
ENDSEC
  0
SECTION
  2
OBJECTS
  0
DICTIONARY
  5
19
330
0
100
AcDbDictionary
281
     1
  3
ACAD_COLOR
350
13E
  3
ACAD_GROUP
350
1A
  3
ACAD_LAYOUT
350
E8
  3
ACAD_MATERIAL
350
13D
  3
ACAD_MLINESTYLE
350
1B
  3
ACAD_PLOTSETTINGS
350
E9
  3
ACAD_PLOTSTYLENAME
350
E6
  3
ACAD_TABLESTYLE
350
13F
  3
AcDbVariableDictionary
350
11E
  3
AcmDictionary
350
205
  3
AMG
350
145
  3
AMGSNAPSETTINGS
350
267
  3
ASE_INDEX_DICTIONARY
350
139
  3
MAPISURF_MODULE
350
1D1
  0
DICTIONARY
  5
270
330
2
100
AcDbDictionary
280
     1
281
     1
  3
ACAD_LAYERFILTERS
360
2BB
  3
ACLYDICTIONARY
360
2BA
  0
DICTIONARY
  5
25A
330
A
100
AcDbDictionary
280
     1
281
     1
  3
ACAD_INDEX
360
25B
  0
DICTIONARY
  5
13E
102
{ACAD_REACTORS
330
19
102
}
330
19
100
AcDbDictionary
281
     1
  0
DICTIONARY
  5
1A
102
{ACAD_REACTORS
330
19
102
}
330
19
100
AcDbDictionary
281
     1
  0
DICTIONARY
  5
E8
102
{ACAD_REACTORS
330
19
102
}
330
19
100
AcDbDictionary
281
     1
  3
Layout1
350
EB
  3
Model
350
EA
  0
DICTIONARY
  5
13D
102
{ACAD_REACTORS
330
19
102
}
330
19
100
AcDbDictionary
281
     1
  0
DICTIONARY
  5
1B
102
{ACAD_REACTORS
330
19
102
}
330
19
100
AcDbDictionary
281
     1
  3
STANDARD
350
1C
  0
DICTIONARY
  5
E9
102
{ACAD_REACTORS
330
19
102
}
330
19
100
AcDbDictionary
281
     1
  0
ACDBDICTIONARYWDFLT
  5
E6
102
{ACAD_REACTORS
330
19
102
}
330
19
100
AcDbDictionary
281
     1
  3
Normal
350
E7
100
AcDbDictionaryWithDefault
340
E7
  0
DICTIONARY
  5
13F
102
{ACAD_REACTORS
330
19
102
}
330
19
100
AcDbDictionary
281
     1
  3
Standard
350
140
  0
DICTIONARY
  5
11E
102
{ACAD_REACTORS
330
19
102
}
330
19
100
AcDbDictionary
281
     1
  3
CTABLESTYLE
350
266
  3
DIMASSOC
350
11F
  0
DICTIONARY
  5
205
102
{ACAD_REACTORS
330
19
102
}
330
19
100
AcDbDictionary
281
     1
  3
AcmBOMDATA
350
206
  3
AcmStdDictionary
350
211
  3
AMDTSECTSYM_ARROWCOLOR
350
230
  0
DICTIONARY
  5
145
102
{ACAD_REACTORS
330
19
102
}
330
19
100
AcDbDictionary
281
     1
  3
AcMgSettings
350
146
  3
AMGLAYCFG
350
213
  0
DICTIONARY
  5
267
102
{ACAD_REACTORS
330
19
102
}
330
19
100
AcDbDictionary
281
     1
  3
DIMENSION
350
26C
  3
FEA
350
26B
  3
HATCH (1)
350
268
  3
HATCH (2)
350
269
  3
SIMPLE WELD
350
26D
  3
SYMBOLS
350
26A
  0
DICTIONARY
  5
139
102
{ACAD_REACTORS
330
19
102
}
330
19
100
AcDbDictionary
281
     1
  3
ASEBlockHierarchyIndexRecord
350
13A
1001
DCO15
1040
1538455167.111
  0
DICTIONARY
  5
2BB
102
{ACAD_REACTORS
330
270
102
}
330
270
100
AcDbDictionary
281
     1
  0
DICTIONARY
  5
2BA
102
{ACAD_REACTORS
330
270
102
}
330
270
100
AcDbDictionary
281
     1
1001
ACAD
1000
<All
  0
DICTIONARY
  5
25B
102
{ACAD_REACTORS
330
25A
102
}
330
25A
100
AcDbDictionary
281
     1
  3
*A1
350
25C
  0
LAYOUT
  5
EB
102
{ACAD_REACTORS
330
E8
102
}
330
E8
100
AcDbPlotSettings
  1

  2
HP LaserJet 1100
  4

  6

 40
0.0
 41
0.0
 42
0.0
 43
0.0
 44
0.0
 45
0.0
 46
0.0
 47
0.0
 48
0.0
 49
0.0
140
0.0
141
0.0
142
1.0
143
1.0
 70
   688
 72
     0
 73
     0
 74
     5
  7

 75
    16
147
1.0
 76
     0
 77
     2
 78
   300
148
0.0
149
0.0
100
AcDbLayout
  1
Layout1
 70
     0
 71
     1
 10
0.0
 20
0.0
 11
12.0
 21
9.0
 12
0.0
 22
0.0
 32
0.0
 14
1.000000000000000E+20
 24
1.000000000000000E+20
 34
1.000000000000000E+20
 15
-1.000000000000000E+20
 25
-1.000000000000000E+20
 35
-1.000000000000000E+20
146
0.0
 13
0.0
 23
0.0
 33
0.0
 16
1.0
 26
0.0
 36
0.0
 17
0.0
 27
1.0
 37
0.0
 76
     0
330
B
  0
LAYOUT
  5
EA
102
{ACAD_REACTORS
330
E8
102
}
330
E8
100
AcDbPlotSettings
  1

  2
HP LaserJet 4V
  4
Letter
  6

 40
5.873749732971191
 41
10.95374488830566
 42
10.53041076660156
 43
13.49374389648437
 44
215.8999938964844
 45
279.3999938964844
 46
2.54
 47
0.0
 48
0.025
 49
0.0249999999999999
140
0.825
141
1.074999999999999
142
1.0
143
0.1046077189487348
 70
 11956
 72
     0
 73
     0
 74
     4
  7

 75
     0
147
9.559524001188391
 76
     0
 77
     2
 78
   300
148
-0.635
149
-0.6349999999999977
100
AcDbLayout
  1
Model
 70
     1
 71
     0
 10
0.0
 20
0.0
 11
12.0
 21
9.0
 12
0.0
 22
0.0
 32
0.0
 14
0.0
 24
0.0
 34
0.0
 15
0.0
 25
0.0
 35
0.0
146
0.0
 13
0.0
 23
0.0
 33
0.0
 16
1.0
 26
0.0
 36
0.0
 17
0.0
 27
1.0
 37
0.0
 76
     0
330
A
  0
MLINESTYLE
  5
1C
102
{ACAD_REACTORS
330
1B
102
}
330
1B
100
AcDbMlineStyle
  2
STANDARD
 70
     0
  3

 62
     0
 51
90.00000000000019
 52
90.00000000000019
 71
     2
 49
0.5
 62
   256
  6
BYLAYER
 49
-0.5
 62
   256
  6
BYLAYER
  0
ACDBPLACEHOLDER
  5
E7
102
{ACAD_REACTORS
330
E6
102
}
330
E6
  0
TABLESTYLE
  5
140
102
{ACAD_REACTORS
330
13F
102
}
330
13F
100
AcDbTableStyle
  3
Standard
 70
     0
 71
     0
 40
0.06
 41
0.06
280
     0
281
     0
  7
STANDARD
140
0.18
170
     2
 62
     0
 63
     7
283
     0
274
    -2
284
     1
 64
     0
275
    -2
285
     1
 65
     0
276
    -2
286
     1
 66
     0
277
    -2
287
     1
 67
     0
278
    -2
288
     1
 68
     0
279
    -2
289
     1
 69
     0
  7
STANDARD
140
0.25
170
     5
 62
     0
 63
     7
283
     0
274
    -2
284
     1
 64
     0
275
    -2
285
     1
 65
     0
276
    -2
286
     1
 66
     0
277
    -2
287
     1
 67
     0
278
    -2
288
     1
 68
     0
279
    -2
289
     1
 69
     0
  7
STANDARD
140
0.18
170
     5
 62
     0
 63
     7
283
     0
274
    -2
284
     1
 64
     0
275
    -2
285
     1
 65
     0
276
    -2
286
     1
 66
     0
277
    -2
287
     1
 67
     0
278
    -2
288
     1
 68
     0
279
    -2
289
     1
 69
     0
  0
DICTIONARYVAR
  5
266
102
{ACAD_REACTORS
330
11E
102
}
330
11E
100
DictionaryVariables
280
     0
  1
STANDARD
  0
DICTIONARYVAR
  5
11F
102
{ACAD_REACTORS
330
11E
102
}
330
11E
100
DictionaryVariables
280
     0
  1
1
  0
ACMDATADICTIONARY
  5
206
102
{ACAD_REACTORS
330
205
102
}
330
205
100
AcDbDictionary
281
     1
  3
*A1
350
207
100
AcmDataDictionary
  0
DICTIONARY
  5
211
102
{ACAD_REACTORS
330
205
102
}
330
205
100
AcDbDictionary
281
     1
  3
ANSI
350
212
  0
XRECORD
  5
230
102
{ACAD_REACTORS
330
205
102
}
330
205
100
AcDbXrecord
280
     1
 90
-1023410169
  0
DICTIONARY
  5
146
102
{ACAD_REACTORS
330
145
102
}
330
145
100
AcDbDictionary
281
     1
  3
DWGSETTINGS
350
147
  3
TRANSSETTINGS
350
14B
  0
ACAMGFILTERDAT
  5
26C
102
{ACAD_REACTORS
330
267
102
}
330
267
100
AcAmgFilterDat
 70
    15
  1
DIMENSION,AMDT_*_DIM
  2
*
  3
*
  4
*
  5
*
290
     1
  0
ACAMGFILTERDAT
  5
26B
102
{ACAD_REACTORS
330
267
102
}
330
267
100
AcAmgFilterDat
 70
    15
  1
*
  2
AM_FEA-AM_*
  3
*
  4
*
  5
*
290
     1
  0
ACAMGFILTERDAT
  5
268
102
{ACAD_REACTORS
330
267
102
}
330
267
100
AcAmgFilterDat
 70
    15
  1
HATCH
  2
*
  3
*
  4
*
  5
*
290
     1
  0
ACAMGFILTERDAT
  5
269
102
{ACAD_REACTORS
330
267
102
}
330
267
100
AcAmgFilterDat
 70
    15
  1
LINE
  2
8,8N,*-8,*-8N,AM_8,AM_8N,*-AM_8,*-AM_8N
  3
*
  4
*
  5
INSERT,STDPART2D
290
     1
  0
ACAMGFILTERDAT
  5
26D
102
{ACAD_REACTORS
330
267
102
}
330
267
100
AcAmgFilterDat
 70
    15
  1
ARC
  2
AM_5
  3
*
  4
2
  5
INSERT
290
     0
  0
ACAMGFILTERDAT
  5
26A
102
{ACAD_REACTORS
330
267
102
}
330
267
100
AcAmgFilterDat
 70
    15
  1
ACMFCFRAME,ACMDATUMTARGET,ACMDATUMID,ACMWELDSYM,ACMSURFSYM,ACMFEATID,ACMPARTREF,ACMBALLOON,AMDTEDGESYM,AMGSCREWCALCTABLE
  2
*
  3
*
  4
*
  5
*
290
     1
  0
XRECORD
  5
13A
102
{ACAD_REACTORS
330
139
102
}
330
139
100
AcDbXrecord
280
     1
  0
LAYER_INDEX
  5
25C
102
{ACAD_REACTORS
330
25B
102
}
330
25B
100
AcDbIndex
 40
2453626.38149522
100
AcDbLayerIndex
  8
0
360
25D
 90
        0
  8
DIMENSIONS
360
262
 90
        6
  8
DEFPOINTS
360
263
 90
        0
  8
PRODUCT
360
264
 90
       20
  0
ACMDATAENTRYBLOCK
  5
207
102
{ACAD_REACTORS
330
206
102
}
330
206
100
AcmDataEntry
100
AcmDataEntryBlock
  0
IDBUFFER
  5
25D
330
0
100
AcDbIdBuffer
  0
IDBUFFER
  5
262
330
0
100
AcDbIdBuffer
330
68
330
78
330
87
330
35
330
45
330
58
  0
IDBUFFER
  5
263
330
0
100
AcDbIdBuffer
  0
IDBUFFER
  5
264
330
0
100
AcDbIdBuffer
330
9F
330
A0
330
A1
330
A2
330
51
330
52
330
53
330
54
330
93
330
94
330
95
330
96
330
97
330
98
330
99
330
9A
330
9B
330
9C
330
9D
330
9E
  0
ENDSEC
  0
EOF
