  0
SECTION
  2
HEADER
  9
$ACADVER
  1
AC1018
  9
$ACADMAINTVER
 70
    76
  9
$DWGCODEPAGE
  3
ANSI_1252
  9
$CUSTOMPROPERTYTAG
  1
AmdtFileType
  9
$CUSTOMPROPERTY
  1
84
  9
$INSBASE
 10
0.0
 20
0.0
 30
0.0
  9
$EXTMIN
 10
0.0
 20
0.0
 30
0.0
  9
$EXTMAX
 10
0.85
 20
1.1
 30
0.0
  9
$LIMMIN
 10
0.0
 20
0.0
  9
$LIMMAX
 10
0.0
 20
0.0
  9
$ORTHOMODE
 70
     0
  9
$REGENMODE
 70
     1
  9
$FILLMODE
 70
     1
  9
$QTEXTMODE
 70
     0
  9
$MIRRTEXT
 70
     1
  9
$LTSCALE
 40
1.0
  9
$ATTMODE
 70
     1
  9
$TEXTSIZE
 40
0.0
  9
$TRACEWID
 40
0.05
  9
$TEXTSTYLE
  7
STANDARD
  9
$CLAYER
  8
0
  9
$CELTYPE
  6
CONTINUOUS
  9
$CECOLOR
 62
     1
  9
$CELTSCALE
 40
1.0
  9
$DISPSILH
 70
     0
  9
$DIMSCALE
 40
1.0
  9
$DIMASZ
 40
0.18
  9
$DIMEXO
 40
0.0625
  9
$DIMDLI
 40
0.38
  9
$DIMRND
 40
0.0
  9
$DIMDLE
 40
0.0
  9
$DIMEXE
 40
0.25
  9
$DIMTP
 40
0.015
  9
$DIMTM
 40
-0.007
  9
$DIMTXT
 40
0.0125
  9
$DIMCEN
 40
0.09
  9
$DIMTSZ
 40
0.0
  9
$DIMTOL
 70
     0
  9
$DIMLIM
 70
     0
  9
$DIMTIH
 70
     1
  9
$DIMTOH
 70
     1
  9
$DIMSE1
 70
     0
  9
$DIMSE2
 70
     0
  9
$DIMTAD
 70
     0
  9
$DIMZIN
 70
     0
  9
$DIMBLK
  1

  9
$DIMASO
 70
     1
  9
$DIMSHO
 70
     1
  9
$DIMPOST
  1

  9
$DIMAPOST
  1

  9
$DIMALT
 70
     0
  9
$DIMALTD
 70
     2
  9
$DIMALTF
 40
25.4
  9
$DIMLFAC
 40
1.0
  9
$DIMTOFL
 70
     0
  9
$DIMTVP
 40
0.0
  9
$DIMTIX
 70
     0
  9
$DIMSOXD
 70
     0
  9
$DIMSAH
 70
     0
  9
$DIMBLK1
  1

  9
$DIMBLK2
  1

  9
$DIMSTYLE
  2
STANDARD
  9
$DIMCLRD
 70
     0
  9
$DIMCLRE
 70
     0
  9
$DIMCLRT
 70
     1
  9
$DIMTFAC
 40
1.0
  9
$DIMGAP
 40
0.09
  9
$DIMJUST
 70
     0
  9
$DIMSD1
 70
     0
  9
$DIMSD2
 70
     0
  9
$DIMTOLJ
 70
     1
  9
$DIMTZIN
 70
     0
  9
$DIMALTZ
 70
     0
  9
$DIMALTTZ
 70
     0
  9
$DIMUPT
 70
     0
  9
$DIMDEC
 70
     4
  9
$DIMTDEC
 70
     4
  9
$DIMALTU
 70
     2
  9
$DIMALTTD
 70
     2
  9
$DIMTXSTY
  7
STANDARD
  9
$DIMAUNIT
 70
     0
  9
$DIMADEC
 70
     0
  9
$DIMALTRND
 40
0.0
  9
$DIMAZIN
 70
     0
  9
$DIMDSEP
 70
    46
  9
$DIMATFIT
 70
     3
  9
$DIMFRAC
 70
     0
  9
$DIMLDRBLK
  1

  9
$DIMLUNIT
 70
     2
  9
$DIMLWD
 70
    -2
  9
$DIMLWE
 70
    -2
  9
$DIMTMOVE
 70
     0
  9
$LUNITS
 70
     2
  9
$LUPREC
 70
    10
  9
$SKETCHINC
 40
0.1
  9
$FILLETRAD
 40
0.0
  9
$AUNITS
 70
     0
  9
$AUPREC
 70
     0
  9
$MENU
  1
acad
  9
$ELEVATION
 40
0.0
  9
$PELEVATION
 40
0.0
  9
$THICKNESS
 40
0.0
  9
$LIMCHECK
 70
     0
  9
$CHAMFERA
 40
0.0
  9
$CHAMFERB
 40
0.0
  9
$CHAMFERC
 40
0.0
  9
$CHAMFERD
 40
0.0
  9
$SKPOLY
 70
     0
  9
$TDCREATE
 40
2444971.833333334
  9
$TDUCREATE
 40
2444972.000000000
  9
$TDUPDATE
 40
2453626.396920799
  9
$TDUUPDATE
 40
2453626.563587465
  9
$TDINDWG
 40
0.0781545255
  9
$TDUSRTIMER
 40
0.0781545255
  9
$USRTIMER
 70
     1
  9
$ANGBASE
 50
0.0
  9
$ANGDIR
 70
     0
  9
$PDMODE
 70
     2
  9
$PDSIZE
 40
0.0
  9
$PLINEWID
 40
0.0
  9
$SPLFRAME
 70
     0
  9
$SPLINETYPE
 70
     6
  9
$SPLINESEGS
 70
     8
  9
$HANDSEED
  5
31A
  9
$SURFTAB1
 70
     6
  9
$SURFTAB2
 70
     6
  9
$SURFTYPE
 70
     6
  9
$SURFU
 70
     6
  9
$SURFV
 70
     6
  9
$UCSBASE
  2

  9
$UCSNAME
  2

  9
$UCSORG
 10
0.0
 20
0.0
 30
0.0
  9
$UCSXDIR
 10
1.0
 20
0.0
 30
0.0
  9
$UCSYDIR
 10
0.0
 20
1.0
 30
0.0
  9
$UCSORTHOREF
  2

  9
$UCSORTHOVIEW
 70
     0
  9
$UCSORGTOP
 10
0.0
 20
0.0
 30
0.0
  9
$UCSORGBOTTOM
 10
0.0
 20
0.0
 30
0.0
  9
$UCSORGLEFT
 10
0.0
 20
0.0
 30
0.0
  9
$UCSORGRIGHT
 10
0.0
 20
0.0
 30
0.0
  9
$UCSORGFRONT
 10
0.0
 20
0.0
 30
0.0
  9
$UCSORGBACK
 10
0.0
 20
0.0
 30
0.0
  9
$PUCSBASE
  2

  9
$PUCSNAME
  2

  9
$PUCSORG
 10
0.0
 20
0.0
 30
0.0
  9
$PUCSXDIR
 10
1.0
 20
0.0
 30
0.0
  9
$PUCSYDIR
 10
0.0
 20
1.0
 30
0.0
  9
$PUCSORTHOREF
  2

  9
$PUCSORTHOVIEW
 70
     0
  9
$PUCSORGTOP
 10
0.0
 20
0.0
 30
0.0
  9
$PUCSORGBOTTOM
 10
0.0
 20
0.0
 30
0.0
  9
$PUCSORGLEFT
 10
0.0
 20
0.0
 30
0.0
  9
$PUCSORGRIGHT
 10
0.0
 20
0.0
 30
0.0
  9
$PUCSORGFRONT
 10
0.0
 20
0.0
 30
0.0
  9
$PUCSORGBACK
 10
0.0
 20
0.0
 30
0.0
  9
$USERI1
 70
     0
  9
$USERI2
 70
     0
  9
$USERI3
 70
     0
  9
$USERI4
 70
     0
  9
$USERI5
 70
     0
  9
$USERR1
 40
0.0
  9
$USERR2
 40
0.0
  9
$USERR3
 40
0.0
  9
$USERR4
 40
0.0
  9
$USERR5
 40
0.0
  9
$WORLDVIEW
 70
     1
  9
$SHADEDGE
 70
     3
  9
$SHADEDIF
 70
    70
  9
$TILEMODE
 70
     1
  9
$MAXACTVP
 70
    16
  9
$PINSBASE
 10
0.0
 20
0.0
 30
0.0
  9
$PLIMCHECK
 70
     0
  9
$PEXTMIN
 10
1.000000000000000E+20
 20
1.000000000000000E+20
 30
1.000000000000000E+20
  9
$PEXTMAX
 10
-1.000000000000000E+20
 20
-1.000000000000000E+20
 30
-1.000000000000000E+20
  9
$PLIMMIN
 10
0.0
 20
0.0
  9
$PLIMMAX
 10
12.0
 20
9.0
  9
$UNITMODE
 70
     0
  9
$VISRETAIN
 70
     0
  9
$PLINEGEN
 70
     1
  9
$PSLTSCALE
 70
     0
  9
$TREEDEPTH
 70
  3020
  9
$CMLSTYLE
  2
STANDARD
  9
$CMLJUST
 70
     0
  9
$CMLSCALE
 40
1.0
  9
$PROXYGRAPHICS
 70
     1
  9
$MEASUREMENT
 70
     0
  9
$CELWEIGHT
370
    -1
  9
$ENDCAPS
280
     0
  9
$JOINSTYLE
280
     0
  9
$LWDISPLAY
290
     0
  9
$INSUNITS
 70
     0
  9
$HYPERLINKBASE
  1

  9
$STYLESHEET
  1

  9
$XEDIT
290
     1
  9
$CEPSNTYPE
380
     0
  9
$PSTYLEMODE
290
     1
  9
$FINGERPRINTGUID
  2
{14EBA39A-6357-11D6-8A02-00902758FDDF}
  9
$VERSIONGUID
  2
{7EC471ED-4FD3-4323-9529-387377AE64DC}
  9
$EXTNAMES
290
     1
  9
$PSVPSCALE
 40
0.0
  9
$OLESTARTUP
290
     0
  9
$SORTENTS
280
   127
  9
$INDEXCTL
280
     1
  9
$HIDETEXT
280
     0
  9
$XCLIPFRAME
290
     0
  9
$HALOGAP
280
     0
  9
$OBSCOLOR
 70
   257
  9
$OBSLTYPE
280
     0
  9
$INTERSECTIONDISPLAY
280
     0
  9
$INTERSECTIONCOLOR
 70
   257
  9
$DIMASSOC
280
     1
  9
$PROJECTNAME
  1

  0
ENDSEC
  0
SECTION
  2
CLASSES
  0
CLASS
  1
IMAGE
  2
AcDbRasterImage
  3
ISM
 90
      127
 91
        0
280
     0
281
     1
  0
CLASS
  1
DICTIONARYVAR
  2
AcDbDictionaryVar
  3
ObjectDBX Classes
 90
        0
 91
        2
280
     0
281
     0
  0
CLASS
  1
RASTERVARIABLES
  2
AcDbRasterVariables
  3
ISM
 90
        0
 91
        0
280
     0
281
     0
  0
CLASS
  1
IMAGEDEF
  2
AcDbRasterImageDef
  3
ISM
 90
        0
 91
        0
280
     0
281
     0
  0
CLASS
  1
IMAGEDEF_REACTOR
  2
AcDbRasterImageDefReactor
  3
ISM
 90
        1
 91
        0
280
     0
281
     0
  0
CLASS
  1
IDBUFFER
  2
AcDbIdBuffer
  3
ObjectDBX Classes
 90
        0
 91
        5
280
     0
281
     0
  0
CLASS
  1
SPATIAL_FILTER
  2
AcDbSpatialFilter
  3
ObjectDBX Classes
 90
        0
 91
        0
280
     0
281
     0
  0
CLASS
  1
SORTENTSTABLE
  2
AcDbSortentsTable
  3
ObjectDBX Classes
 90
        0
 91
        0
280
     0
281
     0
  0
CLASS
  1
LAYER_INDEX
  2
AcDbLayerIndex
  3
ObjectDBX Classes
 90
        0
 91
        1
280
     0
281
     0
  0
CLASS
  1
SPATIAL_INDEX
  2
AcDbSpatialIndex
  3
ObjectDBX Classes
 90
        0
 91
        0
280
     0
281
     0
  0
CLASS
  1
OBJECT_PTR
  2
CAseDLPNTableRecord
  3
ASE-LPNTableRecord
 90
        1
 91
        0
280
     0
281
     0
  0
CLASS
  1
ACDBDICTIONARYWDFLT
  2
AcDbDictionaryWithDefault
  3
ObjectDBX Classes
 90
        0
 91
        1
280
     0
281
     0
  0
CLASS
  1
TABLESTYLE
  2
AcDbTableStyle
  3
ObjectDBX Classes
 90
     2047
 91
        1
280
     0
281
     0
  0
CLASS
  1
ACME_DOCUMENT
  2
AcMeDbDoc
  3
AcMeServices
 90
        0
 91
        2
280
     0
281
     0
  0
CLASS
  1
AMGSETTINGSOBJ
  2
AmgSettingsObj
  3
"AcadM|Product Description: AutoCAD Mechanical 2000|Company: Autodesk"
 90
        0
 91
        2
280
     0
281
     0
  0
CLASS
  1
ACMESCOPE
  2
AcMeScope
  3
AcMeServices
 90
        0
 91
        1
280
     0
281
     0
  0
CLASS
  1
ACMECOMMANDHISTORY
  2
AcMeCommandHistory
  3
AcMeServices
 90
        0
 91
        1
280
     0
281
     0
  0
CLASS
  1
ACIMSYSVARMAN
  2
AcImSysVarManager
  3
AcMeServices
 90
        0
 91
        6
280
     0
281
     0
  0
CLASS
  1
ACIMREALSYSVAR
  2
AcImRealSysVar
  3
AcMeServices
 90
        0
 91
       16
280
     0
281
     0
  0
CLASS
  1
ACIMINTSYSVAR
  2
AcImIntSysVar
  3
AcMeServices
 90
        0
 91
       45
280
     0
281
     0
  0
CLASS
  1
ACMEDRAWINGMAN
  2
AcMeDrawingMan
  3
AcMeServices
 90
        0
 91
        1
280
     0
281
     0
  0
CLASS
  1
ACMEVIEW
  2
AcMeView
  3
AcMeServices
 90
        0
 91
        1
280
     0
281
     0
  0
CLASS
  1
ACDBENTITYCACHE
  2
AcMeEntityCache
  3
AcMeServices
 90
        0
 91
        1
280
     0
281
     0
  0
CLASS
  1
GSMANAGER
  2
AcMeGSManager
  3
AcMeServices
 90
        0
 91
        1
280
     0
281
     0
  0
CLASS
  1
AMDTINTERNALREACTOR
  2
AmdtInternalReactor
  3
AcMeServices
 90
        0
 91
        2
280
     0
281
     0
  0
CLASS
  1
ACMESTATEMGR
  2
AcMeStateMgr
  3
AcMeServices
 90
        0
 91
        1
280
     0
281
     0
  0
CLASS
  1
ACGREFMASTER
  2
AcGrefMaster
  3
AcAttribServices
 90
        0
 91
        1
280
     0
281
     0
  0
CLASS
  1
AM_DRAWING_MGR
  2
AcDmDwgMgr
  3
AcMechDwgViewMgmt
 90
        0
 91
        1
280
     0
281
     0
  0
CLASS
  1
AM_DWG_DOCUMENT
  2
AcDmDwgDocument
  3
AcMechDwgViewMgmt
 90
        0
 91
        1
280
     0
281
     0
  0
CLASS
  1
AM_DWG_SHEET
  2
AcDmSheet
  3
AcMechDwgViewMgmt
 90
        0
 91
        1
280
     0
281
     0
  0
CLASS
  1
AM_VIEWDIMPARMAP
  2
AcDmViewDimParMap
  3
AcMechDwgViewMgmt
 90
        0
 91
        1
280
     0
281
     0
  0
CLASS
  1
AM_DWGMGR_NAME
  2
AcDmDwgMgrName
  3
AcMechDwgViewMgmt
 90
        0
 91
        1
280
     0
281
     0
  0
CLASS
  1
ACME_DATABASE
  2
AcMeDbDatabase
  3
AcMeServices
 90
        0
 91
        1
280
     0
281
     0
  0
CLASS
  1
ACRFINSADJUSTERMGR
  2
AcRfInsAdjusterMgr
  3
AcMeServices
 90
        0
 91
        1
280
     0
281
     0
  0
CLASS
  1
ACGREFACADMASTER
  2
AcGrefacadMaster
  3
AcGrefServices
 90
        0
 91
        1
280
     0
281
     0
  0
CLASS
  1
AMDTMENUSTATEMGR
  2
AmdtMenuStateMgr
  3
McadcomServices
 90
        0
 91
        1
280
     0
281
     0
  0
CLASS
  1
AMDTMCOMMENUSTATE
  2
AmdtMcomMenuState
  3
McadcomServices
 90
        0
 91
        1
280
     0
281
     0
  0
CLASS
  1
AMIMASTER
  2
AmiMaster
  3
AmiServices
 90
        0
 91
        1
280
     0
281
     0
  0
CLASS
  1
ASAPP
  2
AcAsAppObject
  3
AutoSurfServices
 90
        0
 91
        1
280
     0
281
     0
  0
CLASS
  1
IM_STATIC_MAN
  2
AcImStaticVarManager
  3
AcMeServices
 90
        0
 91
        1
280
     0
281
     0
  0
CLASS
  1
ACIMSTRSYSVAR
  2
AcImStrSysVar
  3
AcMeServices
 90
        0
 91
       11
280
     0
281
     0
  0
CLASS
  1
ACIMDBLSTATICVAR
  2
AcImDblStaticVar
  3
AcMeServices
 90
        0
 91
       20
280
     0
281
     0
  0
CLASS
  1
ACIMSTRSTATICVAR
  2
AcImStrStaticVar
  3
AcMeServices
 90
        0
 91
       12
280
     0
281
     0
  0
CLASS
  1
ACIMINTSTATICVAR
  2
AcImIntStaticVar
  3
AcMeServices
 90
        0
 91
       17
280
     0
281
     0
  0
CLASS
  1
ACASGREFMASTER
  2
AcAsGrefMaster
  3
AutoSurfResolverServices
 90
        0
 91
        1
280
     0
281
     0
  0
CLASS
  1
ACADGREFMODULE
  2
AcAdGrefModule
  3
AdGrefServices
 90
        0
 91
        1
280
     0
281
     0
  0
CLASS
  1
AMDTMAPISURFMOUDULE
  2
AmdtMApiSurfModule
  3
MApiSurfServices
 90
        0
 91
        1
280
     0
281
     0
  0
CLASS
  1
MAPIAMMOUDLE
  2
MApiAmModule
  3
MApiAmServices
 90
        0
 91
        1
280
     0
281
     0
  0
CLASS
  1
AMDTADMENUSTATE
  2
AmdtAdMenuState
  3
DesignerServices
 90
        0
 91
        1
280
     0
281
     0
  0
CLASS
  1
ADAPPL
  2
AcAdAppl
  3
DesignerServices
 90
        0
 91
        1
280
     0
281
     0
  0
CLASS
  1
DEPMGR
  2
AcAdDepMgr
  3
DesignerServices
 90
        0
 91
        1
280
     0
281
     0
  0
CLASS
  1
PARAMMGR
  2
AcAdParamMgr
  3
DesignerServices
 90
        0
 91
        1
280
     0
281
     0
  0
CLASS
  1
PARAMSCOPE
  2
AcAdParamScope
  3
DesignerServices
 90
        0
 91
        1
280
     0
281
     0
  0
CLASS
  1
NAMEDAPPL
  2
AcAdNamedAppl
  3
DesignerServices
 90
        0
 91
        1
280
     0
281
     0
  0
CLASS
  1
AMDTDMMENUSTATE
  2
AmdtDmMenuState
  3
AcMechDwgViewMgmt
 90
        0
 91
        1
280
     0
281
     0
  0
CLASS
  1
MAPIADMODULE
  2
MApiAdModule
  3
MApiAdServices
 90
        0
 91
        1
280
     0
281
     0
  0
CLASS
  1
AMDTAMMENUSTATE
  2
AmdtAmMenuState
  3
DesignerAssemblies
 90
        0
 91
        1
280
     0
281
     0
  0
CLASS
  1
ACAMPROJECT
  2
AcAmProject
  3
DesignerAssemblies
 90
        0
 91
        1
280
     0
281
     0
  0
CLASS
  1
ACAMGRCOMPDEF
  2
AcAmGrCompDef
  3
DesignerAssemblies
 90
        0
 91
        1
280
     0
281
     0
  0
CLASS
  1
ACCMCONTEXT
  2
AcCmContext
  3
DesignerAssemblies
 90
        0
 91
        1
280
     0
281
     0
  0
CLASS
  1
ACAMCOMPDEF
  2
AcAmCompDef
  3
DesignerAssemblies
 90
        0
 91
        1
280
     0
281
     0
  0
CLASS
  1
ACAMCOMPDEFMGR
  2
AcAmCompDefMgr
  3
DesignerAssemblies
 90
        0
 91
        1
280
     0
281
     0
  0
CLASS
  1
AMCONTEXTMGR
  2
AcAmContextMgr
  3
DesignerAssemblies
 90
        0
 91
        1
280
     0
281
     0
  0
CLASS
  1
ACAMCONTEXTMODELER
  2
AcAmContextModeler
  3
DesignerAssemblies
 90
        0
 91
        1
280
     0
281
     0
  0
CLASS
  1
ACMDATADICTIONARY
  2
AcmDataDictionary
  3
"AcmSymBB|Product Description: AutoCAD Mechanical 2004 DX|Company: Autodesk"
 90
        0
 91
        1
280
     0
281
     0
  0
CLASS
  1
ACMDATAENTRYBLOCK
  2
AcmDataEntryBlock
  3
"AcmSymBB|Product Description: AutoCAD Mechanical 2004 DX|Company: Autodesk"
 90
        0
 91
        1
280
     0
281
     0
  0
CLASS
  1
CATALOGSTATE
  2
AcAmCatalogState
  3
DesignerAssemblies
 90
        0
 91
        1
280
     0
281
     0
  0
CLASS
  1
ACAMGRCOMPDEFSET
  2
AcAmGrCompDefSet
  3
DesignerAssemblies
 90
        0
 91
        1
280
     0
281
     0
  0
CLASS
  1
AMDTBROWSERDBTAB
  2
AmdtBrowserDbTab
  3
McadcomServices
 90
        0
 91
        1
280
     0
281
     0
  0
CLASS
  1
CBROWSERAPPOBJECT
  2
CBrowserAppObject
  3
McadcomServices
 90
        0
 91
        3
280
     0
281
     0
  0
CLASS
  1
DM_PLACEHOLDER
  2
AcDmSelsetPlaceholder
  3
AcMechDwgViewMgmt
 90
        0
 91
        1
280
     0
281
     0
  0
CLASS
  1
ACMSTANDARDANSI
  2
AcmStandardANSI
  3
"Amdt_StdImp|Product Description: AutoCAD Mechanical 2004 DX|Company: Autodesk"
 90
        0
 91
        1
280
     0
281
     0
  0
CLASS
  1
AMGOBJPROPCFG
  2
AmgObjPropCfg
  3
"AmgLay|Product Description: AutoCAD Mechanical 2000|Company: Autodesk"
 90
        1
 91
        1
280
     0
281
     0
  0
CLASS
  1
ACMSURFSTANDARDANSI
  2
AcmSurfTextStdANSI
  3
"Amdt_StdImp|Product Description: AutoCAD Mechanical 2004 DX|Company: Autodesk"
 90
        0
 91
        1
280
     0
281
     0
  0
CLASS
  1
ACMFCFSTANDARDANSI
  2
AcmFCFStdANSI
  3
"Amdt_StdImp|Product Description: AutoCAD Mechanical 2004 DX|Company: Autodesk"
 90
        0
 91
        1
280
     0
281
     0
  0
CLASS
  1
ACMWELDSTANDARDANSI
  2
AcmWeldingStdANSI
  3
"Amdt_StdImp|Product Description: AutoCAD Mechanical 2004 DX|Company: Autodesk"
 90
        0
 91
        1
280
     0
281
     0
  0
CLASS
  1
ACMIDSTANDARDANSI
  2
AcmIdStdANSI
  3
"Amdt_StdImp|Product Description: AutoCAD Mechanical 2004 DX|Company: Autodesk"
 90
        0
 91
        1
280
     0
281
     0
  0
CLASS
  1
ACMDATUMSTANDARDANSI
  2
AcmDatumStdANSI
  3
"Amdt_StdImp|Product Description: AutoCAD Mechanical 2004 DX|Company: Autodesk"
 90
        0
 91
        1
280
     0
281
     0
  0
CLASS
  1
ACMBOMSTANDARDANSI
  2
AcmBOMStdANSI
  3
"Amdt_StdImp|Product Description: AutoCAD Mechanical 2004 DX|Company: Autodesk"
 90
        0
 91
        1
280
     0
281
     0
  0
CLASS
  1
ACMDETAILSTANDARDANSI
  2
AmdtDetailSymStdANSI
  3
"Amdt_StdImp|Product Description: AutoCAD Mechanical 2004 DX|Company: Autodesk"
 90
        0
 91
        1
280
     0
281
     0
  0
CLASS
  1
ACMSECTIONSTANDARDANSI
  2
AmdtSectionSymStdANSI
  3
"Amdt_StdImp|Product Description: AutoCAD Mechanical 2004 DX|Company: Autodesk"
 90
        0
 91
        1
280
     0
281
     0
  0
CLASS
  1
ACMCENTERLINESTANDARDANSI
  2
AmdtCenterLineStdANSI
  3
"Amdt_StdImp|Product Description: AutoCAD Mechanical 2004 DX|Company: Autodesk"
 90
        0
 91
        1
280
     0
281
     0
  0
CLASS
  1
ACMTHREADLINESTANDARDANSI
  2
AmdtThreadLineStdANSI
  3
"Amdt_StdImp|Product Description: AutoCAD Mechanical 2004 DX|Company: Autodesk"
 90
        0
 91
        1
280
     0
281
     0
  0
CLASS
  1
ACMNOTESTANDARDANSI
  2
AmdtNoteStdANSI
  3
"Amdt_StdImp|Product Description: AutoCAD Mechanical 2004 DX|Company: Autodesk"
 90
        0
 91
        1
280
     0
281
     0
  0
CLASS
  1
AMDTNOTETEMPLATEDB
  2
AmdtNoteTemplateDB
  3
AMDT_STDIMP_MODULE_NAME
 90
        0
 91
        6
280
     0
281
     0
  0
CLASS
  1
ACAMGLAYSTD
  2
AcAmgLayStd
  3
"AcAmgLayStd|Product Description: AutoCAD Mechanical 2000|Company: Autodesk"
 90
        0
 91
        1
280
     0
281
     0
  0
CLASS
  1
ACAMGDIMSTD
  2
AcAmgDimStd
  3
"AcAmgDimStd|Product Description: AutoCAD Mechanical 2000|Company: Autodesk"
 90
        0
 91
        1
280
     0
281
     0
  0
CLASS
  1
ACAMGHOLECHARTSTDANSI
  2
AcAmgHoleChartStdANSI
  3
ACMSYMBB_MODULE_NAME
 90
        0
 91
        1
280
     0
281
     0
  0
CLASS
  1
ACAMGTITLESTD
  2
AcAmgTitleStd
  3
"TITLEAPP"
 90
        0
 91
        1
280
     0
281
     0
  0
CLASS
  1
ACAMGFILTERDAT
  2
AcAmgFilterDat
  3
"AcadM|Product Description: AutoCAD Mechanical 2000|Company: Autodesk"
 90
        0
 91
        6
280
     0
281
     0
  0
CLASS
  1
EXACXREFPANELOBJECT
  2
ExAcXREFPanelObject
  3
EXAC_ESW
 90
        0
 91
        1
280
     0
281
     0
  0
ENDSEC
  0
SECTION
  2
TABLES
  0
TABLE
  2
VPORT
  5
7
330
0
100
AcDbSymbolTable
 70
     5
  0
VPORT
  5
319
330
7
100
AcDbSymbolTableRecord
100
AcDbViewportTableRecord
  2
*Active
 70
     0
 10
0.0
 20
0.0
 11
1.0
 21
1.0
 12
0.2654643183268854
 22
-0.199984574561068
 13
0.0
 23
0.0
 14
1.0
 24
1.0
 15
0.0
 25
0.0
 16
0.0
 26
0.0
 36
1.0
 17
0.4829134323546171
 27
0.6972463711912297
 37
0.0
 40
1.195671650526163
 41
1.435540069686411
 42
50.0
 43
0.0
 44
0.0
 50
0.0
 51
0.0
 71
     0
 72
   100
 73
     1
 74
     1
 75
     0
 76
     0
 77
     0
 78
     0
281
     0
 65
     0
110
0.0
120
0.0
130
0.0
111
1.0
121
0.0
131
0.0
112
0.0
122
1.0
132
0.0
 79
     0
146
0.0
  0
ENDTAB
  0
TABLE
  2
LTYPE
  5
4
330
0
100
AcDbSymbolTable
 70
    20
  0
LTYPE
  5
11
330
4
100
AcDbSymbolTableRecord
100
AcDbLinetypeTableRecord
  2
BYBLOCK
 70
     0
  3

 72
    65
 73
     0
 40
0.0
  0
LTYPE
  5
12
330
4
100
AcDbSymbolTableRecord
100
AcDbLinetypeTableRecord
  2
BYLAYER
 70
     0
  3

 72
    65
 73
     0
 40
0.0
  0
LTYPE
  5
13
330
4
100
AcDbSymbolTableRecord
100
AcDbLinetypeTableRecord
  2
CONTINUOUS
 70
     0
  3
Solid line
 72
    65
 73
     0
 40
0.0
  0
LTYPE
  5
1D
330
4
100
AcDbSymbolTableRecord
100
AcDbLinetypeTableRecord
  2
DASHED
 70
     0
  3
_ _ _ _ _ _ _ _ _ _ _ _ _ _ _ _
 72
    65
 73
     2
 40
0.2
 49
0.1
 74
     0
 49
-0.1
 74
     0
  0
LTYPE
  5
1E
330
4
100
AcDbSymbolTableRecord
100
AcDbLinetypeTableRecord
  2
CENTER
 70
     0
  3
___ _ ___ _ ___ _ ___ _ ___ _ ___ _ ___ _ ___ _
 72
    65
 73
     4
 40
0.95
 49
0.625
 74
     0
 49
-0.125
 74
     0
 49
0.075
 74
     0
 49
-0.125
 74
     0
  0
LTYPE
  5
1F
330
4
100
AcDbSymbolTableRecord
100
AcDbLinetypeTableRecord
  2
PHANTOM
 70
     0
  3
______  __  __  ______  __  __  ______  __  __  
 72
    65
 73
     6
 40
1.024999999999999
 49
0.625
 74
     0
 49
-0.125
 74
     0
 49
0.075
 74
     0
 49
-0.125
 74
     0
 49
0.075
 74
     0
 49
-0.125
 74
     0
  0
LTYPE
  5
1B2
330
4
100
AcDbSymbolTableRecord
100
AcDbLinetypeTableRecord
  2
HIDDEN
 70
     0
  3
Hidden __ __ __ __ __ __ __ __ __ __ __ __ __ _
 72
    65
 73
     2
 40
0.375
 49
0.25
 74
     0
 49
-0.125
 74
     0
  0
LTYPE
  5
1B3
330
4
100
AcDbSymbolTableRecord
100
AcDbLinetypeTableRecord
  2
PHANTOM2
 70
     0
  3
Phantom (.5x) ___ _ _ ___ _ _ ___ _ _ ___ _ _
 72
    65
 73
     6
 40
1.25
 49
0.625
 74
     0
 49
-0.125
 74
     0
 49
0.125
 74
     0
 49
-0.125
 74
     0
 49
0.125
 74
     0
 49
-0.125
 74
     0
  0
LTYPE
  5
202
330
4
100
AcDbSymbolTableRecord
100
AcDbLinetypeTableRecord
  2
ASULTYPE
 70
     0
  3
Solid line
 72
    65
 73
     2
 40
3.0
 49
2.5
 74
     0
 49
0.5
 74
     0
  0
LTYPE
  5
203
330
4
100
AcDbSymbolTableRecord
100
AcDbLinetypeTableRecord
  2
ASVLTYPE
 70
     0
  3
__ __ __ __ __ __ __ __ __ __ __ __ __ __ __ __ __ __ __ __ __
 72
    65
 73
     2
 40
0.75
 49
0.5
 74
     0
 49
-0.25
 74
     0
  0
LTYPE
  5
24A
330
4
100
AcDbSymbolTableRecord
100
AcDbLinetypeTableRecord
  2
AM_ISO02W050
 70
     0
  3
__ __ __ __ __ __ __ __ __ __ __ __ __ __ __
 72
    65
 73
     2
 40
7.5
 49
6.0
 74
     0
 49
-1.5
 74
     0
  0
LTYPE
  5
24B
330
4
100
AcDbSymbolTableRecord
100
AcDbLinetypeTableRecord
  2
AM_ISO08W050
 70
     0
  3
____ . ____ . ____ . ____ . ____ . ____ . ____
 72
    65
 73
     4
 40
18.0
 49
12.0
 74
     0
 49
-1.5
 74
     0
 49
3.0
 74
     0
 49
-1.5
 74
     0
  0
LTYPE
  5
24C
330
4
100
AcDbSymbolTableRecord
100
AcDbLinetypeTableRecord
  2
AM_ISO09W050
 70
     0
  3
_____ . . _____ . . _____ . . ____ .. ____
 72
    65
 73
     6
 40
22.5
 49
12.0
 74
     0
 49
-1.5
 74
     0
 49
3.0
 74
     0
 49
-1.5
 74
     0
 49
3.0
 74
     0
 49
-1.5
 74
     0
  0
LTYPE
  5
24D
330
4
100
AcDbSymbolTableRecord
100
AcDbLinetypeTableRecord
  2
Amconstr
 70
     0
  3
_______________________
 72
    65
 73
     2
 40
9999.0
 49
9999.0
 74
     0
 49
0.0
 74
     0
  0
LTYPE
  5
24E
330
4
100
AcDbSymbolTableRecord
100
AcDbLinetypeTableRecord
  2
AM_ISO08W050x2
 70
     0
  3
__ . __ . __ . __ . __ . __
 72
    65
 73
     4
 40
9.0
 49
6.0
 74
     0
 49
-0.75
 74
     0
 49
1.5
 74
     0
 49
-0.75
 74
     0
  0
LTYPE
  5
24F
330
4
100
AcDbSymbolTableRecord
100
AcDbLinetypeTableRecord
  2
AM_ISO02W050x2
 70
     0
  3
 _ _ _ _ _ _ _ _ _ _ _ _
 72
    65
 73
     2
 40
3.75
 49
3.0
 74
     0
 49
-0.75
 74
     0
  0
LTYPE
  5
252
330
4
100
AcDbSymbolTableRecord
100
AcDbLinetypeTableRecord
  2
Amzigzag
 70
     0
  3
/\/-/\/-/\/-/\/-/\/-/\/
 72
    65
 73
     2
 40
11.0001
 49
0.0001
 74
     4
 75
   136
340
251
 46
0.04
 50
0.0
 44
0.0
 45
0.0
 49
-11.0
 74
     0
  0
LTYPE
  5
253
330
4
100
AcDbSymbolTableRecord
100
AcDbLinetypeTableRecord
  2
CENTER2
 70
     0
  3
Center (.5x) ___ _ ___ _ ___ _ ___ _ ___ _ ___
 72
    65
 73
     4
 40
1.125
 49
0.75
 74
     0
 49
-0.125
 74
     0
 49
0.125
 74
     0
 49
-0.125
 74
     0
  0
LTYPE
  5
254
330
4
100
AcDbSymbolTableRecord
100
AcDbLinetypeTableRecord
  2
HIDDEN2
 70
     0
  3
Hidden (.5x) _ _ _ _ _ _ _ _ _ _ _ _ _ _ _ _ _
 72
    65
 73
     2
 40
0.1875
 49
0.125
 74
     0
 49
-0.0625
 74
     0
  0
LTYPE
  5
255
330
4
100
AcDbSymbolTableRecord
100
AcDbLinetypeTableRecord
  2
Amzigzag2
 70
     0
  3
/\/-/\/-/\/-/\/-/\/-/\/
 72
    65
 73
     2
 40
0.4401
 49
0.0001
 74
     4
 75
   136
340
251
 46
0.0016
 50
0.0
 44
0.0
 45
0.0
 49
-0.4400000000000001
 74
     0
  0
LTYPE
  5
263
330
4
100
AcDbSymbolTableRecord
100
AcDbLinetypeTableRecord
  2
ACANSTGB
 70
     0
  3
__ . . __ . .
 72
    65
 73
     6
 40
0.35433070866
 49
0.15748031496
 74
     0
 49
-0.03937007874
 74
     0
 49
0.03937007874
 74
     0
 49
-0.03937007874
 74
     0
 49
0.03937007874
 74
     0
 49
-0.03937007874
 74
     0
  0
LTYPE
  5
264
330
4
100
AcDbSymbolTableRecord
100
AcDbLinetypeTableRecord
  2
ACANSTGL
 70
     0
  3
_ _ _ _ _
 72
    65
 73
     2
 40
0.11811023622
 49
0.07874015748
 74
     0
 49
-0.03937007874
 74
     0
  0
ENDTAB
  0
TABLE
  2
LAYER
  5
2
102
{ACAD_XDICTIONARY
360
2A6
102
}
330
0
100
AcDbSymbolTable
 70
     5
  0
LAYER
  5
14
330
2
100
AcDbSymbolTableRecord
100
AcDbLayerTableRecord
  2
0
 70
     0
 62
     7
  6
CONTINUOUS
370
    -3
390
10A
  0
LAYER
  5
25
330
2
100
AcDbSymbolTableRecord
100
AcDbLayerTableRecord
  2
DIMENSIONS
 70
     0
 62
     7
  6
CONTINUOUS
370
    -3
390
10A
  0
LAYER
  5
2D
330
2
100
AcDbSymbolTableRecord
100
AcDbLayerTableRecord
  2
DEFPOINTS
 70
     0
 62
     7
  6
CONTINUOUS
290
     0
370
    -3
390
10A
  0
LAYER
  5
2A4
330
2
100
AcDbSymbolTableRecord
100
AcDbLayerTableRecord
  2
PRODUCT
 70
     0
 62
     7
  6
CONTINUOUS
370
    -3
390
10A
1001
AcAecLayerStandard
1000

1000

  0
ENDTAB
  0
TABLE
  2
STYLE
  5
3
330
0
100
AcDbSymbolTable
 70
     4
  0
STYLE
  5
17
330
3
100
AcDbSymbolTableRecord
100
AcDbTextStyleTableRecord
  2
STANDARD
 70
     0
 40
0.0
 41
1.0
 50
0.0
 71
     0
 42
0.0
  3
txt
  4

  0
STYLE
  5
251
330
3
100
AcDbSymbolTableRecord
100
AcDbTextStyleTableRecord
  2

 70
     1
 40
0.0
 41
1.0
 50
0.0
 71
     0
 42
0.0125
  3
genltshp.shx
  4

  0
STYLE
  5
256
330
3
100
AcDbSymbolTableRecord
100
AcDbTextStyleTableRecord
  2
ACANSTS
 70
     0
 40
1.0
 41
1.0
 50
0.0
 71
     0
 42
0.0125
  3
romans.shx
  4

  0
STYLE
  5
262
330
3
100
AcDbSymbolTableRecord
100
AcDbTextStyleTableRecord
  2
ACANSGDT
 70
     0
 40
0.0
 41
1.0
 50
0.0
 71
     0
 42
0.0125
  3
AMGDT
  4

  0
ENDTAB
  0
TABLE
  2
VIEW
  5
5
330
0
100
AcDbSymbolTable
 70
     0
  0
ENDTAB
  0
TABLE
  2
UCS
  5
6
330
0
100
AcDbSymbolTable
 70
     1
  0
UCS
  5
20
330
6
100
AcDbSymbolTableRecord
100
AcDbUCSTableRecord
  2
CK_VIEW_1
 70
     0
 10
0.0
 20
0.0
 30
1.0
 11
1.0
 21
0.0
 31
0.0
 12
0.0
 22
1.0
 32
0.0
 79
     0
146
0.0
  0
ENDTAB
  0
TABLE
  2
APPID
  5
8
330
0
100
AcDbSymbolTable
 70
    17
  0
APPID
  5
16
330
8
100
AcDbSymbolTableRecord
100
AcDbRegAppTableRecord
  2
ACAD
 70
     0
  0
APPID
  5
113
330
8
100
AcDbSymbolTableRecord
100
AcDbRegAppTableRecord
  2
DCO15
 70
     0
  0
APPID
  5
17E
330
8
100
AcDbSymbolTableRecord
100
AcDbRegAppTableRecord
  2
GENIUS_GENDIM_13
 70
     0
  0
APPID
  5
17F
330
8
100
AcDbSymbolTableRecord
100
AcDbRegAppTableRecord
  2
GENIUS_GENDTOL_13
 70
     0
  0
APPID
  5
180
330
8
100
AcDbSymbolTableRecord
100
AcDbRegAppTableRecord
  2
GENIUS_GE3DTOL_13
 70
     0
  0
APPID
  5
183
330
8
100
AcDbSymbolTableRecord
100
AcDbRegAppTableRecord
  2
MCAD_NO_VIS
 70
     0
  0
APPID
  5
184
330
8
100
AcDbSymbolTableRecord
100
AcDbRegAppTableRecord
  2
ACAD_TEMP_GRAPHIC
 70
     0
  0
APPID
  5
1B5
330
8
100
AcDbSymbolTableRecord
100
AcDbRegAppTableRecord
  2
AD_DRAW
 70
     0
  0
APPID
  5
1B8
330
8
100
AcDbSymbolTableRecord
100
AcDbRegAppTableRecord
  2
ACATTRIBSERVICES
 70
     0
  0
APPID
  5
204
330
8
100
AcDbSymbolTableRecord
100
AcDbRegAppTableRecord
  2
ASURF_PCURVE_APPNAME
 70
     0
  0
APPID
  5
209
330
8
100
AcDbSymbolTableRecord
100
AcDbRegAppTableRecord
  2
AMG_3D2D_5.0
 70
     0
  0
APPID
  5
23A
330
8
100
AcDbSymbolTableRecord
100
AcDbRegAppTableRecord
  2
DESIGNERASSEMBLIES
 70
     0
  0
APPID
  5
241
330
8
100
AcDbSymbolTableRecord
100
AcDbRegAppTableRecord
  2
ACADM_DIM_EDIT
 70
     0
  0
APPID
  5
242
330
8
100
AcDbSymbolTableRecord
100
AcDbRegAppTableRecord
  2
AMDT_DM_ADJ
 70
     0
  0
APPID
  5
270
330
8
100
AcDbSymbolTableRecord
100
AcDbRegAppTableRecord
  2
ACAD_DSTYLE_DIMARC_LENGTH_SYMBOL
 70
     0
  0
APPID
  5
271
330
8
100
AcDbSymbolTableRecord
100
AcDbRegAppTableRecord
  2
ACAD_DSTYLE_DIMJOGGED_JOGANGLE_SYMBOL
 70
     0
  0
APPID
  5
2A5
330
8
100
AcDbSymbolTableRecord
100
AcDbRegAppTableRecord
  2
AcAecLayerStandard
 70
     0
  0
ENDTAB
  0
TABLE
  2
DIMSTYLE
  5
9
330
0
100
AcDbSymbolTable
 70
    15
100
AcDbDimStyleTable
 71
     0
  0
DIMSTYLE
105
18
330
9
100
AcDbSymbolTableRecord
100
AcDbDimStyleTableRecord
  2
STANDARD
 70
     0
289
     0
340
17
  0
DIMSTYLE
105
29
330
9
100
AcDbSymbolTableRecord
100
AcDbDimStyleTableRecord
  2
DIMSTYLE1
 70
     0
 41
0.0125
 44
0.0125
140
0.0125
289
     0
340
17
  0
DIMSTYLE
105
3B
102
{ACAD_REACTORS
330
3E
102
}
330
9
100
AcDbSymbolTableRecord
100
AcDbDimStyleTableRecord
  2
DIMSTYLE2
 70
     0
 41
0.0125
 44
0.0125
140
0.0125
289
     0
340
17
  0
DIMSTYLE
105
4C
102
{ACAD_REACTORS
330
4F
102
}
330
9
100
AcDbSymbolTableRecord
100
AcDbDimStyleTableRecord
  2
DIMSTYLE3
 70
     0
 41
0.0125
 44
0.0125
140
0.0125
289
     0
340
17
  0
DIMSTYLE
105
5B
102
{ACAD_REACTORS
330
5E
102
}
330
9
100
AcDbSymbolTableRecord
100
AcDbDimStyleTableRecord
  2
DIMSTYLE4
 70
     0
 41
0.0125
 44
0.0125
140
0.0125
289
     0
340
17
  0
DIMSTYLE
105
83
102
{ACAD_REACTORS
330
86
102
}
330
9
100
AcDbSymbolTableRecord
100
AcDbDimStyleTableRecord
  2
DIMSTYLE5
 70
     0
 41
0.0125
 44
0.0125
140
0.0125
289
     0
340
17
  0
DIMSTYLE
105
92
102
{ACAD_REACTORS
330
95
102
}
330
9
100
AcDbSymbolTableRecord
100
AcDbDimStyleTableRecord
  2
DIMSTYLE6
 70
     0
 41
0.0125
 44
0.0125
140
0.0125
289
     0
340
17
  0
DIMSTYLE
105
A1
102
{ACAD_REACTORS
330
A4
102
}
330
9
100
AcDbSymbolTableRecord
100
AcDbDimStyleTableRecord
  2
DIMSTYLE7
 70
     0
 41
0.0125
 44
0.0125
140
0.0125
289
     0
340
17
  0
DIMSTYLE
105
B1
102
{ACAD_REACTORS
330
B4
102
}
330
9
100
AcDbSymbolTableRecord
100
AcDbDimStyleTableRecord
  2
DIMSTYLE8
 70
     0
 41
0.0125
 44
0.0125
140
0.0125
289
     0
340
17
  0
DIMSTYLE
105
26F
330
9
100
AcDbSymbolTableRecord
100
AcDbDimStyleTableRecord
  2
AM_ANSI
 70
     0
  4
mm
 41
0.1
 42
0.05
 43
0.5
 44
0.1
 47
0.1
 48
0.1
 78
     7
 79
     2
140
0.12
141
0.0
146
0.71
147
0.06
176
   256
177
   256
178
     2
274
     4
284
     7
340
17
371
    -1
372
    -1
1001
ACAD_DSTYLE_DIMARC_LENGTH_SYMBOL
1070
   379
1070
     1
1001
ACAD_DSTYLE_DIMJOGGED_JOGANGLE_SYMBOL
1070
   384
1040
0.7853981633974483
  0
DIMSTYLE
105
278
330
9
100
AcDbSymbolTableRecord
100
AcDbDimStyleTableRecord
  2
AM_ANSI$3
 70
     0
  4
mm
 41
0.1
 42
0.05
 43
0.5
 44
0.1
 47
0.1
 48
0.1
 78
     7
 79
     2
140
0.12
141
0.0
146
0.71
147
0.06
176
   256
177
   256
178
     2
274
     4
284
     7
288
     1
289
     0
340
17
371
    -1
372
    -1
1001
ACAD_DSTYLE_DIMARC_LENGTH_SYMBOL
1070
   379
1070
     1
1001
ACAD_DSTYLE_DIMJOGGED_JOGANGLE_SYMBOL
1070
   384
1040
0.7853981633974483
  0
DIMSTYLE
105
27B
330
9
100
AcDbSymbolTableRecord
100
AcDbDimStyleTableRecord
  2
AM_ANSI$4
 70
     0
  4
mm
 41
0.1
 42
0.05
 43
0.5
 44
0.1
 47
0.1
 48
0.1
 78
     7
 79
     2
140
0.12
141
0.0
146
0.71
147
0.06
176
   256
177
   256
178
     2
274
     4
284
     7
288
     1
289
     0
340
17
371
    -1
372
    -1
1001
ACAD_DSTYLE_DIMARC_LENGTH_SYMBOL
1070
   379
1070
     1
1001
ACAD_DSTYLE_DIMJOGGED_JOGANGLE_SYMBOL
1070
   384
1040
0.7853981633974483
  0
DIMSTYLE
105
280
330
9
100
AcDbSymbolTableRecord
100
AcDbDimStyleTableRecord
  2
AM_ANSI$7
 70
     0
  4
mm
 41
0.1
 42
0.05
 43
0.5
 44
0.1
 47
0.1
 48
0.1
 78
     7
 79
     2
140
0.24
141
0.0
146
0.71
147
0.06
176
   256
177
   256
178
     2
274
     4
284
     7
340
17
371
    -1
372
    -1
1001
ACAD_DSTYLE_DIMARC_LENGTH_SYMBOL
1070
   379
1070
     1
1001
ACAD_DSTYLE_DIMJOGGED_JOGANGLE_SYMBOL
1070
   384
1040
0.7853981633974483
  0
DIMSTYLE
105
283
330
9
100
AcDbSymbolTableRecord
100
AcDbDimStyleTableRecord
  2
AM_ANSI$SF
 70
     0
  4
mm
 41
0.1
 42
0.05
 43
0.5
 44
0.1
 47
0.1
 48
0.1
 75
     1
 76
     1
 78
     7
 79
     2
140
0.12
141
0.0
146
0.71
147
0.06
176
   256
177
   256
178
     2
274
     4
284
     7
340
17
371
    -1
372
    -1
1001
ACAD_DSTYLE_DIMARC_LENGTH_SYMBOL
1070
   379
1070
     1
1001
ACAD_DSTYLE_DIMJOGGED_JOGANGLE_SYMBOL
1070
   384
1040
0.7853981633974483
  0
DIMSTYLE
105
28A
330
9
100
AcDbSymbolTableRecord
100
AcDbDimStyleTableRecord
  2
AM_ANSI$SH
 70
     0
  4
mm
 41
0.1
 42
0.05
 43
0.5
 44
0.1
 47
0.1
 48
0.1
 75
     1
 76
     1
 78
     7
 79
     2
140
0.12
141
0.0
146
0.71
147
0.06
173
     1
176
   256
177
   256
178
     2
274
     4
284
     7
340
17
343
284
371
    -1
372
    -1
1001
ACAD_DSTYLE_DIMARC_LENGTH_SYMBOL
1070
   379
1070
     1
1001
ACAD_DSTYLE_DIMJOGGED_JOGANGLE_SYMBOL
1070
   384
1040
0.7853981633974483
  0
ENDTAB
  0
TABLE
  2
BLOCK_RECORD
  5
1
330
0
100
AcDbSymbolTable
 70
    10
  0
BLOCK_RECORD
  5
A
102
{ACAD_XDICTIONARY
360
290
102
}
330
1
100
AcDbSymbolTableRecord
100
AcDbBlockTableRecord
  2
*MODEL_SPACE
340
10D
  0
BLOCK_RECORD
  5
B
330
1
100
AcDbSymbolTableRecord
100
AcDbBlockTableRecord
  2
*PAPER_SPACE
340
10E
  0
BLOCK_RECORD
  5
2A
330
1
100
AcDbSymbolTableRecord
100
AcDbBlockTableRecord
  2
*D0
340
0
  0
BLOCK_RECORD
  5
3C
330
1
100
AcDbSymbolTableRecord
100
AcDbBlockTableRecord
  2
*D1
340
0
  0
BLOCK_RECORD
  5
4D
330
1
100
AcDbSymbolTableRecord
100
AcDbBlockTableRecord
  2
*D2
340
0
  0
BLOCK_RECORD
  5
5C
330
1
100
AcDbSymbolTableRecord
100
AcDbBlockTableRecord
  2
*D3
340
0
  0
BLOCK_RECORD
  5
84
330
1
100
AcDbSymbolTableRecord
100
AcDbBlockTableRecord
  2
*D4
340
0
  0
BLOCK_RECORD
  5
93
330
1
100
AcDbSymbolTableRecord
100
AcDbBlockTableRecord
  2
*D5
340
0
  0
BLOCK_RECORD
  5
A2
330
1
100
AcDbSymbolTableRecord
100
AcDbBlockTableRecord
  2
*D6
340
0
  0
BLOCK_RECORD
  5
B2
330
1
100
AcDbSymbolTableRecord
100
AcDbBlockTableRecord
  2
*D7
340
0
  0
BLOCK_RECORD
  5
231
330
1
100
AcDbSymbolTableRecord
100
AcDbBlockTableRecord
  2
*U8
340
0
  0
BLOCK_RECORD
  5
284
330
1
100
AcDbSymbolTableRecord
100
AcDbBlockTableRecord
  2
GENAXEH
340
0
  0
ENDTAB
  0
ENDSEC
  0
SECTION
  2
BLOCKS
  0
BLOCK
  5
D
330
A
100
AcDbEntity
  8
0
100
AcDbBlockBegin
  2
*MODEL_SPACE
 70
     0
 10
0.0
 20
0.0
 30
0.0
  3
*MODEL_SPACE
  1

  0
ENDBLK
  5
E
330
A
100
AcDbEntity
  8
0
100
AcDbBlockEnd
  0
BLOCK
  5
F
330
B
100
AcDbEntity
 67
     1
  8
0
100
AcDbBlockBegin
  2
*PAPER_SPACE
 70
     0
 10
0.0
 20
0.0
 30
0.0
  3
*PAPER_SPACE
  1

  0
ENDBLK
  5
10
330
B
100
AcDbEntity
 67
     1
  8
0
100
AcDbBlockEnd
  0
BLOCK
  5
2B
330
2A
100
AcDbEntity
  8
0
100
AcDbBlockBegin
  2
*D0
 70
     1
 10
0.0
 20
0.0
 30
0.0
  3
*D0
  1

  0
POINT
  5
2E
330
2A
100
AcDbEntity
  8
DEFPOINTS
  6
Continuous
 62
     0
100
AcDbPoint
 10
0.1529868265304903
 20
0.6927957005963587
 30
0.0
  0
POINT
  5
2F
330
2A
100
AcDbEntity
  8
DEFPOINTS
  6
Continuous
 62
     0
100
AcDbPoint
 10
0.3653303561017757
 20
0.6927957005963587
 30
0.0
  0
POINT
  5
30
330
2A
100
AcDbEntity
  8
DEFPOINTS
  6
Continuous
 62
     0
100
AcDbPoint
 10
0.3903303561017758
 20
0.6077957005963587
 30
0.0
  0
LINE
  5
31
330
2A
100
AcDbEntity
  8
DIMENSIONS
  6
Continuous
 62
     1
100
AcDbLine
 10
0.3590803561017757
 20
0.6927957005963587
 30
0.0
 11
0.1498618265304903
 21
0.6927957005963587
 31
0.0
  0
LINE
  5
32
330
2A
100
AcDbEntity
  8
DIMENSIONS
  6
Continuous
 62
     1
100
AcDbLine
 10
0.3840803561017758
 20
0.6077957005963587
 30
0.0
 11
0.1498618265304903
 21
0.6077957005963587
 31
0.0
  0
LINE
  5
33
330
2A
100
AcDbEntity
  8
DIMENSIONS
  6
Continuous
 62
     1
100
AcDbLine
 10
0.1529868265304903
 20
0.6927957005963587
 30
0.0
 11
0.1529868265304903
 21
0.7177957005963587
 31
0.0
  0
SOLID
  5
34
330
2A
100
AcDbEntity
  8
DIMENSIONS
  6
Continuous
 62
     1
100
AcDbTrace
 10
0.1511118265304903
 20
0.7052957005963587
 30
0.0
 11
0.1548618265304903
 21
0.7052957005963587
 31
0.0
 12
0.1529868265304903
 22
0.6927957005963587
 32
0.0
 13
0.1529868265304903
 23
0.6927957005963587
 33
0.0
  0
LINE
  5
35
330
2A
100
AcDbEntity
  8
DIMENSIONS
  6
Continuous
 62
     1
100
AcDbLine
 10
0.1529868265304903
 20
0.6077957005963587
 30
0.0
 11
0.1529868265304903
 21
0.5827957005963587
 31
0.0
  0
SOLID
  5
36
330
2A
100
AcDbEntity
  8
DIMENSIONS
  6
Continuous
 62
     1
100
AcDbTrace
 10
0.1548618265304903
 20
0.5952957005963588
 30
0.0
 11
0.1511118265304903
 21
0.5952957005963588
 31
0.0
 12
0.1529868265304903
 22
0.6077957005963587
 32
0.0
 13
0.1529868265304903
 23
0.6077957005963587
 33
0.0
  0
TEXT
  5
37
330
2A
100
AcDbEntity
  8
DIMENSIONS
  6
Continuous
 62
     1
100
AcDbText
 10
0.094653493197157
 20
0.6461240605809666
 30
0.0
 40
0.0125
  1
.085
100
AcDbText
  0
TEXT
  5
38
330
2A
100
AcDbEntity
  8
DIMENSIONS
  6
Continuous
 62
     1
100
AcDbText
 10
0.1509034931971569
 20
0.6529990605809666
 30
0.0
 40
0.0125
  1
+.015
100
AcDbText
  0
TEXT
  5
39
330
2A
100
AcDbEntity
  8
DIMENSIONS
  6
Continuous
 62
     1
100
AcDbText
 10
0.1509034931971569
 20
0.6386240605809667
 30
0.0
 40
0.0125
  1
-.007
100
AcDbText
  0
ENDBLK
  5
3A
330
2A
100
AcDbEntity
  8
0
100
AcDbBlockEnd
  0
BLOCK
  5
3D
330
3C
100
AcDbEntity
  8
0
100
AcDbBlockBegin
  2
*D1
 70
     1
 10
0.0
 20
0.0
 30
0.0
  3
*D1
  1

  0
LINE
  5
2F0
330
3C
100
AcDbEntity
  8
DIMENSIONS
  6
Continuous
 62
     0
370
    -2
100
AcDbLine
 10
0.4003303561017758
 20
0.2852957005963586
 30
0.0
 11
0.4003303561017758
 21
0.1994204099905464
 31
0.0
  0
LINE
  5
2F1
330
3C
100
AcDbEntity
  8
DIMENSIONS
  6
Continuous
 62
     0
370
    -2
100
AcDbLine
 10
0.4803303561017758
 20
0.1857957005963586
 30
0.0
 11
0.4803303561017758
 21
0.1994204099905464
 31
0.0
  0
LINE
  5
2F2
330
3C
100
AcDbEntity
  8
DIMENSIONS
  6
Continuous
 62
     0
370
    -2
100
AcDbLine
 10
0.3878303561017757
 20
0.2119204099905464
 30
0.0
 11
0.3753303561017756
 21
0.2119204099905464
 31
0.0
  0
LINE
  5
2F3
330
3C
100
AcDbEntity
  8
DIMENSIONS
  6
Continuous
 62
     0
370
    -2
100
AcDbLine
 10
0.4928303561017758
 20
0.2119204099905464
 30
0.0
 11
0.5053303561017757
 21
0.2119204099905464
 31
0.0
  0
SOLID
  5
2F4
330
3C
100
AcDbEntity
  8
DIMENSIONS
  6
Continuous
 62
     0
100
AcDbTrace
 10
0.3878303561017757
 20
0.2140037433238797
 30
0.0
 11
0.3878303561017757
 21
0.2098370766572131
 31
0.0
 12
0.4003303561017758
 22
0.2119204099905464
 32
0.0
 13
0.4003303561017758
 23
0.2119204099905464
 33
0.0
  0
SOLID
  5
2F5
330
3C
100
AcDbEntity
  8
DIMENSIONS
  6
Continuous
 62
     0
100
AcDbTrace
 10
0.4928303561017758
 20
0.2140037433238797
 30
0.0
 11
0.4928303561017758
 21
0.2098370766572131
 31
0.0
 12
0.4803303561017758
 22
0.2119204099905464
 32
0.0
 13
0.4803303561017758
 23
0.2119204099905464
 33
0.0
  0
MTEXT
  5
2F6
330
3C
100
AcDbEntity
  8
DIMENSIONS
  6
Continuous
 62
     0
100
AcDbMText
 10
0.5414136894351091
 20
0.2119204099905464
 30
0.0
 40
0.0125
 41
0.0
 71
     5
 72
     1
  1
\A1;0.0800
 73
     1
 44
1.0
  0
POINT
  5
2F7
330
3C
100
AcDbEntity
  8
DEFPOINTS
  6
Continuous
 62
     0
100
AcDbPoint
 10
0.4003303561017758
 20
0.3477957005963586
 30
0.0
  0
POINT
  5
2F8
330
3C
100
AcDbEntity
  8
DEFPOINTS
  6
Continuous
 62
     0
100
AcDbPoint
 10
0.4803303561017758
 20
0.2482957005963586
 30
0.0
  0
POINT
  5
2F9
330
3C
100
AcDbEntity
  8
DEFPOINTS
  6
Continuous
 62
     0
100
AcDbPoint
 10
0.4803303561017758
 20
0.2119204099905464
 30
0.0
  0
ENDBLK
  5
4B
330
3C
100
AcDbEntity
  8
0
100
AcDbBlockEnd
  0
BLOCK
  5
4E
330
4D
100
AcDbEntity
  8
0
100
AcDbBlockBegin
  2
*D2
 70
     1
 10
0.0
 20
0.0
 30
0.0
  3
*D2
  1

  0
LINE
  5
2D2
330
4D
100
AcDbEntity
  8
DIMENSIONS
  6
Continuous
 62
     0
370
    -2
100
AcDbLine
 10
0.3128303561017756
 20
0.6077957005963587
 30
0.0
 11
0.1403222314956776
 21
0.6077957005963589
 31
0.0
  0
LINE
  5
2D3
330
4D
100
AcDbEntity
  8
DIMENSIONS
  6
Continuous
 62
     0
370
    -2
100
AcDbLine
 10
0.3128303561017756
 20
0.3377957005963587
 30
0.0
 11
0.1403222314956775
 21
0.3377957005963587
 31
0.0
  0
LINE
  5
2D4
330
4D
100
AcDbEntity
  8
DIMENSIONS
  6
Continuous
 62
     0
370
    -2
100
AcDbLine
 10
0.1528222314956776
 20
0.5952957005963589
 30
0.0
 11
0.1528222314956776
 21
0.4880457005963587
 31
0.0
  0
LINE
  5
2D5
330
4D
100
AcDbEntity
  8
DIMENSIONS
  6
Continuous
 62
     0
370
    -2
100
AcDbLine
 10
0.1528222314956775
 20
0.3502957005963587
 30
0.0
 11
0.1528222314956776
 21
0.4575457005963587
 31
0.0
  0
SOLID
  5
2D6
330
4D
100
AcDbEntity
  8
DIMENSIONS
  6
Continuous
 62
     0
100
AcDbTrace
 10
0.1507388981623443
 20
0.5952957005963589
 30
0.0
 11
0.1549055648290109
 21
0.5952957005963589
 31
0.0
 12
0.1528222314956776
 22
0.6077957005963589
 32
0.0
 13
0.1528222314956776
 23
0.6077957005963589
 33
0.0
  0
SOLID
  5
2D7
330
4D
100
AcDbEntity
  8
DIMENSIONS
  6
Continuous
 62
     0
100
AcDbTrace
 10
0.1507388981623442
 20
0.3502957005963587
 30
0.0
 11
0.1549055648290109
 21
0.3502957005963587
 31
0.0
 12
0.1528222314956775
 22
0.3377957005963587
 32
0.0
 13
0.1528222314956775
 23
0.3377957005963587
 33
0.0
  0
MTEXT
  5
2D8
330
4D
100
AcDbEntity
  8
DIMENSIONS
  6
Continuous
 62
     0
100
AcDbMText
 10
0.1528222314956775
 20
0.4727957005963588
 30
0.0
 40
0.0125
 41
0.0
 71
     5
 72
     1
  1
\A1;0.2700
 73
     1
 44
1.0
  0
POINT
  5
2D9
330
4D
100
AcDbEntity
  8
DEFPOINTS
  6
Continuous
 62
     0
100
AcDbPoint
 10
0.3753303561017756
 20
0.6077957005963587
 30
0.0
  0
POINT
  5
2DA
330
4D
100
AcDbEntity
  8
DEFPOINTS
  6
Continuous
 62
     0
100
AcDbPoint
 10
0.3753303561017756
 20
0.3377957005963586
 30
0.0
  0
POINT
  5
2DB
330
4D
100
AcDbEntity
  8
DEFPOINTS
  6
Continuous
 62
     0
100
AcDbPoint
 10
0.1528222314956775
 20
0.3377957005963587
 30
0.0
  0
ENDBLK
  5
5A
330
4D
100
AcDbEntity
  8
0
100
AcDbBlockEnd
  0
BLOCK
  5
5D
330
5C
100
AcDbEntity
  8
0
100
AcDbBlockBegin
  2
*D3
 70
     1
 10
0.0
 20
0.0
 30
0.0
  3
*D3
  1

  0
LINE
  5
30E
330
5C
100
AcDbEntity
  8
DIMENSIONS
  6
Continuous
 62
     0
370
    -2
100
AcDbLine
 10
0.4903303561017757
 20
0.9052957005963586
 30
0.0
 11
0.4903303561017757
 21
0.8555836059956634
 31
0.0
  0
LINE
  5
30F
330
5C
100
AcDbEntity
  8
DIMENSIONS
  6
Continuous
 62
     0
370
    -2
100
AcDbLine
 10
0.5153303561017757
 20
0.9052957005963586
 30
0.0
 11
0.5153303561017757
 21
0.8555836059956634
 31
0.0
  0
LINE
  5
310
330
5C
100
AcDbEntity
  8
DIMENSIONS
  6
Continuous
 62
     0
370
    -2
100
AcDbLine
 10
0.4778303561017757
 20
0.8430836059956636
 30
0.0
 11
0.4653303561017757
 21
0.8430836059956636
 31
0.0
  0
LINE
  5
311
330
5C
100
AcDbEntity
  8
DIMENSIONS
  6
Continuous
 62
     0
370
    -2
100
AcDbLine
 10
0.5278303561017756
 20
0.8430836059956636
 30
0.0
 11
0.5403303561017757
 21
0.8430836059956636
 31
0.0
  0
SOLID
  5
312
330
5C
100
AcDbEntity
  8
DIMENSIONS
  6
Continuous
 62
     0
100
AcDbTrace
 10
0.4778303561017757
 20
0.8451669393289968
 30
0.0
 11
0.4778303561017757
 21
0.8410002726623302
 31
0.0
 12
0.4903303561017757
 22
0.8430836059956636
 32
0.0
 13
0.4903303561017757
 23
0.8430836059956636
 33
0.0
  0
SOLID
  5
313
330
5C
100
AcDbEntity
  8
DIMENSIONS
  6
Continuous
 62
     0
100
AcDbTrace
 10
0.5278303561017756
 20
0.8451669393289968
 30
0.0
 11
0.5278303561017756
 21
0.8410002726623302
 31
0.0
 12
0.5153303561017757
 22
0.8430836059956636
 32
0.0
 13
0.5153303561017757
 23
0.8430836059956636
 33
0.0
  0
MTEXT
  5
314
330
5C
100
AcDbEntity
  8
DIMENSIONS
  6
Continuous
 62
     0
100
AcDbMText
 10
0.5774553561017757
 20
0.8430836059956636
 30
0.0
 40
0.0125
 41
0.0
 71
     5
 72
     1
  1
\A1;0.0250
 73
     1
 44
1.0
  0
POINT
  5
315
330
5C
100
AcDbEntity
  8
DEFPOINTS
  6
Continuous
 62
     0
100
AcDbPoint
 10
0.4903303561017757
 20
0.8427957005963586
 30
0.0
  0
POINT
  5
316
330
5C
100
AcDbEntity
  8
DEFPOINTS
  6
Continuous
 62
     0
100
AcDbPoint
 10
0.5153303561017757
 20
0.8427957005963586
 30
0.0
  0
POINT
  5
317
330
5C
100
AcDbEntity
  8
DEFPOINTS
  6
Continuous
 62
     0
100
AcDbPoint
 10
0.5153303561017757
 20
0.8430836059956636
 30
0.0
  0
ENDBLK
  5
69
330
5C
100
AcDbEntity
  8
0
100
AcDbBlockEnd
  0
BLOCK
  5
85
330
84
100
AcDbEntity
  8
0
100
AcDbBlockBegin
  2
*D4
 70
     1
 10
0.0
 20
0.0
 30
0.0
  3
*D4
  1

  0
LINE
  5
2E6
330
84
100
AcDbEntity
  8
DIMENSIONS
  6
Continuous
 62
     0
370
    -2
100
AcDbLine
 10
0.3028303561017756
 20
0.9927957005963586
 30
0.0
 11
0.1403303561017756
 21
0.9927957005963586
 31
0.0
  0
LINE
  5
2E7
330
84
100
AcDbEntity
  8
DIMENSIONS
  6
Continuous
 62
     0
370
    -2
100
AcDbLine
 10
0.3028303561017756
 20
0.6927957005963587
 30
0.0
 11
0.1403303561017756
 21
0.6927957005963588
 31
0.0
  0
LINE
  5
2E8
330
84
100
AcDbEntity
  8
DIMENSIONS
  6
Continuous
 62
     0
370
    -2
100
AcDbLine
 10
0.1528303561017756
 20
0.9802957005963587
 30
0.0
 11
0.1528303561017756
 21
0.8580457005963586
 31
0.0
  0
LINE
  5
2E9
330
84
100
AcDbEntity
  8
DIMENSIONS
  6
Continuous
 62
     0
370
    -2
100
AcDbLine
 10
0.1528303561017756
 20
0.7052957005963587
 30
0.0
 11
0.1528303561017756
 21
0.8275457005963586
 31
0.0
  0
SOLID
  5
2EA
330
84
100
AcDbEntity
  8
DIMENSIONS
  6
Continuous
 62
     0
100
AcDbTrace
 10
0.1507470227684423
 20
0.9802957005963587
 30
0.0
 11
0.154913689435109
 21
0.9802957005963587
 31
0.0
 12
0.1528303561017756
 22
0.9927957005963586
 32
0.0
 13
0.1528303561017756
 23
0.9927957005963586
 33
0.0
  0
SOLID
  5
2EB
330
84
100
AcDbEntity
  8
DIMENSIONS
  6
Continuous
 62
     0
100
AcDbTrace
 10
0.1507470227684422
 20
0.7052957005963587
 30
0.0
 11
0.1549136894351089
 21
0.7052957005963587
 31
0.0
 12
0.1528303561017756
 22
0.6927957005963588
 32
0.0
 13
0.1528303561017756
 23
0.6927957005963588
 33
0.0
  0
MTEXT
  5
2EC
330
84
100
AcDbEntity
  8
DIMENSIONS
  6
Continuous
 62
     0
100
AcDbMText
 10
0.1528303561017755
 20
0.8427957005963586
 30
0.0
 40
0.0125
 41
0.0
 71
     5
 72
     1
  1
\A1;0.3000
 73
     1
 44
1.0
  0
POINT
  5
2ED
330
84
100
AcDbEntity
  8
DEFPOINTS
  6
Continuous
 62
     0
100
AcDbPoint
 10
0.3653303561017756
 20
0.9927957005963586
 30
0.0
  0
POINT
  5
2EE
330
84
100
AcDbEntity
  8
DEFPOINTS
  6
Continuous
 62
     0
100
AcDbPoint
 10
0.3653303561017756
 20
0.6927957005963587
 30
0.0
  0
POINT
  5
2EF
330
84
100
AcDbEntity
  8
DEFPOINTS
  6
Continuous
 62
     0
100
AcDbPoint
 10
0.1528303561017756
 20
0.6927957005963588
 30
0.0
  0
ENDBLK
  5
91
330
84
100
AcDbEntity
  8
0
100
AcDbBlockEnd
  0
BLOCK
  5
94
330
93
100
AcDbEntity
  8
0
100
AcDbBlockBegin
  2
*D5
 70
     1
 10
0.0
 20
0.0
 30
0.0
  3
*D5
  1

  0
LINE
  5
2FA
330
93
100
AcDbEntity
  8
DIMENSIONS
  6
Continuous
 62
     0
370
    -2
100
AcDbLine
 10
0.5603303561017762
 20
0.7157957005963586
 30
0.0
 11
0.5903303561017759
 21
0.7157957005963586
 31
0.0
  0
LINE
  5
2FB
330
93
100
AcDbEntity
  8
DIMENSIONS
  6
Continuous
 62
     0
370
    -2
100
AcDbLine
 10
0.5478303561017757
 20
0.2432957005963586
 30
0.0
 11
0.5903303561017758
 21
0.2432957005963586
 31
0.0
  0
LINE
  5
2FC
330
93
100
AcDbEntity
  8
DIMENSIONS
  6
Continuous
 62
     0
370
    -2
100
AcDbLine
 10
0.577830356101776
 20
0.7032957005963586
 30
0.0
 11
0.577830356101776
 21
0.4947957005963586
 31
0.0
  0
LINE
  5
2FD
330
93
100
AcDbEntity
  8
DIMENSIONS
  6
Continuous
 62
     0
370
    -2
100
AcDbLine
 10
0.577830356101776
 20
0.2557957005963586
 30
0.0
 11
0.577830356101776
 21
0.4642957005963586
 31
0.0
  0
SOLID
  5
2FE
330
93
100
AcDbEntity
  8
DIMENSIONS
  6
Continuous
 62
     0
100
AcDbTrace
 10
0.5757470227684426
 20
0.7032957005963586
 30
0.0
 11
0.5799136894351093
 21
0.7032957005963586
 31
0.0
 12
0.577830356101776
 22
0.7157957005963586
 32
0.0
 13
0.577830356101776
 23
0.7157957005963586
 33
0.0
  0
SOLID
  5
2FF
330
93
100
AcDbEntity
  8
DIMENSIONS
  6
Continuous
 62
     0
100
AcDbTrace
 10
0.5757470227684426
 20
0.2557957005963586
 30
0.0
 11
0.5799136894351093
 21
0.2557957005963586
 31
0.0
 12
0.5778303561017758
 22
0.2432957005963586
 32
0.0
 13
0.5778303561017758
 23
0.2432957005963586
 33
0.0
  0
MTEXT
  5
300
330
93
100
AcDbEntity
  8
DIMENSIONS
  6
Continuous
 62
     0
100
AcDbMText
 10
0.5778303561017758
 20
0.4795457005963587
 30
0.0
 40
0.0125
 41
0.0
 71
     5
 72
     1
  1
\A1;0.4725
 73
     1
 44
1.0
  0
POINT
  5
301
330
93
100
AcDbEntity
  8
DEFPOINTS
  6
Continuous
 62
     0
100
AcDbPoint
 10
0.4978303561017762
 20
0.7157957005963586
 30
0.0
  0
POINT
  5
302
330
93
100
AcDbEntity
  8
DEFPOINTS
  6
Continuous
 62
     0
100
AcDbPoint
 10
0.4853303561017757
 20
0.2432957005963586
 30
0.0
  0
POINT
  5
303
330
93
100
AcDbEntity
  8
DEFPOINTS
  6
Continuous
 62
     0
100
AcDbPoint
 10
0.5778303561017758
 20
0.2432957005963586
 30
0.0
  0
ENDBLK
  5
A0
330
93
100
AcDbEntity
  8
0
100
AcDbBlockEnd
  0
BLOCK
  5
A3
330
A2
100
AcDbEntity
  8
0
100
AcDbBlockBegin
  2
*D6
 70
     1
 10
0.0
 20
0.0
 30
0.0
  3
*D6
  1

  0
LINE
  5
2DC
330
A2
100
AcDbEntity
  8
DIMENSIONS
  6
Continuous
 62
     0
370
    -2
100
AcDbLine
 10
0.4003303561017758
 20
0.2852957005963586
 30
0.0
 11
0.4003303561017758
 21
0.2556214201365091
 31
0.0
  0
LINE
  5
2DD
330
A2
100
AcDbEntity
  8
DIMENSIONS
  6
Continuous
 62
     0
370
    -2
100
AcDbLine
 10
0.3653303561017757
 20
0.2852957005963586
 30
0.0
 11
0.3653303561017757
 21
0.2556214201365091
 31
0.0
  0
LINE
  5
2DE
330
A2
100
AcDbEntity
  8
DIMENSIONS
  6
Continuous
 62
     0
370
    -2
100
AcDbLine
 10
0.4128303561017758
 20
0.2681214201365091
 30
0.0
 11
0.4253303561017758
 21
0.2681214201365091
 31
0.0
  0
LINE
  5
2DF
330
A2
100
AcDbEntity
  8
DIMENSIONS
  6
Continuous
 62
     0
370
    -2
100
AcDbLine
 10
0.3528303561017757
 20
0.2681214201365091
 30
0.0
 11
0.3403303561017758
 21
0.2681214201365091
 31
0.0
  0
SOLID
  5
2E0
330
A2
100
AcDbEntity
  8
DIMENSIONS
  6
Continuous
 62
     0
100
AcDbTrace
 10
0.4128303561017758
 20
0.2702047534698424
 30
0.0
 11
0.4128303561017758
 21
0.2660380868031757
 31
0.0
 12
0.4003303561017758
 22
0.2681214201365091
 32
0.0
 13
0.4003303561017758
 23
0.2681214201365091
 33
0.0
  0
SOLID
  5
2E1
330
A2
100
AcDbEntity
  8
DIMENSIONS
  6
Continuous
 62
     0
100
AcDbTrace
 10
0.3528303561017757
 20
0.2702047534698424
 30
0.0
 11
0.3528303561017757
 21
0.2660380868031757
 31
0.0
 12
0.3653303561017757
 22
0.2681214201365091
 32
0.0
 13
0.3653303561017757
 23
0.2681214201365091
 33
0.0
  0
MTEXT
  5
2E2
330
A2
100
AcDbEntity
  8
DIMENSIONS
  6
Continuous
 62
     0
100
AcDbMText
 10
0.3032053561017757
 20
0.2681214201365091
 30
0.0
 40
0.0125
 41
0.0
 71
     5
 72
     1
  1
\A1;0.0350
 73
     1
 44
1.0
  0
POINT
  5
2E3
330
A2
100
AcDbEntity
  8
DEFPOINTS
  6
Continuous
 62
     0
100
AcDbPoint
 10
0.4003303561017758
 20
0.3477957005963586
 30
0.0
  0
POINT
  5
2E4
330
A2
100
AcDbEntity
  8
DEFPOINTS
  6
Continuous
 62
     0
100
AcDbPoint
 10
0.3653303561017757
 20
0.3477957005963586
 30
0.0
  0
POINT
  5
2E5
330
A2
100
AcDbEntity
  8
DEFPOINTS
  6
Continuous
 62
     0
100
AcDbPoint
 10
0.3653303561017757
 20
0.2681214201365091
 30
0.0
  0
ENDBLK
  5
AF
330
A2
100
AcDbEntity
  8
0
100
AcDbBlockEnd
  0
BLOCK
  5
B3
330
B2
100
AcDbEntity
  8
0
100
AcDbBlockBegin
  2
*D7
 70
     1
 10
0.0
 20
0.0
 30
0.0
  3
*D7
  1

  0
LINE
  5
304
330
B2
100
AcDbEntity
  8
DIMENSIONS
  6
Continuous
 62
     0
370
    -2
100
AcDbLine
 10
0.5478303561017757
 20
0.2432957005963586
 30
0.0
 11
0.6828943638293883
 21
0.2432957005963586
 31
0.0
  0
LINE
  5
305
330
B2
100
AcDbEntity
  8
DIMENSIONS
  6
Continuous
 62
     0
370
    -2
100
AcDbLine
 10
0.4278303561017757
 20
0.9927957005963586
 30
0.0
 11
0.6828943638293885
 21
0.9927957005963586
 31
0.0
  0
LINE
  5
306
330
B2
100
AcDbEntity
  8
DIMENSIONS
  6
Continuous
 62
     0
370
    -2
100
AcDbLine
 10
0.6703943638293885
 20
0.2557957005963585
 30
0.0
 11
0.6703943638293885
 21
0.6027957005963586
 31
0.0
  0
LINE
  5
307
330
B2
100
AcDbEntity
  8
DIMENSIONS
  6
Continuous
 62
     0
370
    -2
100
AcDbLine
 10
0.6703943638293886
 20
0.9802957005963586
 30
0.0
 11
0.6703943638293885
 21
0.6332957005963586
 31
0.0
  0
SOLID
  5
308
330
B2
100
AcDbEntity
  8
DIMENSIONS
  6
Continuous
 62
     0
100
AcDbTrace
 10
0.6683110304960552
 20
0.2557957005963585
 30
0.0
 11
0.6724776971627218
 21
0.2557957005963585
 31
0.0
 12
0.6703943638293884
 22
0.2432957005963586
 32
0.0
 13
0.6703943638293884
 23
0.2432957005963586
 33
0.0
  0
SOLID
  5
309
330
B2
100
AcDbEntity
  8
DIMENSIONS
  6
Continuous
 62
     0
100
AcDbTrace
 10
0.6683110304960552
 20
0.9802957005963586
 30
0.0
 11
0.6724776971627219
 21
0.9802957005963586
 31
0.0
 12
0.6703943638293886
 22
0.9927957005963586
 32
0.0
 13
0.6703943638293886
 23
0.9927957005963586
 33
0.0
  0
MTEXT
  5
30A
330
B2
100
AcDbEntity
  8
DIMENSIONS
  6
Continuous
 62
     0
100
AcDbMText
 10
0.6703943638293884
 20
0.6180457005963587
 30
0.0
 40
0.0125
 41
0.0
 71
     5
 72
     1
  1
\A1;0.7495
 73
     1
 44
1.0
  0
POINT
  5
30B
330
B2
100
AcDbEntity
  8
DEFPOINTS
  6
Continuous
 62
     0
100
AcDbPoint
 10
0.4853303561017757
 20
0.2432957005963586
 30
0.0
  0
POINT
  5
30C
330
B2
100
AcDbEntity
  8
DEFPOINTS
  6
Continuous
 62
     0
100
AcDbPoint
 10
0.3653303561017757
 20
0.9927957005963586
 30
0.0
  0
POINT
  5
30D
330
B2
100
AcDbEntity
  8
DEFPOINTS
  6
Continuous
 62
     0
100
AcDbPoint
 10
0.6703943638293886
 20
0.9927957005963586
 30
0.0
  0
ENDBLK
  5
BF
330
B2
100
AcDbEntity
  8
0
100
AcDbBlockEnd
  0
BLOCK
  5
232
330
231
100
AcDbEntity
  8
0
 62
     1
100
AcDbBlockBegin
  2
*U8
 70
     1
 10
0.0
 20
0.0
 30
0.0
  3
*U8
  1

  0
ENDBLK
  5
233
330
231
100
AcDbEntity
  8
0
 62
     1
100
AcDbBlockEnd
  0
BLOCK
  5
286
330
284
100
AcDbEntity
  8
0
 62
     1
100
AcDbBlockBegin
  2
GENAXEH
 70
     0
 10
0.0
 20
0.0
 30
0.0
  3
GENAXEH
  1

  0
LINE
  5
285
330
284
100
AcDbEntity
  8
0
100
AcDbLine
 10
-1.0
 20
0.0
 30
0.0
 11
1.0
 21
0.0
 31
0.0
  0
ENDBLK
  5
287
330
284
100
AcDbEntity
  8
0
 62
     1
100
AcDbBlockEnd
  0
ENDSEC
  0
SECTION
  2
ENTITIES
  0
DIMENSION
  5
3E
330
A
100
AcDbEntity
  8
DIMENSIONS
  6
Continuous
 62
     1
100
AcDbDimension
  2
*D1
 10
0.4803303561017758
 20
0.2119204099905464
 30
0.0
 11
0.5414136894351091
 21
0.2119204099905464
 31
0.0
 70
    32
 71
     5
 42
0.08
  3
DIMSTYLE2
100
AcDbAlignedDimension
 13
0.4003303561017758
 23
0.3477957005963586
 33
0.0
 14
0.4803303561017758
 24
0.2482957005963586
 34
0.0
100
AcDbRotatedDimension
1001
ACAD
1000
DSTYLE
1002
{
1070
   147
1040
0.009
1002
}
  0
DIMENSION
  5
4F
330
A
100
AcDbEntity
  8
DIMENSIONS
  6
Continuous
 62
     1
100
AcDbDimension
  2
*D2
 10
0.1528222314956775
 20
0.3377957005963587
 30
0.0
 11
0.1528222314956775
 21
0.4727957005963588
 31
0.0
 70
    32
 71
     5
 42
0.27
  3
DIMSTYLE3
100
AcDbAlignedDimension
 13
0.3753303561017756
 23
0.6077957005963587
 33
0.0
 14
0.3753303561017756
 24
0.3377957005963586
 34
0.0
 50
90.0
100
AcDbRotatedDimension
1001
ACAD
1000
DSTYLE
1002
{
1070
   147
1040
0.009
1002
}
  0
DIMENSION
  5
5E
330
A
100
AcDbEntity
  8
DIMENSIONS
  6
Continuous
 62
     1
100
AcDbDimension
  2
*D3
 10
0.5153303561017757
 20
0.8430836059956636
 30
0.0
 11
0.5774553561017757
 21
0.8430836059956636
 31
0.0
 70
    32
 71
     5
 42
0.025
  3
DIMSTYLE4
100
AcDbAlignedDimension
 13
0.4903303561017757
 23
0.8427957005963586
 33
0.0
 14
0.5153303561017757
 24
0.8427957005963586
 34
0.0
100
AcDbRotatedDimension
1001
ACAD
1000
DSTYLE
1002
{
1070
   147
1040
0.009
1002
}
  0
CIRCLE
  5
6A
330
A
100
AcDbEntity
  8
PRODUCT
  6
Continuous
 62
     5
100
AcDbCircle
 10
0.3653303561017757
 20
0.8427957005963586
 30
0.0
 40
0.125
  0
ARC
  5
6B
330
A
100
AcDbEntity
  8
PRODUCT
  6
Continuous
 62
     5
100
AcDbCircle
 10
0.4703303561017757
 20
0.4452957005963586
 30
0.0
 40
0.01
100
AcDbArc
 50
0.0
 51
90.0
  0
ARC
  5
6C
330
A
100
AcDbEntity
  8
PRODUCT
  6
Continuous
 62
     5
100
AcDbCircle
 10
0.4103303561017757
 20
0.4452957005963587
 30
0.0
 40
0.01
100
AcDbArc
 50
90.0
 51
180.0
  0
ARC
  5
6D
330
A
100
AcDbEntity
  8
PRODUCT
  6
Continuous
 62
     5
100
AcDbCircle
 10
0.3903303561017757
 20
0.3477957005963586
 30
0.0
 40
0.01
100
AcDbArc
 50
270.0
 51
360.0
  0
ARC
  5
6E
330
A
100
AcDbEntity
  8
PRODUCT
  6
Continuous
 62
     5
100
AcDbCircle
 10
0.3753303561017757
 20
0.3477957005963586
 30
0.0
 40
0.01
100
AcDbArc
 50
180.0
 51
270.0
  0
ARC
  5
6F
330
A
100
AcDbEntity
  8
PRODUCT
  6
Continuous
 62
     5
100
AcDbCircle
 10
0.3753303561017758
 20
0.5977957005963587
 30
0.0
 40
0.01
100
AcDbArc
 50
90.0
 51
180.0
  0
ARC
  5
70
330
A
100
AcDbEntity
  8
PRODUCT
  6
Continuous
 62
     5
100
AcDbCircle
 10
0.3903303561017758
 20
0.5977957005963587
 30
0.0
 40
0.01
100
AcDbArc
 50
0.0
 51
90.0
  0
ARC
  5
71
330
A
100
AcDbEntity
  8
PRODUCT
  6
Continuous
 62
     5
100
AcDbCircle
 10
0.4103303561017758
 20
0.5002957005963588
 30
0.0
 40
0.01
100
AcDbArc
 50
180.0
 51
270.0
  0
ARC
  5
72
330
A
100
AcDbEntity
  8
PRODUCT
  6
Continuous
 62
     5
100
AcDbCircle
 10
0.4703303561017759
 20
0.5002957005963587
 30
0.0
 40
0.01
100
AcDbArc
 50
270.0
 51
360.0
  0
LINE
  5
73
330
A
100
AcDbEntity
  8
PRODUCT
  6
Continuous
 62
     5
100
AcDbLine
 10
0.4893303561017757
 20
0.2452957005963586
 30
0.0
 11
0.5103303561017757
 21
0.2732957005963586
 31
0.0
  0
ARC
  5
74
330
A
100
AcDbEntity
  8
PRODUCT
  6
Continuous
 62
     5
100
AcDbCircle
 10
0.4853303561017757
 20
0.2482957005963586
 30
0.0
 40
0.005
100
AcDbArc
 50
180.0
 51
323.1301023541558
  0
ARC
  5
75
330
A
100
AcDbEntity
  8
PRODUCT
  6
Continuous
 62
     5
100
AcDbCircle
 10
0.4903303561017757
 20
0.2882957005963586
 30
0.0
 40
0.025
100
AcDbArc
 50
323.1301023541559
 51
360.0
  0
LINE
  5
76
330
A
100
AcDbEntity
  8
PRODUCT
  6
Continuous
 62
     5
100
AcDbLine
 10
0.4803303561017759
 20
0.5002957005963587
 30
0.0
 11
0.4803303561017759
 21
0.6982957005963586
 31
0.0
  0
ARC
  5
77
330
A
100
AcDbEntity
  8
PRODUCT
  6
Continuous
 62
     5
100
AcDbCircle
 10
0.4978303561017762
 20
0.6982957005963586
 30
0.0
 40
0.0175
100
AcDbArc
 50
0.0
 51
180.0
  0
LINE
  5
78
330
A
100
AcDbEntity
  8
PRODUCT
  6
Continuous
 62
     5
100
AcDbLine
 10
0.5153303561017761
 20
0.8427957005963586
 30
0.0
 11
0.5153303561017762
 21
0.6982957005963586
 31
0.0
  0
ARC
  5
79
330
A
100
AcDbEntity
  8
PRODUCT
  6
Continuous
 62
     5
100
AcDbCircle
 10
0.3653303561017757
 20
0.8427957005963586
 30
0.0
 40
0.15
100
AcDbArc
 50
0.0
 51
295.6220277472418
  0
LINE
  5
7A
330
A
100
AcDbEntity
  8
PRODUCT
  6
Continuous
 62
     5
100
AcDbLine
 10
0.4703303561017759
 20
0.4552957005963586
 30
0.0
 11
0.4103303561017758
 21
0.4552957005963587
 31
0.0
  0
LINE
  5
7B
330
A
100
AcDbEntity
  8
PRODUCT
  6
Continuous
 62
     5
100
AcDbLine
 10
0.5153303561017757
 20
0.2882957005963586
 30
0.0
 11
0.5153303561017758
 21
0.6982957005963586
 31
0.0
  0
LINE
  5
7C
330
A
100
AcDbEntity
  8
PRODUCT
  6
Continuous
 62
     5
100
AcDbLine
 10
0.4803303561017758
 20
0.2482957005963586
 30
0.0
 11
0.4803303561017758
 21
0.4452957005963586
 31
0.0
  0
LINE
  5
7D
330
A
100
AcDbEntity
  8
PRODUCT
  6
Continuous
 62
     5
100
AcDbLine
 10
0.4703303561017759
 20
0.4902957005963586
 30
0.0
 11
0.4103303561017758
 21
0.4902957005963587
 31
0.0
  0
LINE
  5
7E
330
A
100
AcDbEntity
  8
PRODUCT
  6
Continuous
 62
     5
100
AcDbLine
 10
0.4003303561017758
 20
0.3477957005963586
 30
0.0
 11
0.4003303561017758
 21
0.4452957005963587
 31
0.0
  0
LINE
  5
7F
330
A
100
AcDbEntity
  8
PRODUCT
  6
Continuous
 62
     5
100
AcDbLine
 10
0.3653303561017757
 20
0.3477957005963586
 30
0.0
 11
0.3653303561017758
 21
0.5977957005963587
 31
0.0
  0
LINE
  5
80
330
A
100
AcDbEntity
  8
PRODUCT
  6
Continuous
 62
     5
100
AcDbLine
 10
0.4003303561017759
 20
0.5002957005963588
 30
0.0
 11
0.4003303561017759
 21
0.5977957005963587
 31
0.0
  0
LINE
  5
81
330
A
100
AcDbEntity
  8
PRODUCT
  6
Continuous
 62
     5
100
AcDbLine
 10
0.3903303561017758
 20
0.6077957005963587
 30
0.0
 11
0.3753303561017758
 21
0.6077957005963587
 31
0.0
  0
LINE
  5
82
330
A
100
AcDbEntity
  8
PRODUCT
  6
Continuous
 62
     5
100
AcDbLine
 10
0.3903303561017757
 20
0.3377957005963586
 30
0.0
 11
0.3753303561017757
 21
0.3377957005963586
 31
0.0
  0
DIMENSION
  5
86
330
A
100
AcDbEntity
  8
DIMENSIONS
  6
Continuous
 62
     1
100
AcDbDimension
  2
*D4
 10
0.1528303561017756
 20
0.6927957005963588
 30
0.0
 11
0.1528303561017755
 21
0.8427957005963586
 31
0.0
 70
    32
 71
     5
 42
0.2999999999999999
  3
DIMSTYLE5
100
AcDbAlignedDimension
 13
0.3653303561017756
 23
0.9927957005963586
 33
0.0
 14
0.3653303561017756
 24
0.6927957005963587
 34
0.0
 50
90.0
100
AcDbRotatedDimension
1001
ACAD
1000
DSTYLE
1002
{
1070
   147
1040
0.009
1002
}
  0
DIMENSION
  5
95
330
A
100
AcDbEntity
  8
DIMENSIONS
  6
Continuous
 62
     1
100
AcDbDimension
  2
*D5
 10
0.5778303561017758
 20
0.2432957005963586
 30
0.0
 11
0.5778303561017758
 21
0.4795457005963587
 31
0.0
 70
    32
 71
     5
 42
0.4725
  3
DIMSTYLE6
100
AcDbAlignedDimension
 13
0.4978303561017762
 23
0.7157957005963586
 33
0.0
 14
0.4853303561017757
 24
0.2432957005963586
 34
0.0
 50
90.0
100
AcDbRotatedDimension
1001
ACAD
1000
DSTYLE
1002
{
1070
   147
1040
0.009
1002
}
  0
DIMENSION
  5
A4
330
A
100
AcDbEntity
  8
DIMENSIONS
  6
Continuous
 62
     1
100
AcDbDimension
  2
*D6
 10
0.3653303561017757
 20
0.2681214201365091
 30
0.0
 11
0.3032053561017757
 21
0.2681214201365091
 31
0.0
 70
    32
 71
     5
 42
0.035
  3
DIMSTYLE7
100
AcDbAlignedDimension
 13
0.4003303561017758
 23
0.3477957005963586
 33
0.0
 14
0.3653303561017757
 24
0.3477957005963586
 34
0.0
100
AcDbRotatedDimension
1001
ACAD
1000
DSTYLE
1002
{
1070
   147
1040
0.009
1002
}
  0
ARC
  5
B0
330
A
100
AcDbEntity
  8
PRODUCT
  6
Continuous
 62
     5
100
AcDbCircle
 10
0.4453303561017758
 20
0.6759874274202361
 30
0.0
 40
0.035
100
AcDbArc
 50
0.0
 51
115.6220277472417
  0
DIMENSION
  5
B4
330
A
100
AcDbEntity
  8
DIMENSIONS
  6
Continuous
 62
     1
100
AcDbDimension
  2
*D7
 10
0.6703943638293886
 20
0.9927957005963586
 30
0.0
 11
0.6703943638293884
 21
0.6180457005963587
 31
0.0
 70
    32
 71
     5
 42
0.7495
  3
DIMSTYLE8
100
AcDbAlignedDimension
 13
0.4853303561017757
 23
0.2432957005963586
 33
0.0
 14
0.3653303561017757
 24
0.9927957005963586
 34
0.0
 50
90.0
100
AcDbRotatedDimension
1001
ACAD
1000
DSTYLE
1002
{
1070
   147
1040
0.009
1002
}
  0
ENDSEC
  0
SECTION
  2
OBJECTS
  0
DICTIONARY
  5
19
330
0
100
AcDbDictionary
281
     1
  3
ACAD_COLOR
350
174
  3
ACAD_GROUP
350
1A
  3
ACAD_LAYOUT
350
10B
  3
ACAD_MATERIAL
350
173
  3
ACAD_MLINESTYLE
350
1B
  3
ACAD_PLOTSETTINGS
350
10C
  3
ACAD_PLOTSTYLENAME
350
109
  3
ACAD_TABLESTYLE
350
175
  3
AcDbVariableDictionary
350
160
  3
AcmDictionary
350
23B
  3
AMG
350
17B
  3
AMGSNAPSETTINGS
350
29D
  3
ASE_INDEX_DICTIONARY
350
112
  3
MAPISURF_MODULE
350
207
  0
DICTIONARY
  5
2A6
330
2
100
AcDbDictionary
280
     1
281
     1
  3
ACAD_LAYERFILTERS
360
2D1
  3
ACLYDICTIONARY
360
2D0
  0
DICTIONARY
  5
290
330
A
100
AcDbDictionary
280
     1
281
     1
  3
ACAD_INDEX
360
291
  0
DICTIONARY
  5
174
102
{ACAD_REACTORS
330
19
102
}
330
19
100
AcDbDictionary
281
     1
  0
DICTIONARY
  5
1A
102
{ACAD_REACTORS
330
19
102
}
330
19
100
AcDbDictionary
281
     1
  0
DICTIONARY
  5
10B
102
{ACAD_REACTORS
330
19
102
}
330
19
100
AcDbDictionary
281
     1
  3
Layout1
350
10E
  3
Model
350
10D
  0
DICTIONARY
  5
173
102
{ACAD_REACTORS
330
19
102
}
330
19
100
AcDbDictionary
281
     1
  0
DICTIONARY
  5
1B
102
{ACAD_REACTORS
330
19
102
}
330
19
100
AcDbDictionary
281
     1
  3
STANDARD
350
1C
  0
DICTIONARY
  5
10C
102
{ACAD_REACTORS
330
19
102
}
330
19
100
AcDbDictionary
281
     1
  0
ACDBDICTIONARYWDFLT
  5
109
102
{ACAD_REACTORS
330
19
102
}
330
19
100
AcDbDictionary
281
     1
  3
Normal
350
10A
100
AcDbDictionaryWithDefault
340
10A
  0
DICTIONARY
  5
175
102
{ACAD_REACTORS
330
19
102
}
330
19
100
AcDbDictionary
281
     1
  3
Standard
350
176
  0
DICTIONARY
  5
160
102
{ACAD_REACTORS
330
19
102
}
330
19
100
AcDbDictionary
281
     1
  3
CTABLESTYLE
350
29C
  3
DIMASSOC
350
161
  0
DICTIONARY
  5
23B
102
{ACAD_REACTORS
330
19
102
}
330
19
100
AcDbDictionary
281
     1
  3
AcmBOMDATA
350
23C
  3
AcmStdDictionary
350
247
  3
AMDTSECTSYM_ARROWCOLOR
350
266
  0
DICTIONARY
  5
17B
102
{ACAD_REACTORS
330
19
102
}
330
19
100
AcDbDictionary
281
     1
  3
AcMgSettings
350
17C
  3
AMGLAYCFG
350
249
  0
DICTIONARY
  5
29D
102
{ACAD_REACTORS
330
19
102
}
330
19
100
AcDbDictionary
281
     1
  3
DIMENSION
350
2A2
  3
FEA
350
2A1
  3
HATCH (1)
350
29E
  3
HATCH (2)
350
29F
  3
SIMPLE WELD
350
2A3
  3
SYMBOLS
350
2A0
  0
DICTIONARY
  5
112
102
{ACAD_REACTORS
330
19
102
}
330
19
100
AcDbDictionary
281
     1
  3
ASEBlockHierarchyIndexRecord
350
114
1001
DCO15
1040
1538456326.886
  0
DICTIONARY
  5
2D1
102
{ACAD_REACTORS
330
2A6
102
}
330
2A6
100
AcDbDictionary
281
     1
  0
DICTIONARY
  5
2D0
102
{ACAD_REACTORS
330
2A6
102
}
330
2A6
100
AcDbDictionary
281
     1
1001
ACAD
1000
<All
  0
DICTIONARY
  5
291
102
{ACAD_REACTORS
330
290
102
}
330
290
100
AcDbDictionary
281
     1
  3
*A1
350
292
  0
LAYOUT
  5
10E
102
{ACAD_REACTORS
330
10B
102
}
330
10B
100
AcDbPlotSettings
  1

  2
HP LaserJet 1100
  4

  6

 40
0.0
 41
0.0
 42
0.0
 43
0.0
 44
0.0
 45
0.0
 46
0.0
 47
0.0
 48
0.0
 49
0.0
140
0.0
141
0.0
142
1.0
143
1.0
 70
   688
 72
     0
 73
     0
 74
     5
  7

 75
    16
147
1.0
 76
     0
 77
     2
 78
   300
148
0.0
149
0.0
100
AcDbLayout
  1
Layout1
 70
     0
 71
     1
 10
0.0
 20
0.0
 11
12.0
 21
9.0
 12
0.0
 22
0.0
 32
0.0
 14
1.000000000000000E+20
 24
1.000000000000000E+20
 34
1.000000000000000E+20
 15
-1.000000000000000E+20
 25
-1.000000000000000E+20
 35
-1.000000000000000E+20
146
0.0
 13
0.0
 23
0.0
 33
0.0
 16
1.0
 26
0.0
 36
0.0
 17
0.0
 27
1.0
 37
0.0
 76
     0
330
B
  0
LAYOUT
  5
10D
102
{ACAD_REACTORS
330
10B
102
}
330
10B
100
AcDbPlotSettings
  1

  2
HP LaserJet 4V
  4
Letter
  6

 40
5.873749732971191
 41
10.95374488830566
 42
10.53041076660156
 43
13.49374389648437
 44
215.8999938964844
 45
279.3999938964844
 46
1.27
 47
0.0
 48
0.025
 49
0.0249999999999999
140
0.825
141
1.074999999999999
142
1.0
143
0.1095990714623912
 70
 11956
 72
     0
 73
     0
 74
     1
  7

 75
     0
147
9.124164891699367
 76
     0
 77
     2
 78
   300
148
0.0006194102457507
149
0.0012786534006944
100
AcDbLayout
  1
Model
 70
     1
 71
     0
 10
0.0
 20
0.0
 11
12.0
 21
9.0
 12
0.0
 22
0.0
 32
0.0
 14
0.0
 24
0.0
 34
0.0
 15
0.0
 25
0.0
 35
0.0
146
0.0
 13
0.0
 23
0.0
 33
0.0
 16
1.0
 26
0.0
 36
0.0
 17
0.0
 27
1.0
 37
0.0
 76
     0
330
A
  0
MLINESTYLE
  5
1C
102
{ACAD_REACTORS
330
1B
102
}
330
1B
100
AcDbMlineStyle
  2
STANDARD
 70
     0
  3

 62
     0
 51
90.00000000000019
 52
90.00000000000019
 71
     2
 49
0.5
 62
   256
  6
BYLAYER
 49
-0.5
 62
   256
  6
BYLAYER
  0
ACDBPLACEHOLDER
  5
10A
102
{ACAD_REACTORS
330
109
102
}
330
109
  0
TABLESTYLE
  5
176
102
{ACAD_REACTORS
330
175
102
}
330
175
100
AcDbTableStyle
  3
Standard
 70
     0
 71
     0
 40
0.06
 41
0.06
280
     0
281
     0
  7
STANDARD
140
0.18
170
     2
 62
     0
 63
     7
283
     0
274
    -2
284
     1
 64
     0
275
    -2
285
     1
 65
     0
276
    -2
286
     1
 66
     0
277
    -2
287
     1
 67
     0
278
    -2
288
     1
 68
     0
279
    -2
289
     1
 69
     0
  7
STANDARD
140
0.25
170
     5
 62
     0
 63
     7
283
     0
274
    -2
284
     1
 64
     0
275
    -2
285
     1
 65
     0
276
    -2
286
     1
 66
     0
277
    -2
287
     1
 67
     0
278
    -2
288
     1
 68
     0
279
    -2
289
     1
 69
     0
  7
STANDARD
140
0.18
170
     5
 62
     0
 63
     7
283
     0
274
    -2
284
     1
 64
     0
275
    -2
285
     1
 65
     0
276
    -2
286
     1
 66
     0
277
    -2
287
     1
 67
     0
278
    -2
288
     1
 68
     0
279
    -2
289
     1
 69
     0
  0
DICTIONARYVAR
  5
29C
102
{ACAD_REACTORS
330
160
102
}
330
160
100
DictionaryVariables
280
     0
  1
STANDARD
  0
DICTIONARYVAR
  5
161
102
{ACAD_REACTORS
330
160
102
}
330
160
100
DictionaryVariables
280
     0
  1
1
  0
ACMDATADICTIONARY
  5
23C
102
{ACAD_REACTORS
330
23B
102
}
330
23B
100
AcDbDictionary
281
     1
  3
*A1
350
23D
100
AcmDataDictionary
  0
DICTIONARY
  5
247
102
{ACAD_REACTORS
330
23B
102
}
330
23B
100
AcDbDictionary
281
     1
  3
ANSI
350
248
  0
XRECORD
  5
266
102
{ACAD_REACTORS
330
23B
102
}
330
23B
100
AcDbXrecord
280
     1
 90
-1023410169
  0
DICTIONARY
  5
17C
102
{ACAD_REACTORS
330
17B
102
}
330
17B
100
AcDbDictionary
281
     1
  3
DWGSETTINGS
350
17D
  3
TRANSSETTINGS
350
181
  0
ACAMGFILTERDAT
  5
2A2
102
{ACAD_REACTORS
330
29D
102
}
330
29D
100
AcAmgFilterDat
 70
    15
  1
DIMENSION,AMDT_*_DIM
  2
*
  3
*
  4
*
  5
*
290
     1
  0
ACAMGFILTERDAT
  5
2A1
102
{ACAD_REACTORS
330
29D
102
}
330
29D
100
AcAmgFilterDat
 70
    15
  1
*
  2
AM_FEA-AM_*
  3
*
  4
*
  5
*
290
     1
  0
ACAMGFILTERDAT
  5
29E
102
{ACAD_REACTORS
330
29D
102
}
330
29D
100
AcAmgFilterDat
 70
    15
  1
HATCH
  2
*
  3
*
  4
*
  5
*
290
     1
  0
ACAMGFILTERDAT
  5
29F
102
{ACAD_REACTORS
330
29D
102
}
330
29D
100
AcAmgFilterDat
 70
    15
  1
LINE
  2
8,8N,*-8,*-8N,AM_8,AM_8N,*-AM_8,*-AM_8N
  3
*
  4
*
  5
INSERT,STDPART2D
290
     1
  0
ACAMGFILTERDAT
  5
2A3
102
{ACAD_REACTORS
330
29D
102
}
330
29D
100
AcAmgFilterDat
 70
    15
  1
ARC
  2
AM_5
  3
*
  4
2
  5
INSERT
290
     0
  0
ACAMGFILTERDAT
  5
2A0
102
{ACAD_REACTORS
330
29D
102
}
330
29D
100
AcAmgFilterDat
 70
    15
  1
ACMFCFRAME,ACMDATUMTARGET,ACMDATUMID,ACMWELDSYM,ACMSURFSYM,ACMFEATID,ACMPARTREF,ACMBALLOON,AMDTEDGESYM,AMGSCREWCALCTABLE
  2
*
  3
*
  4
*
  5
*
290
     1
  0
XRECORD
  5
114
102
{ACAD_REACTORS
330
112
102
}
330
112
100
AcDbXrecord
280
     1
  0
LAYER_INDEX
  5
292
102
{ACAD_REACTORS
330
291
102
}
330
291
100
AcDbIndex
 40
2453626.396920799
100
AcDbLayerIndex
  8
0
360
293
 90
        0
  8
DIMENSIONS
360
298
 90
        7
  8
DEFPOINTS
360
299
 90
        0
  8
PRODUCT
360
29A
 90
       26
  0
ACMDATAENTRYBLOCK
  5
23D
102
{ACAD_REACTORS
330
23C
102
}
330
23C
100
AcmDataEntry
100
AcmDataEntryBlock
  0
IDBUFFER
  5
293
330
0
100
AcDbIdBuffer
  0
IDBUFFER
  5
298
330
0
100
AcDbIdBuffer
330
3E
330
4F
330
5E
330
86
330
95
330
A4
330
B4
  0
IDBUFFER
  5
299
330
0
100
AcDbIdBuffer
  0
IDBUFFER
  5
29A
330
0
100
AcDbIdBuffer
330
7A
330
7B
330
7C
330
7D
330
7E
330
7F
330
80
330
81
330
82
330
B0
330
6A
330
6B
330
6C
330
6D
330
6E
330
6F
330
70
330
71
330
72
330
73
330
74
330
75
330
76
330
77
330
78
330
79
  0
ENDSEC
  0
EOF
