  0
SECTION
  2
HEADER
  9
$ACADVER
  1
AC1018
  9
$ACADMAINTVER
 70
    76
  9
$DWGCODEPAGE
  3
ANSI_1252
  9
$CUSTOMPROPERTYTAG
  1
AmdtFileType
  9
$CUSTOMPROPERTY
  1
84
  9
$INSBASE
 10
0.0
 20
0.0
 30
0.0
  9
$EXTMIN
 10
0.0
 20
0.0
 30
0.0
  9
$EXTMAX
 10
0.85
 20
1.1
 30
0.0
  9
$LIMMIN
 10
0.0
 20
0.0
  9
$LIMMAX
 10
0.0
 20
0.0
  9
$ORTHOMODE
 70
     0
  9
$REGENMODE
 70
     1
  9
$FILLMODE
 70
     1
  9
$QTEXTMODE
 70
     0
  9
$MIRRTEXT
 70
     1
  9
$LTSCALE
 40
1.0
  9
$ATTMODE
 70
     1
  9
$TEXTSIZE
 40
0.0
  9
$TRACEWID
 40
0.05
  9
$TEXTSTYLE
  7
STANDARD
  9
$CLAYER
  8
DIMENSIONS
  9
$CELTYPE
  6
CONTINUOUS
  9
$CECOLOR
 62
     1
  9
$CELTSCALE
 40
1.0
  9
$DISPSILH
 70
     0
  9
$DIMSCALE
 40
1.0
  9
$DIMASZ
 40
0.18
  9
$DIMEXO
 40
0.0625
  9
$DIMDLI
 40
0.38
  9
$DIMRND
 40
0.0
  9
$DIMDLE
 40
0.0
  9
$DIMEXE
 40
0.25
  9
$DIMTP
 40
0.004
  9
$DIMTM
 40
0.004
  9
$DIMTXT
 40
0.0125
  9
$DIMCEN
 40
0.09
  9
$DIMTSZ
 40
0.0
  9
$DIMTOL
 70
     0
  9
$DIMLIM
 70
     0
  9
$DIMTIH
 70
     1
  9
$DIMTOH
 70
     1
  9
$DIMSE1
 70
     0
  9
$DIMSE2
 70
     0
  9
$DIMTAD
 70
     0
  9
$DIMZIN
 70
     0
  9
$DIMBLK
  1

  9
$DIMASO
 70
     1
  9
$DIMSHO
 70
     1
  9
$DIMPOST
  1

  9
$DIMAPOST
  1

  9
$DIMALT
 70
     0
  9
$DIMALTD
 70
     2
  9
$DIMALTF
 40
25.4
  9
$DIMLFAC
 40
1.0
  9
$DIMTOFL
 70
     0
  9
$DIMTVP
 40
0.0
  9
$DIMTIX
 70
     0
  9
$DIMSOXD
 70
     0
  9
$DIMSAH
 70
     0
  9
$DIMBLK1
  1

  9
$DIMBLK2
  1

  9
$DIMSTYLE
  2
STANDARD
  9
$DIMCLRD
 70
     0
  9
$DIMCLRE
 70
     0
  9
$DIMCLRT
 70
     1
  9
$DIMTFAC
 40
1.0
  9
$DIMGAP
 40
0.09
  9
$DIMJUST
 70
     0
  9
$DIMSD1
 70
     0
  9
$DIMSD2
 70
     0
  9
$DIMTOLJ
 70
     1
  9
$DIMTZIN
 70
     0
  9
$DIMALTZ
 70
     0
  9
$DIMALTTZ
 70
     0
  9
$DIMUPT
 70
     0
  9
$DIMDEC
 70
     4
  9
$DIMTDEC
 70
     4
  9
$DIMALTU
 70
     2
  9
$DIMALTTD
 70
     2
  9
$DIMTXSTY
  7
STANDARD
  9
$DIMAUNIT
 70
     0
  9
$DIMADEC
 70
     0
  9
$DIMALTRND
 40
0.0
  9
$DIMAZIN
 70
     0
  9
$DIMDSEP
 70
    46
  9
$DIMATFIT
 70
     3
  9
$DIMFRAC
 70
     0
  9
$DIMLDRBLK
  1

  9
$DIMLUNIT
 70
     2
  9
$DIMLWD
 70
    -2
  9
$DIMLWE
 70
    -2
  9
$DIMTMOVE
 70
     0
  9
$LUNITS
 70
     2
  9
$LUPREC
 70
    10
  9
$SKETCHINC
 40
0.1
  9
$FILLETRAD
 40
0.0
  9
$AUNITS
 70
     0
  9
$AUPREC
 70
     0
  9
$MENU
  1
acad
  9
$ELEVATION
 40
0.0
  9
$PELEVATION
 40
0.0
  9
$THICKNESS
 40
0.0
  9
$LIMCHECK
 70
     0
  9
$CHAMFERA
 40
0.0
  9
$CHAMFERB
 40
0.0
  9
$CHAMFERC
 40
0.0
  9
$CHAMFERD
 40
0.0
  9
$SKPOLY
 70
     0
  9
$TDCREATE
 40
2444971.833333334
  9
$TDUCREATE
 40
2444972.000000000
  9
$TDUPDATE
 40
2453626.403431910
  9
$TDUUPDATE
 40
2453626.570098577
  9
$TDINDWG
 40
0.0459563310
  9
$TDUSRTIMER
 40
0.0459563310
  9
$USRTIMER
 70
     1
  9
$ANGBASE
 50
0.0
  9
$ANGDIR
 70
     0
  9
$PDMODE
 70
     2
  9
$PDSIZE
 40
0.0
  9
$PLINEWID
 40
0.0
  9
$SPLFRAME
 70
     0
  9
$SPLINETYPE
 70
     6
  9
$SPLINESEGS
 70
     8
  9
$HANDSEED
  5
3BB
  9
$SURFTAB1
 70
     6
  9
$SURFTAB2
 70
     6
  9
$SURFTYPE
 70
     6
  9
$SURFU
 70
     6
  9
$SURFV
 70
     6
  9
$UCSBASE
  2

  9
$UCSNAME
  2

  9
$UCSORG
 10
0.0
 20
0.0
 30
0.0
  9
$UCSXDIR
 10
1.0
 20
0.0
 30
0.0
  9
$UCSYDIR
 10
0.0
 20
1.0
 30
0.0
  9
$UCSORTHOREF
  2

  9
$UCSORTHOVIEW
 70
     0
  9
$UCSORGTOP
 10
0.0
 20
0.0
 30
0.0
  9
$UCSORGBOTTOM
 10
0.0
 20
0.0
 30
0.0
  9
$UCSORGLEFT
 10
0.0
 20
0.0
 30
0.0
  9
$UCSORGRIGHT
 10
0.0
 20
0.0
 30
0.0
  9
$UCSORGFRONT
 10
0.0
 20
0.0
 30
0.0
  9
$UCSORGBACK
 10
0.0
 20
0.0
 30
0.0
  9
$PUCSBASE
  2

  9
$PUCSNAME
  2

  9
$PUCSORG
 10
0.0
 20
0.0
 30
0.0
  9
$PUCSXDIR
 10
1.0
 20
0.0
 30
0.0
  9
$PUCSYDIR
 10
0.0
 20
1.0
 30
0.0
  9
$PUCSORTHOREF
  2

  9
$PUCSORTHOVIEW
 70
     0
  9
$PUCSORGTOP
 10
0.0
 20
0.0
 30
0.0
  9
$PUCSORGBOTTOM
 10
0.0
 20
0.0
 30
0.0
  9
$PUCSORGLEFT
 10
0.0
 20
0.0
 30
0.0
  9
$PUCSORGRIGHT
 10
0.0
 20
0.0
 30
0.0
  9
$PUCSORGFRONT
 10
0.0
 20
0.0
 30
0.0
  9
$PUCSORGBACK
 10
0.0
 20
0.0
 30
0.0
  9
$USERI1
 70
     0
  9
$USERI2
 70
     0
  9
$USERI3
 70
     0
  9
$USERI4
 70
     0
  9
$USERI5
 70
     0
  9
$USERR1
 40
0.0
  9
$USERR2
 40
0.0
  9
$USERR3
 40
0.0
  9
$USERR4
 40
0.0
  9
$USERR5
 40
0.0
  9
$WORLDVIEW
 70
     1
  9
$SHADEDGE
 70
     3
  9
$SHADEDIF
 70
    70
  9
$TILEMODE
 70
     1
  9
$MAXACTVP
 70
    16
  9
$PINSBASE
 10
0.0
 20
0.0
 30
0.0
  9
$PLIMCHECK
 70
     0
  9
$PEXTMIN
 10
1.000000000000000E+20
 20
1.000000000000000E+20
 30
1.000000000000000E+20
  9
$PEXTMAX
 10
-1.000000000000000E+20
 20
-1.000000000000000E+20
 30
-1.000000000000000E+20
  9
$PLIMMIN
 10
0.0
 20
0.0
  9
$PLIMMAX
 10
12.0
 20
9.0
  9
$UNITMODE
 70
     0
  9
$VISRETAIN
 70
     0
  9
$PLINEGEN
 70
     1
  9
$PSLTSCALE
 70
     0
  9
$TREEDEPTH
 70
  3020
  9
$CMLSTYLE
  2
STANDARD
  9
$CMLJUST
 70
     0
  9
$CMLSCALE
 40
1.0
  9
$PROXYGRAPHICS
 70
     1
  9
$MEASUREMENT
 70
     0
  9
$CELWEIGHT
370
    -1
  9
$ENDCAPS
280
     0
  9
$JOINSTYLE
280
     0
  9
$LWDISPLAY
290
     0
  9
$INSUNITS
 70
     0
  9
$HYPERLINKBASE
  1

  9
$STYLESHEET
  1

  9
$XEDIT
290
     1
  9
$CEPSNTYPE
380
     0
  9
$PSTYLEMODE
290
     1
  9
$FINGERPRINTGUID
  2
{14EBA3A4-6357-11D6-8A02-00902758FDDF}
  9
$VERSIONGUID
  2
{EDDB5CA6-9F95-432C-A002-1196E6FDD3C4}
  9
$EXTNAMES
290
     1
  9
$PSVPSCALE
 40
0.0
  9
$OLESTARTUP
290
     0
  9
$SORTENTS
280
   127
  9
$INDEXCTL
280
     1
  9
$HIDETEXT
280
     0
  9
$XCLIPFRAME
290
     0
  9
$HALOGAP
280
     0
  9
$OBSCOLOR
 70
   257
  9
$OBSLTYPE
280
     0
  9
$INTERSECTIONDISPLAY
280
     0
  9
$INTERSECTIONCOLOR
 70
   257
  9
$DIMASSOC
280
     1
  9
$PROJECTNAME
  1

  0
ENDSEC
  0
SECTION
  2
CLASSES
  0
CLASS
  1
IMAGE
  2
AcDbRasterImage
  3
ISM
 90
      127
 91
        0
280
     0
281
     1
  0
CLASS
  1
DICTIONARYVAR
  2
AcDbDictionaryVar
  3
ObjectDBX Classes
 90
        0
 91
        2
280
     0
281
     0
  0
CLASS
  1
RASTERVARIABLES
  2
AcDbRasterVariables
  3
ISM
 90
        0
 91
        0
280
     0
281
     0
  0
CLASS
  1
IMAGEDEF
  2
AcDbRasterImageDef
  3
ISM
 90
        0
 91
        0
280
     0
281
     0
  0
CLASS
  1
IMAGEDEF_REACTOR
  2
AcDbRasterImageDefReactor
  3
ISM
 90
        1
 91
        0
280
     0
281
     0
  0
CLASS
  1
IDBUFFER
  2
AcDbIdBuffer
  3
ObjectDBX Classes
 90
        0
 91
        5
280
     0
281
     0
  0
CLASS
  1
SPATIAL_FILTER
  2
AcDbSpatialFilter
  3
ObjectDBX Classes
 90
        0
 91
        0
280
     0
281
     0
  0
CLASS
  1
SORTENTSTABLE
  2
AcDbSortentsTable
  3
ObjectDBX Classes
 90
        0
 91
        0
280
     0
281
     0
  0
CLASS
  1
LAYER_INDEX
  2
AcDbLayerIndex
  3
ObjectDBX Classes
 90
        0
 91
        1
280
     0
281
     0
  0
CLASS
  1
SPATIAL_INDEX
  2
AcDbSpatialIndex
  3
ObjectDBX Classes
 90
        0
 91
        0
280
     0
281
     0
  0
CLASS
  1
OBJECT_PTR
  2
CAseDLPNTableRecord
  3
ASE-LPNTableRecord
 90
        1
 91
        0
280
     0
281
     0
  0
CLASS
  1
ACDBDICTIONARYWDFLT
  2
AcDbDictionaryWithDefault
  3
ObjectDBX Classes
 90
        0
 91
        1
280
     0
281
     0
  0
CLASS
  1
TABLESTYLE
  2
AcDbTableStyle
  3
ObjectDBX Classes
 90
     2047
 91
        1
280
     0
281
     0
  0
CLASS
  1
ACME_DOCUMENT
  2
AcMeDbDoc
  3
AcMeServices
 90
        0
 91
        2
280
     0
281
     0
  0
CLASS
  1
AMGSETTINGSOBJ
  2
AmgSettingsObj
  3
"AcadM|Product Description: AutoCAD Mechanical 2000|Company: Autodesk"
 90
        0
 91
        2
280
     0
281
     0
  0
CLASS
  1
ACMESCOPE
  2
AcMeScope
  3
AcMeServices
 90
        0
 91
        1
280
     0
281
     0
  0
CLASS
  1
ACMECOMMANDHISTORY
  2
AcMeCommandHistory
  3
AcMeServices
 90
        0
 91
        1
280
     0
281
     0
  0
CLASS
  1
ACIMSYSVARMAN
  2
AcImSysVarManager
  3
AcMeServices
 90
        0
 91
        6
280
     0
281
     0
  0
CLASS
  1
ACIMREALSYSVAR
  2
AcImRealSysVar
  3
AcMeServices
 90
        0
 91
       16
280
     0
281
     0
  0
CLASS
  1
ACIMINTSYSVAR
  2
AcImIntSysVar
  3
AcMeServices
 90
        0
 91
       45
280
     0
281
     0
  0
CLASS
  1
ACMEDRAWINGMAN
  2
AcMeDrawingMan
  3
AcMeServices
 90
        0
 91
        1
280
     0
281
     0
  0
CLASS
  1
ACMEVIEW
  2
AcMeView
  3
AcMeServices
 90
        0
 91
        1
280
     0
281
     0
  0
CLASS
  1
ACDBENTITYCACHE
  2
AcMeEntityCache
  3
AcMeServices
 90
        0
 91
        1
280
     0
281
     0
  0
CLASS
  1
GSMANAGER
  2
AcMeGSManager
  3
AcMeServices
 90
        0
 91
        1
280
     0
281
     0
  0
CLASS
  1
AMDTINTERNALREACTOR
  2
AmdtInternalReactor
  3
AcMeServices
 90
        0
 91
        2
280
     0
281
     0
  0
CLASS
  1
ACMESTATEMGR
  2
AcMeStateMgr
  3
AcMeServices
 90
        0
 91
        1
280
     0
281
     0
  0
CLASS
  1
ACGREFMASTER
  2
AcGrefMaster
  3
AcAttribServices
 90
        0
 91
        1
280
     0
281
     0
  0
CLASS
  1
AM_DRAWING_MGR
  2
AcDmDwgMgr
  3
AcMechDwgViewMgmt
 90
        0
 91
        1
280
     0
281
     0
  0
CLASS
  1
AM_DWG_DOCUMENT
  2
AcDmDwgDocument
  3
AcMechDwgViewMgmt
 90
        0
 91
        1
280
     0
281
     0
  0
CLASS
  1
AM_DWG_SHEET
  2
AcDmSheet
  3
AcMechDwgViewMgmt
 90
        0
 91
        1
280
     0
281
     0
  0
CLASS
  1
AM_VIEWDIMPARMAP
  2
AcDmViewDimParMap
  3
AcMechDwgViewMgmt
 90
        0
 91
        1
280
     0
281
     0
  0
CLASS
  1
AM_DWGMGR_NAME
  2
AcDmDwgMgrName
  3
AcMechDwgViewMgmt
 90
        0
 91
        1
280
     0
281
     0
  0
CLASS
  1
ACME_DATABASE
  2
AcMeDbDatabase
  3
AcMeServices
 90
        0
 91
        1
280
     0
281
     0
  0
CLASS
  1
ACRFINSADJUSTERMGR
  2
AcRfInsAdjusterMgr
  3
AcMeServices
 90
        0
 91
        1
280
     0
281
     0
  0
CLASS
  1
ACGREFACADMASTER
  2
AcGrefacadMaster
  3
AcGrefServices
 90
        0
 91
        1
280
     0
281
     0
  0
CLASS
  1
AMDTMENUSTATEMGR
  2
AmdtMenuStateMgr
  3
McadcomServices
 90
        0
 91
        1
280
     0
281
     0
  0
CLASS
  1
AMDTMCOMMENUSTATE
  2
AmdtMcomMenuState
  3
McadcomServices
 90
        0
 91
        1
280
     0
281
     0
  0
CLASS
  1
AMIMASTER
  2
AmiMaster
  3
AmiServices
 90
        0
 91
        1
280
     0
281
     0
  0
CLASS
  1
ASAPP
  2
AcAsAppObject
  3
AutoSurfServices
 90
        0
 91
        1
280
     0
281
     0
  0
CLASS
  1
IM_STATIC_MAN
  2
AcImStaticVarManager
  3
AcMeServices
 90
        0
 91
        1
280
     0
281
     0
  0
CLASS
  1
ACIMSTRSYSVAR
  2
AcImStrSysVar
  3
AcMeServices
 90
        0
 91
       11
280
     0
281
     0
  0
CLASS
  1
ACIMDBLSTATICVAR
  2
AcImDblStaticVar
  3
AcMeServices
 90
        0
 91
       20
280
     0
281
     0
  0
CLASS
  1
ACIMSTRSTATICVAR
  2
AcImStrStaticVar
  3
AcMeServices
 90
        0
 91
       12
280
     0
281
     0
  0
CLASS
  1
ACIMINTSTATICVAR
  2
AcImIntStaticVar
  3
AcMeServices
 90
        0
 91
       17
280
     0
281
     0
  0
CLASS
  1
ACASGREFMASTER
  2
AcAsGrefMaster
  3
AutoSurfResolverServices
 90
        0
 91
        1
280
     0
281
     0
  0
CLASS
  1
ACADGREFMODULE
  2
AcAdGrefModule
  3
AdGrefServices
 90
        0
 91
        1
280
     0
281
     0
  0
CLASS
  1
AMDTMAPISURFMOUDULE
  2
AmdtMApiSurfModule
  3
MApiSurfServices
 90
        0
 91
        1
280
     0
281
     0
  0
CLASS
  1
MAPIAMMOUDLE
  2
MApiAmModule
  3
MApiAmServices
 90
        0
 91
        1
280
     0
281
     0
  0
CLASS
  1
AMDTADMENUSTATE
  2
AmdtAdMenuState
  3
DesignerServices
 90
        0
 91
        1
280
     0
281
     0
  0
CLASS
  1
ADAPPL
  2
AcAdAppl
  3
DesignerServices
 90
        0
 91
        1
280
     0
281
     0
  0
CLASS
  1
DEPMGR
  2
AcAdDepMgr
  3
DesignerServices
 90
        0
 91
        1
280
     0
281
     0
  0
CLASS
  1
PARAMMGR
  2
AcAdParamMgr
  3
DesignerServices
 90
        0
 91
        1
280
     0
281
     0
  0
CLASS
  1
PARAMSCOPE
  2
AcAdParamScope
  3
DesignerServices
 90
        0
 91
        1
280
     0
281
     0
  0
CLASS
  1
NAMEDAPPL
  2
AcAdNamedAppl
  3
DesignerServices
 90
        0
 91
        1
280
     0
281
     0
  0
CLASS
  1
AMDTDMMENUSTATE
  2
AmdtDmMenuState
  3
AcMechDwgViewMgmt
 90
        0
 91
        1
280
     0
281
     0
  0
CLASS
  1
MAPIADMODULE
  2
MApiAdModule
  3
MApiAdServices
 90
        0
 91
        1
280
     0
281
     0
  0
CLASS
  1
AMDTAMMENUSTATE
  2
AmdtAmMenuState
  3
DesignerAssemblies
 90
        0
 91
        1
280
     0
281
     0
  0
CLASS
  1
ACAMPROJECT
  2
AcAmProject
  3
DesignerAssemblies
 90
        0
 91
        1
280
     0
281
     0
  0
CLASS
  1
ACAMGRCOMPDEF
  2
AcAmGrCompDef
  3
DesignerAssemblies
 90
        0
 91
        1
280
     0
281
     0
  0
CLASS
  1
ACCMCONTEXT
  2
AcCmContext
  3
DesignerAssemblies
 90
        0
 91
        1
280
     0
281
     0
  0
CLASS
  1
ACAMCOMPDEF
  2
AcAmCompDef
  3
DesignerAssemblies
 90
        0
 91
        1
280
     0
281
     0
  0
CLASS
  1
ACAMCOMPDEFMGR
  2
AcAmCompDefMgr
  3
DesignerAssemblies
 90
        0
 91
        1
280
     0
281
     0
  0
CLASS
  1
AMCONTEXTMGR
  2
AcAmContextMgr
  3
DesignerAssemblies
 90
        0
 91
        1
280
     0
281
     0
  0
CLASS
  1
ACAMCONTEXTMODELER
  2
AcAmContextModeler
  3
DesignerAssemblies
 90
        0
 91
        1
280
     0
281
     0
  0
CLASS
  1
ACMDATADICTIONARY
  2
AcmDataDictionary
  3
"AcmSymBB|Product Description: AutoCAD Mechanical 2004 DX|Company: Autodesk"
 90
        0
 91
        1
280
     0
281
     0
  0
CLASS
  1
ACMDATAENTRYBLOCK
  2
AcmDataEntryBlock
  3
"AcmSymBB|Product Description: AutoCAD Mechanical 2004 DX|Company: Autodesk"
 90
        0
 91
        1
280
     0
281
     0
  0
CLASS
  1
CATALOGSTATE
  2
AcAmCatalogState
  3
DesignerAssemblies
 90
        0
 91
        1
280
     0
281
     0
  0
CLASS
  1
ACAMGRCOMPDEFSET
  2
AcAmGrCompDefSet
  3
DesignerAssemblies
 90
        0
 91
        1
280
     0
281
     0
  0
CLASS
  1
AMDTBROWSERDBTAB
  2
AmdtBrowserDbTab
  3
McadcomServices
 90
        0
 91
        1
280
     0
281
     0
  0
CLASS
  1
CBROWSERAPPOBJECT
  2
CBrowserAppObject
  3
McadcomServices
 90
        0
 91
        3
280
     0
281
     0
  0
CLASS
  1
DM_PLACEHOLDER
  2
AcDmSelsetPlaceholder
  3
AcMechDwgViewMgmt
 90
        0
 91
        1
280
     0
281
     0
  0
CLASS
  1
ACMSTANDARDANSI
  2
AcmStandardANSI
  3
"Amdt_StdImp|Product Description: AutoCAD Mechanical 2004 DX|Company: Autodesk"
 90
        0
 91
        1
280
     0
281
     0
  0
CLASS
  1
AMGOBJPROPCFG
  2
AmgObjPropCfg
  3
"AmgLay|Product Description: AutoCAD Mechanical 2000|Company: Autodesk"
 90
        1
 91
        1
280
     0
281
     0
  0
CLASS
  1
ACMSURFSTANDARDANSI
  2
AcmSurfTextStdANSI
  3
"Amdt_StdImp|Product Description: AutoCAD Mechanical 2004 DX|Company: Autodesk"
 90
        0
 91
        1
280
     0
281
     0
  0
CLASS
  1
ACMFCFSTANDARDANSI
  2
AcmFCFStdANSI
  3
"Amdt_StdImp|Product Description: AutoCAD Mechanical 2004 DX|Company: Autodesk"
 90
        0
 91
        1
280
     0
281
     0
  0
CLASS
  1
ACMWELDSTANDARDANSI
  2
AcmWeldingStdANSI
  3
"Amdt_StdImp|Product Description: AutoCAD Mechanical 2004 DX|Company: Autodesk"
 90
        0
 91
        1
280
     0
281
     0
  0
CLASS
  1
ACMIDSTANDARDANSI
  2
AcmIdStdANSI
  3
"Amdt_StdImp|Product Description: AutoCAD Mechanical 2004 DX|Company: Autodesk"
 90
        0
 91
        1
280
     0
281
     0
  0
CLASS
  1
ACMDATUMSTANDARDANSI
  2
AcmDatumStdANSI
  3
"Amdt_StdImp|Product Description: AutoCAD Mechanical 2004 DX|Company: Autodesk"
 90
        0
 91
        1
280
     0
281
     0
  0
CLASS
  1
ACMBOMSTANDARDANSI
  2
AcmBOMStdANSI
  3
"Amdt_StdImp|Product Description: AutoCAD Mechanical 2004 DX|Company: Autodesk"
 90
        0
 91
        1
280
     0
281
     0
  0
CLASS
  1
ACMDETAILSTANDARDANSI
  2
AmdtDetailSymStdANSI
  3
"Amdt_StdImp|Product Description: AutoCAD Mechanical 2004 DX|Company: Autodesk"
 90
        0
 91
        1
280
     0
281
     0
  0
CLASS
  1
ACMSECTIONSTANDARDANSI
  2
AmdtSectionSymStdANSI
  3
"Amdt_StdImp|Product Description: AutoCAD Mechanical 2004 DX|Company: Autodesk"
 90
        0
 91
        1
280
     0
281
     0
  0
CLASS
  1
ACMCENTERLINESTANDARDANSI
  2
AmdtCenterLineStdANSI
  3
"Amdt_StdImp|Product Description: AutoCAD Mechanical 2004 DX|Company: Autodesk"
 90
        0
 91
        1
280
     0
281
     0
  0
CLASS
  1
ACMTHREADLINESTANDARDANSI
  2
AmdtThreadLineStdANSI
  3
"Amdt_StdImp|Product Description: AutoCAD Mechanical 2004 DX|Company: Autodesk"
 90
        0
 91
        1
280
     0
281
     0
  0
CLASS
  1
ACMNOTESTANDARDANSI
  2
AmdtNoteStdANSI
  3
"Amdt_StdImp|Product Description: AutoCAD Mechanical 2004 DX|Company: Autodesk"
 90
        0
 91
        1
280
     0
281
     0
  0
CLASS
  1
AMDTNOTETEMPLATEDB
  2
AmdtNoteTemplateDB
  3
AMDT_STDIMP_MODULE_NAME
 90
        0
 91
        6
280
     0
281
     0
  0
CLASS
  1
ACAMGLAYSTD
  2
AcAmgLayStd
  3
"AcAmgLayStd|Product Description: AutoCAD Mechanical 2000|Company: Autodesk"
 90
        0
 91
        1
280
     0
281
     0
  0
CLASS
  1
ACAMGDIMSTD
  2
AcAmgDimStd
  3
"AcAmgDimStd|Product Description: AutoCAD Mechanical 2000|Company: Autodesk"
 90
        0
 91
        1
280
     0
281
     0
  0
CLASS
  1
ACAMGHOLECHARTSTDANSI
  2
AcAmgHoleChartStdANSI
  3
ACMSYMBB_MODULE_NAME
 90
        0
 91
        1
280
     0
281
     0
  0
CLASS
  1
ACAMGTITLESTD
  2
AcAmgTitleStd
  3
"TITLEAPP"
 90
        0
 91
        1
280
     0
281
     0
  0
CLASS
  1
ACAMGFILTERDAT
  2
AcAmgFilterDat
  3
"AcadM|Product Description: AutoCAD Mechanical 2000|Company: Autodesk"
 90
        0
 91
        6
280
     0
281
     0
  0
CLASS
  1
EXACXREFPANELOBJECT
  2
ExAcXREFPanelObject
  3
EXAC_ESW
 90
        0
 91
        1
280
     0
281
     0
  0
ENDSEC
  0
SECTION
  2
TABLES
  0
TABLE
  2
VPORT
  5
7
330
0
100
AcDbSymbolTable
 70
     6
  0
VPORT
  5
3BA
330
7
100
AcDbSymbolTableRecord
100
AcDbViewportTableRecord
  2
*Active
 70
     0
 10
0.0
 20
0.0
 11
1.0
 21
1.0
 12
0.2038921828388678
 22
-0.0170247356072233
 13
0.0
 23
0.0
 14
1.0
 24
1.0
 15
0.0
 25
0.0
 16
0.0
 26
0.0
 36
1.0
 17
0.4250410362648533
 27
0.6571572147388001
 37
0.0
 40
1.123015523803046
 41
1.435540069686411
 42
50.0
 43
0.0
 44
0.0
 50
0.0
 51
0.0
 71
     0
 72
   100
 73
     1
 74
     1
 75
     0
 76
     0
 77
     0
 78
     0
281
     0
 65
     0
110
0.0
120
0.0
130
0.0
111
1.0
121
0.0
131
0.0
112
0.0
122
1.0
132
0.0
 79
     0
146
0.0
  0
ENDTAB
  0
TABLE
  2
LTYPE
  5
4
330
0
100
AcDbSymbolTable
 70
    20
  0
LTYPE
  5
11
330
4
100
AcDbSymbolTableRecord
100
AcDbLinetypeTableRecord
  2
BYBLOCK
 70
     0
  3

 72
    65
 73
     0
 40
0.0
  0
LTYPE
  5
12
330
4
100
AcDbSymbolTableRecord
100
AcDbLinetypeTableRecord
  2
BYLAYER
 70
     0
  3

 72
    65
 73
     0
 40
0.0
  0
LTYPE
  5
13
330
4
100
AcDbSymbolTableRecord
100
AcDbLinetypeTableRecord
  2
CONTINUOUS
 70
     0
  3
Solid line
 72
    65
 73
     0
 40
0.0
  0
LTYPE
  5
1D
330
4
100
AcDbSymbolTableRecord
100
AcDbLinetypeTableRecord
  2
DASHED
 70
     0
  3
_ _ _ _ _ _ _ _ _ _ _ _ _ _ _ _
 72
    65
 73
     2
 40
0.2
 49
0.1
 74
     0
 49
-0.1
 74
     0
  0
LTYPE
  5
1E
330
4
100
AcDbSymbolTableRecord
100
AcDbLinetypeTableRecord
  2
CENTER
 70
     0
  3
___ _ ___ _ ___ _ ___ _ ___ _ ___ _ ___ _ ___ _
 72
    65
 73
     4
 40
0.95
 49
0.625
 74
     0
 49
-0.125
 74
     0
 49
0.075
 74
     0
 49
-0.125
 74
     0
  0
LTYPE
  5
1F
330
4
100
AcDbSymbolTableRecord
100
AcDbLinetypeTableRecord
  2
PHANTOM
 70
     0
  3
______  __  __  ______  __  __  ______  __  __  
 72
    65
 73
     6
 40
1.024999999999999
 49
0.625
 74
     0
 49
-0.125
 74
     0
 49
0.075
 74
     0
 49
-0.125
 74
     0
 49
0.075
 74
     0
 49
-0.125
 74
     0
  0
LTYPE
  5
192
330
4
100
AcDbSymbolTableRecord
100
AcDbLinetypeTableRecord
  2
HIDDEN
 70
     0
  3
Hidden __ __ __ __ __ __ __ __ __ __ __ __ __ _
 72
    65
 73
     2
 40
0.375
 49
0.25
 74
     0
 49
-0.125
 74
     0
  0
LTYPE
  5
193
330
4
100
AcDbSymbolTableRecord
100
AcDbLinetypeTableRecord
  2
PHANTOM2
 70
     0
  3
Phantom (.5x) ___ _ _ ___ _ _ ___ _ _ ___ _ _
 72
    65
 73
     6
 40
1.25
 49
0.625
 74
     0
 49
-0.125
 74
     0
 49
0.125
 74
     0
 49
-0.125
 74
     0
 49
0.125
 74
     0
 49
-0.125
 74
     0
  0
LTYPE
  5
1E2
330
4
100
AcDbSymbolTableRecord
100
AcDbLinetypeTableRecord
  2
ASULTYPE
 70
     0
  3
Solid line
 72
    65
 73
     2
 40
3.0
 49
2.5
 74
     0
 49
0.5
 74
     0
  0
LTYPE
  5
1E3
330
4
100
AcDbSymbolTableRecord
100
AcDbLinetypeTableRecord
  2
ASVLTYPE
 70
     0
  3
__ __ __ __ __ __ __ __ __ __ __ __ __ __ __ __ __ __ __ __ __
 72
    65
 73
     2
 40
0.75
 49
0.5
 74
     0
 49
-0.25
 74
     0
  0
LTYPE
  5
22A
330
4
100
AcDbSymbolTableRecord
100
AcDbLinetypeTableRecord
  2
AM_ISO02W050
 70
     0
  3
__ __ __ __ __ __ __ __ __ __ __ __ __ __ __
 72
    65
 73
     2
 40
7.5
 49
6.0
 74
     0
 49
-1.5
 74
     0
  0
LTYPE
  5
22B
330
4
100
AcDbSymbolTableRecord
100
AcDbLinetypeTableRecord
  2
AM_ISO08W050
 70
     0
  3
____ . ____ . ____ . ____ . ____ . ____ . ____
 72
    65
 73
     4
 40
18.0
 49
12.0
 74
     0
 49
-1.5
 74
     0
 49
3.0
 74
     0
 49
-1.5
 74
     0
  0
LTYPE
  5
22C
330
4
100
AcDbSymbolTableRecord
100
AcDbLinetypeTableRecord
  2
AM_ISO09W050
 70
     0
  3
_____ . . _____ . . _____ . . ____ .. ____
 72
    65
 73
     6
 40
22.5
 49
12.0
 74
     0
 49
-1.5
 74
     0
 49
3.0
 74
     0
 49
-1.5
 74
     0
 49
3.0
 74
     0
 49
-1.5
 74
     0
  0
LTYPE
  5
22D
330
4
100
AcDbSymbolTableRecord
100
AcDbLinetypeTableRecord
  2
Amconstr
 70
     0
  3
_______________________
 72
    65
 73
     2
 40
9999.0
 49
9999.0
 74
     0
 49
0.0
 74
     0
  0
LTYPE
  5
22E
330
4
100
AcDbSymbolTableRecord
100
AcDbLinetypeTableRecord
  2
AM_ISO08W050x2
 70
     0
  3
__ . __ . __ . __ . __ . __
 72
    65
 73
     4
 40
9.0
 49
6.0
 74
     0
 49
-0.75
 74
     0
 49
1.5
 74
     0
 49
-0.75
 74
     0
  0
LTYPE
  5
22F
330
4
100
AcDbSymbolTableRecord
100
AcDbLinetypeTableRecord
  2
AM_ISO02W050x2
 70
     0
  3
 _ _ _ _ _ _ _ _ _ _ _ _
 72
    65
 73
     2
 40
3.75
 49
3.0
 74
     0
 49
-0.75
 74
     0
  0
LTYPE
  5
232
330
4
100
AcDbSymbolTableRecord
100
AcDbLinetypeTableRecord
  2
Amzigzag
 70
     0
  3
/\/-/\/-/\/-/\/-/\/-/\/
 72
    65
 73
     2
 40
11.0001
 49
0.0001
 74
     4
 75
   136
340
231
 46
0.04
 50
0.0
 44
0.0
 45
0.0
 49
-11.0
 74
     0
  0
LTYPE
  5
233
330
4
100
AcDbSymbolTableRecord
100
AcDbLinetypeTableRecord
  2
CENTER2
 70
     0
  3
Center (.5x) ___ _ ___ _ ___ _ ___ _ ___ _ ___
 72
    65
 73
     4
 40
1.125
 49
0.75
 74
     0
 49
-0.125
 74
     0
 49
0.125
 74
     0
 49
-0.125
 74
     0
  0
LTYPE
  5
234
330
4
100
AcDbSymbolTableRecord
100
AcDbLinetypeTableRecord
  2
HIDDEN2
 70
     0
  3
Hidden (.5x) _ _ _ _ _ _ _ _ _ _ _ _ _ _ _ _ _
 72
    65
 73
     2
 40
0.1875
 49
0.125
 74
     0
 49
-0.0625
 74
     0
  0
LTYPE
  5
235
330
4
100
AcDbSymbolTableRecord
100
AcDbLinetypeTableRecord
  2
Amzigzag2
 70
     0
  3
/\/-/\/-/\/-/\/-/\/-/\/
 72
    65
 73
     2
 40
0.4401
 49
0.0001
 74
     4
 75
   136
340
231
 46
0.0016
 50
0.0
 44
0.0
 45
0.0
 49
-0.4400000000000001
 74
     0
  0
LTYPE
  5
243
330
4
100
AcDbSymbolTableRecord
100
AcDbLinetypeTableRecord
  2
ACANSTGB
 70
     0
  3
__ . . __ . .
 72
    65
 73
     6
 40
0.35433070866
 49
0.15748031496
 74
     0
 49
-0.03937007874
 74
     0
 49
0.03937007874
 74
     0
 49
-0.03937007874
 74
     0
 49
0.03937007874
 74
     0
 49
-0.03937007874
 74
     0
  0
LTYPE
  5
244
330
4
100
AcDbSymbolTableRecord
100
AcDbLinetypeTableRecord
  2
ACANSTGL
 70
     0
  3
_ _ _ _ _
 72
    65
 73
     2
 40
0.11811023622
 49
0.07874015748
 74
     0
 49
-0.03937007874
 74
     0
  0
ENDTAB
  0
TABLE
  2
LAYER
  5
2
102
{ACAD_XDICTIONARY
360
28D
102
}
330
0
100
AcDbSymbolTable
 70
     5
  0
LAYER
  5
14
330
2
100
AcDbSymbolTableRecord
100
AcDbLayerTableRecord
  2
0
 70
     0
 62
     7
  6
CONTINUOUS
370
    -3
390
F4
  0
LAYER
  5
25
330
2
100
AcDbSymbolTableRecord
100
AcDbLayerTableRecord
  2
DIMENSIONS
 70
     0
 62
     7
  6
CONTINUOUS
370
    -3
390
F4
  0
LAYER
  5
2D
330
2
100
AcDbSymbolTableRecord
100
AcDbLayerTableRecord
  2
DEFPOINTS
 70
     0
 62
     7
  6
CONTINUOUS
290
     0
370
    -3
390
F4
  0
LAYER
  5
28B
330
2
100
AcDbSymbolTableRecord
100
AcDbLayerTableRecord
  2
PRODUCT
 70
     0
 62
     7
  6
CONTINUOUS
370
    -3
390
F4
1001
AcAecLayerStandard
1000

1000

  0
ENDTAB
  0
TABLE
  2
STYLE
  5
3
330
0
100
AcDbSymbolTable
 70
     4
  0
STYLE
  5
17
330
3
100
AcDbSymbolTableRecord
100
AcDbTextStyleTableRecord
  2
STANDARD
 70
     0
 40
0.0
 41
1.0
 50
0.0
 71
     0
 42
0.0
  3
txt
  4

  0
STYLE
  5
231
330
3
100
AcDbSymbolTableRecord
100
AcDbTextStyleTableRecord
  2

 70
     1
 40
0.0
 41
1.0
 50
0.0
 71
     0
 42
0.0125
  3
genltshp.shx
  4

  0
STYLE
  5
236
330
3
100
AcDbSymbolTableRecord
100
AcDbTextStyleTableRecord
  2
ACANSTS
 70
     0
 40
1.0
 41
1.0
 50
0.0
 71
     0
 42
0.0125
  3
romans.shx
  4

  0
STYLE
  5
242
330
3
100
AcDbSymbolTableRecord
100
AcDbTextStyleTableRecord
  2
ACANSGDT
 70
     0
 40
0.0
 41
1.0
 50
0.0
 71
     0
 42
0.0125
  3
AMGDT
  4

  0
ENDTAB
  0
TABLE
  2
VIEW
  5
5
330
0
100
AcDbSymbolTable
 70
     0
  0
ENDTAB
  0
TABLE
  2
UCS
  5
6
330
0
100
AcDbSymbolTable
 70
     1
  0
UCS
  5
20
330
6
100
AcDbSymbolTableRecord
100
AcDbUCSTableRecord
  2
CK_VIEW_1
 70
     0
 10
0.0
 20
0.0
 30
1.0
 11
1.0
 21
0.0
 31
0.0
 12
0.0
 22
1.0
 32
0.0
 79
     0
146
0.0
  0
ENDTAB
  0
TABLE
  2
APPID
  5
8
330
0
100
AcDbSymbolTable
 70
    17
  0
APPID
  5
16
330
8
100
AcDbSymbolTableRecord
100
AcDbRegAppTableRecord
  2
ACAD
 70
     0
  0
APPID
  5
FD
330
8
100
AcDbSymbolTableRecord
100
AcDbRegAppTableRecord
  2
DCO15
 70
     0
  0
APPID
  5
15E
330
8
100
AcDbSymbolTableRecord
100
AcDbRegAppTableRecord
  2
GENIUS_GENDIM_13
 70
     0
  0
APPID
  5
15F
330
8
100
AcDbSymbolTableRecord
100
AcDbRegAppTableRecord
  2
GENIUS_GENDTOL_13
 70
     0
  0
APPID
  5
160
330
8
100
AcDbSymbolTableRecord
100
AcDbRegAppTableRecord
  2
GENIUS_GE3DTOL_13
 70
     0
  0
APPID
  5
163
330
8
100
AcDbSymbolTableRecord
100
AcDbRegAppTableRecord
  2
MCAD_NO_VIS
 70
     0
  0
APPID
  5
164
330
8
100
AcDbSymbolTableRecord
100
AcDbRegAppTableRecord
  2
ACAD_TEMP_GRAPHIC
 70
     0
  0
APPID
  5
195
330
8
100
AcDbSymbolTableRecord
100
AcDbRegAppTableRecord
  2
AD_DRAW
 70
     0
  0
APPID
  5
198
330
8
100
AcDbSymbolTableRecord
100
AcDbRegAppTableRecord
  2
ACATTRIBSERVICES
 70
     0
  0
APPID
  5
1E4
330
8
100
AcDbSymbolTableRecord
100
AcDbRegAppTableRecord
  2
ASURF_PCURVE_APPNAME
 70
     0
  0
APPID
  5
1E9
330
8
100
AcDbSymbolTableRecord
100
AcDbRegAppTableRecord
  2
AMG_3D2D_5.0
 70
     0
  0
APPID
  5
21A
330
8
100
AcDbSymbolTableRecord
100
AcDbRegAppTableRecord
  2
DESIGNERASSEMBLIES
 70
     0
  0
APPID
  5
221
330
8
100
AcDbSymbolTableRecord
100
AcDbRegAppTableRecord
  2
ACADM_DIM_EDIT
 70
     0
  0
APPID
  5
222
330
8
100
AcDbSymbolTableRecord
100
AcDbRegAppTableRecord
  2
AMDT_DM_ADJ
 70
     0
  0
APPID
  5
250
330
8
100
AcDbSymbolTableRecord
100
AcDbRegAppTableRecord
  2
ACAD_DSTYLE_DIMARC_LENGTH_SYMBOL
 70
     0
  0
APPID
  5
251
330
8
100
AcDbSymbolTableRecord
100
AcDbRegAppTableRecord
  2
ACAD_DSTYLE_DIMJOGGED_JOGANGLE_SYMBOL
 70
     0
  0
APPID
  5
28C
330
8
100
AcDbSymbolTableRecord
100
AcDbRegAppTableRecord
  2
AcAecLayerStandard
 70
     0
  0
ENDTAB
  0
TABLE
  2
DIMSTYLE
  5
9
330
0
100
AcDbSymbolTable
 70
    14
100
AcDbDimStyleTable
 71
     0
  0
DIMSTYLE
105
18
330
9
100
AcDbSymbolTableRecord
100
AcDbDimStyleTableRecord
  2
STANDARD
 70
     0
289
     0
340
17
  0
DIMSTYLE
105
29
102
{ACAD_REACTORS
330
2C
102
}
330
9
100
AcDbSymbolTableRecord
100
AcDbDimStyleTableRecord
  2
DIMSTYLE1
 70
     0
 41
0.0125
 44
0.0125
140
0.0125
289
     0
340
17
  0
DIMSTYLE
105
40
102
{ACAD_REACTORS
330
43
102
}
330
9
100
AcDbSymbolTableRecord
100
AcDbDimStyleTableRecord
  2
DIMSTYLE2
 70
     0
 41
0.0125
 44
0.0125
140
0.0125
289
     0
340
17
  0
DIMSTYLE
105
50
102
{ACAD_REACTORS
330
53
102
}
330
9
100
AcDbSymbolTableRecord
100
AcDbDimStyleTableRecord
  2
DIMSTYLE3
 70
     0
 41
0.0125
 44
0.0125
140
0.0125
289
     0
340
17
  0
DIMSTYLE
105
B0
102
{ACAD_REACTORS
330
B3
102
}
330
9
100
AcDbSymbolTableRecord
100
AcDbDimStyleTableRecord
  2
DIMSTYLE4
 70
     0
 41
0.0125
 44
0.0125
140
0.0125
289
     0
340
17
  0
DIMSTYLE
105
BF
102
{ACAD_REACTORS
330
C2
102
}
330
9
100
AcDbSymbolTableRecord
100
AcDbDimStyleTableRecord
  2
DIMSTYLE5
 70
     0
 41
0.0125
 44
0.0125
140
0.0125
289
     0
340
17
  0
DIMSTYLE
105
CE
102
{ACAD_REACTORS
330
D1
102
}
330
9
100
AcDbSymbolTableRecord
100
AcDbDimStyleTableRecord
  2
DIMSTYLE6
 70
     0
 41
0.0125
 44
0.0125
140
0.0125
289
     0
340
17
  0
DIMSTYLE
105
DD
102
{ACAD_REACTORS
330
E0
102
}
330
9
100
AcDbSymbolTableRecord
100
AcDbDimStyleTableRecord
  2
DIMSTYLE7
 70
     0
 41
0.0125
 44
0.0125
140
0.0125
289
     0
340
17
  0
DIMSTYLE
105
24F
330
9
100
AcDbSymbolTableRecord
100
AcDbDimStyleTableRecord
  2
AM_ANSI
 70
     0
  4
mm
 41
0.1
 42
0.05
 43
0.5
 44
0.1
 47
0.1
 48
0.1
 78
     7
 79
     2
140
0.12
141
0.0
146
0.71
147
0.06
176
   256
177
   256
178
     2
274
     4
284
     7
340
17
371
    -1
372
    -1
1001
ACAD_DSTYLE_DIMARC_LENGTH_SYMBOL
1070
   379
1070
     1
1001
ACAD_DSTYLE_DIMJOGGED_JOGANGLE_SYMBOL
1070
   384
1040
0.7853981633974483
  0
DIMSTYLE
105
258
330
9
100
AcDbSymbolTableRecord
100
AcDbDimStyleTableRecord
  2
AM_ANSI$3
 70
     0
  4
mm
 41
0.1
 42
0.05
 43
0.5
 44
0.1
 47
0.1
 48
0.1
 78
     7
 79
     2
140
0.12
141
0.0
146
0.71
147
0.06
176
   256
177
   256
178
     2
274
     4
284
     7
288
     1
289
     0
340
17
371
    -1
372
    -1
1001
ACAD_DSTYLE_DIMARC_LENGTH_SYMBOL
1070
   379
1070
     1
1001
ACAD_DSTYLE_DIMJOGGED_JOGANGLE_SYMBOL
1070
   384
1040
0.7853981633974483
  0
DIMSTYLE
105
25B
330
9
100
AcDbSymbolTableRecord
100
AcDbDimStyleTableRecord
  2
AM_ANSI$4
 70
     0
  4
mm
 41
0.1
 42
0.05
 43
0.5
 44
0.1
 47
0.1
 48
0.1
 78
     7
 79
     2
140
0.12
141
0.0
146
0.71
147
0.06
176
   256
177
   256
178
     2
274
     4
284
     7
288
     1
289
     0
340
17
371
    -1
372
    -1
1001
ACAD_DSTYLE_DIMARC_LENGTH_SYMBOL
1070
   379
1070
     1
1001
ACAD_DSTYLE_DIMJOGGED_JOGANGLE_SYMBOL
1070
   384
1040
0.7853981633974483
  0
DIMSTYLE
105
260
330
9
100
AcDbSymbolTableRecord
100
AcDbDimStyleTableRecord
  2
AM_ANSI$7
 70
     0
  4
mm
 41
0.1
 42
0.05
 43
0.5
 44
0.1
 47
0.1
 48
0.1
 78
     7
 79
     2
140
0.24
141
0.0
146
0.71
147
0.06
176
   256
177
   256
178
     2
274
     4
284
     7
340
17
371
    -1
372
    -1
1001
ACAD_DSTYLE_DIMARC_LENGTH_SYMBOL
1070
   379
1070
     1
1001
ACAD_DSTYLE_DIMJOGGED_JOGANGLE_SYMBOL
1070
   384
1040
0.7853981633974483
  0
DIMSTYLE
105
263
330
9
100
AcDbSymbolTableRecord
100
AcDbDimStyleTableRecord
  2
AM_ANSI$SF
 70
     0
  4
mm
 41
0.1
 42
0.05
 43
0.5
 44
0.1
 47
0.1
 48
0.1
 75
     1
 76
     1
 78
     7
 79
     2
140
0.12
141
0.0
146
0.71
147
0.06
176
   256
177
   256
178
     2
274
     4
284
     7
340
17
371
    -1
372
    -1
1001
ACAD_DSTYLE_DIMARC_LENGTH_SYMBOL
1070
   379
1070
     1
1001
ACAD_DSTYLE_DIMJOGGED_JOGANGLE_SYMBOL
1070
   384
1040
0.7853981633974483
  0
DIMSTYLE
105
26A
330
9
100
AcDbSymbolTableRecord
100
AcDbDimStyleTableRecord
  2
AM_ANSI$SH
 70
     0
  4
mm
 41
0.1
 42
0.05
 43
0.5
 44
0.1
 47
0.1
 48
0.1
 75
     1
 76
     1
 78
     7
 79
     2
140
0.12
141
0.0
146
0.71
147
0.06
173
     1
176
   256
177
   256
178
     2
274
     4
284
     7
340
17
343
264
371
    -1
372
    -1
1001
ACAD_DSTYLE_DIMARC_LENGTH_SYMBOL
1070
   379
1070
     1
1001
ACAD_DSTYLE_DIMJOGGED_JOGANGLE_SYMBOL
1070
   384
1040
0.7853981633974483
  0
ENDTAB
  0
TABLE
  2
BLOCK_RECORD
  5
1
330
0
100
AcDbSymbolTable
 70
     9
  0
BLOCK_RECORD
  5
A
102
{ACAD_XDICTIONARY
360
277
102
}
330
1
100
AcDbSymbolTableRecord
100
AcDbBlockTableRecord
  2
*MODEL_SPACE
340
F7
  0
BLOCK_RECORD
  5
B
330
1
100
AcDbSymbolTableRecord
100
AcDbBlockTableRecord
  2
*PAPER_SPACE
340
F8
  0
BLOCK_RECORD
  5
2A
330
1
100
AcDbSymbolTableRecord
100
AcDbBlockTableRecord
  2
*D0
340
0
  0
BLOCK_RECORD
  5
41
330
1
100
AcDbSymbolTableRecord
100
AcDbBlockTableRecord
  2
*D1
340
0
  0
BLOCK_RECORD
  5
51
330
1
100
AcDbSymbolTableRecord
100
AcDbBlockTableRecord
  2
*D2
340
0
  0
BLOCK_RECORD
  5
B1
330
1
100
AcDbSymbolTableRecord
100
AcDbBlockTableRecord
  2
*D3
340
0
  0
BLOCK_RECORD
  5
C0
330
1
100
AcDbSymbolTableRecord
100
AcDbBlockTableRecord
  2
*D4
340
0
  0
BLOCK_RECORD
  5
CF
330
1
100
AcDbSymbolTableRecord
100
AcDbBlockTableRecord
  2
*D5
340
0
  0
BLOCK_RECORD
  5
DE
330
1
100
AcDbSymbolTableRecord
100
AcDbBlockTableRecord
  2
*D6
340
0
  0
BLOCK_RECORD
  5
211
330
1
100
AcDbSymbolTableRecord
100
AcDbBlockTableRecord
  2
*U7
340
0
  0
BLOCK_RECORD
  5
264
330
1
100
AcDbSymbolTableRecord
100
AcDbBlockTableRecord
  2
GENAXEH
340
0
  0
ENDTAB
  0
ENDSEC
  0
SECTION
  2
BLOCKS
  0
BLOCK
  5
D
330
A
100
AcDbEntity
  8
0
100
AcDbBlockBegin
  2
*MODEL_SPACE
 70
     0
 10
0.0
 20
0.0
 30
0.0
  3
*MODEL_SPACE
  1

  0
ENDBLK
  5
E
330
A
100
AcDbEntity
  8
0
100
AcDbBlockEnd
  0
BLOCK
  5
F
330
B
100
AcDbEntity
 67
     1
  8
0
100
AcDbBlockBegin
  2
*PAPER_SPACE
 70
     0
 10
0.0
 20
0.0
 30
0.0
  3
*PAPER_SPACE
  1

  0
ENDBLK
  5
10
330
B
100
AcDbEntity
 67
     1
  8
0
100
AcDbBlockEnd
  0
BLOCK
  5
2B
330
2A
100
AcDbEntity
  8
0
100
AcDbBlockBegin
  2
*D0
 70
     1
 10
0.0
 20
0.0
 30
0.0
  3
*D0
  1

  0
LINE
  5
377
330
2A
100
AcDbEntity
  8
DIMENSIONS
  6
Continuous
 62
     0
370
    -2
100
AcDbLine
 10
0.4793369958437428
 20
0.2643161987087992
 30
0.0
 11
0.4793369958437428
 21
0.2451449145349334
 31
0.0
  0
LINE
  5
378
330
2A
100
AcDbEntity
  8
DIMENSIONS
  6
Continuous
 62
     0
370
    -2
100
AcDbLine
 10
0.4043369958437429
 20
0.2643161987087992
 30
0.0
 11
0.4043369958437429
 21
0.2451449145349334
 31
0.0
  0
LINE
  5
379
330
2A
100
AcDbEntity
  8
DIMENSIONS
  6
Continuous
 62
     0
370
    -2
100
AcDbLine
 10
0.4918369958437429
 20
0.2576449145349334
 30
0.0
 11
0.5043369958437429
 21
0.2576449145349334
 31
0.0
  0
LINE
  5
37A
330
2A
100
AcDbEntity
  8
DIMENSIONS
  6
Continuous
 62
     0
370
    -2
100
AcDbLine
 10
0.3918369958437428
 20
0.2576449145349334
 30
0.0
 11
0.3793369958437429
 21
0.2576449145349334
 31
0.0
  0
SOLID
  5
37B
330
2A
100
AcDbEntity
  8
DIMENSIONS
  6
Continuous
 62
     0
100
AcDbTrace
 10
0.4918369958437429
 20
0.2597282478682667
 30
0.0
 11
0.4918369958437429
 21
0.2555615812016001
 31
0.0
 12
0.4793369958437428
 22
0.2576449145349334
 32
0.0
 13
0.4793369958437428
 23
0.2576449145349334
 33
0.0
  0
SOLID
  5
37C
330
2A
100
AcDbEntity
  8
DIMENSIONS
  6
Continuous
 62
     0
100
AcDbTrace
 10
0.3918369958437428
 20
0.2597282478682667
 30
0.0
 11
0.3918369958437428
 21
0.2555615812016001
 31
0.0
 12
0.4043369958437429
 22
0.2576449145349334
 32
0.0
 13
0.4043369958437429
 23
0.2576449145349334
 33
0.0
  0
MTEXT
  5
37D
330
2A
100
AcDbEntity
  8
DIMENSIONS
  6
Continuous
 62
     0
100
AcDbMText
 10
0.3422119958437428
 20
0.2576449145349334
 30
0.0
 40
0.0125
 41
0.0
 71
     5
 72
     1
  1
\A1;0.0750
 73
     1
 44
1.0
  0
POINT
  5
37E
330
2A
100
AcDbEntity
  8
DEFPOINTS
  6
Continuous
 62
     0
100
AcDbPoint
 10
0.4793369958437428
 20
0.3268161987087992
 30
0.0
  0
POINT
  5
37F
330
2A
100
AcDbEntity
  8
DEFPOINTS
  6
Continuous
 62
     0
100
AcDbPoint
 10
0.4043369958437429
 20
0.3268161987087992
 30
0.0
  0
POINT
  5
380
330
2A
100
AcDbEntity
  8
DEFPOINTS
  6
Continuous
 62
     0
100
AcDbPoint
 10
0.4043369958437429
 20
0.2576449145349334
 30
0.0
  0
ENDBLK
  5
39
330
2A
100
AcDbEntity
  8
0
100
AcDbBlockEnd
  0
BLOCK
  5
42
330
41
100
AcDbEntity
  8
0
100
AcDbBlockBegin
  2
*D1
 70
     1
 10
0.0
 20
0.0
 30
0.0
  3
*D1
  1

  0
LINE
  5
3AA
330
41
100
AcDbEntity
  8
DIMENSIONS
  6
Continuous
 62
     0
370
    -2
100
AcDbLine
 10
0.5878369958437419
 20
0.3268161987087992
 30
0.0
 11
0.6972839506627024
 21
0.3268161987087991
 31
0.0
  0
LINE
  5
3AB
330
41
100
AcDbEntity
  8
DIMENSIONS
  6
Continuous
 62
     0
370
    -2
100
AcDbLine
 10
0.5878369958437419
 20
0.296816198708799
 30
0.0
 11
0.6972839506627024
 21
0.296816198708799
 31
0.0
  0
LINE
  5
3AC
330
41
100
AcDbEntity
  8
DIMENSIONS
  6
Continuous
 62
     0
370
    -2
100
AcDbLine
 10
0.6847839506627024
 20
0.3393161987087991
 30
0.0
 11
0.6847839506627024
 21
0.3518161987087991
 31
0.0
  0
LINE
  5
3AD
330
41
100
AcDbEntity
  8
DIMENSIONS
  6
Continuous
 62
     0
370
    -2
100
AcDbLine
 10
0.6847839506627024
 20
0.284316198708799
 30
0.0
 11
0.6847839506627024
 21
0.271816198708799
 31
0.0
  0
LINE
  5
3AE
330
41
100
AcDbEntity
  8
DIMENSIONS
  6
Continuous
 62
     0
370
    -2
100
AcDbLine
 10
0.6847839506627024
 20
0.271816198708799
 30
0.0
 11
0.6722839506627025
 21
0.271816198708799
 31
0.0
  0
SOLID
  5
3AF
330
41
100
AcDbEntity
  8
DIMENSIONS
  6
Continuous
 62
     0
100
AcDbTrace
 10
0.6827006173293691
 20
0.3393161987087991
 30
0.0
 11
0.6868672839960358
 21
0.3393161987087991
 31
0.0
 12
0.6847839506627024
 22
0.3268161987087991
 32
0.0
 13
0.6847839506627024
 23
0.3268161987087991
 33
0.0
  0
SOLID
  5
3B0
330
41
100
AcDbEntity
  8
DIMENSIONS
  6
Continuous
 62
     0
100
AcDbTrace
 10
0.6827006173293691
 20
0.284316198708799
 30
0.0
 11
0.6868672839960358
 21
0.284316198708799
 31
0.0
 12
0.6847839506627024
 22
0.296816198708799
 32
0.0
 13
0.6847839506627024
 23
0.296816198708799
 33
0.0
  0
MTEXT
  5
3B1
330
41
100
AcDbEntity
  8
DIMENSIONS
  6
Continuous
 62
     0
100
AcDbMText
 10
0.636200617329369
 20
0.2718161987087991
 30
0.0
 40
0.0125
 41
0.0
 71
     5
 72
     1
  1
\A1;0.0300
 73
     1
 44
1.0
  0
POINT
  5
3B2
330
41
100
AcDbEntity
  8
DEFPOINTS
  6
Continuous
 62
     0
100
AcDbPoint
 10
0.5253369958437419
 20
0.3268161987087992
 30
0.0
  0
POINT
  5
3B3
330
41
100
AcDbEntity
  8
DEFPOINTS
  6
Continuous
 62
     0
100
AcDbPoint
 10
0.5253369958437419
 20
0.296816198708799
 30
0.0
  0
POINT
  5
3B4
330
41
100
AcDbEntity
  8
DEFPOINTS
  6
Continuous
 62
     0
100
AcDbPoint
 10
0.6847839506627024
 20
0.296816198708799
 30
0.0
  0
ENDBLK
  5
4F
330
41
100
AcDbEntity
  8
0
100
AcDbBlockEnd
  0
BLOCK
  5
52
330
51
100
AcDbEntity
  8
0
100
AcDbBlockBegin
  2
*D2
 70
     1
 10
0.0
 20
0.0
 30
0.0
  3
*D2
  1

  0
LINE
  5
36D
330
51
100
AcDbEntity
  8
DIMENSIONS
  6
Continuous
 62
     0
370
    -2
100
AcDbLine
 10
0.3483369958437422
 20
0.2443161987087988
 30
0.0
 11
0.3483369958437422
 21
0.200186205367862
 31
0.0
  0
LINE
  5
36E
330
51
100
AcDbEntity
  8
DIMENSIONS
  6
Continuous
 62
     0
370
    -2
100
AcDbLine
 10
0.5353369958437435
 20
0.2443161987087988
 30
0.0
 11
0.5353369958437435
 21
0.200186205367862
 31
0.0
  0
LINE
  5
36F
330
51
100
AcDbEntity
  8
DIMENSIONS
  6
Continuous
 62
     0
370
    -2
100
AcDbLine
 10
0.3608369958437422
 20
0.212686205367862
 30
0.0
 11
0.4057536625104095
 21
0.212686205367862
 31
0.0
  0
LINE
  5
370
330
51
100
AcDbEntity
  8
DIMENSIONS
  6
Continuous
 62
     0
370
    -2
100
AcDbLine
 10
0.5228369958437435
 20
0.212686205367862
 30
0.0
 11
0.4779203291770762
 21
0.212686205367862
 31
0.0
  0
SOLID
  5
371
330
51
100
AcDbEntity
  8
DIMENSIONS
  6
Continuous
 62
     0
100
AcDbTrace
 10
0.3608369958437422
 20
0.2147695387011954
 30
0.0
 11
0.3608369958437422
 21
0.2106028720345287
 31
0.0
 12
0.3483369958437422
 22
0.212686205367862
 32
0.0
 13
0.3483369958437422
 23
0.212686205367862
 33
0.0
  0
SOLID
  5
372
330
51
100
AcDbEntity
  8
DIMENSIONS
  6
Continuous
 62
     0
100
AcDbTrace
 10
0.5228369958437435
 20
0.2147695387011954
 30
0.0
 11
0.5228369958437435
 21
0.2106028720345287
 31
0.0
 12
0.5353369958437435
 22
0.212686205367862
 32
0.0
 13
0.5353369958437435
 23
0.212686205367862
 33
0.0
  0
MTEXT
  5
373
330
51
100
AcDbEntity
  8
DIMENSIONS
  6
Continuous
 62
     0
100
AcDbMText
 10
0.4418369958437429
 20
0.212686205367862
 30
0.0
 40
0.0125
 41
0.0
 71
     5
 72
     1
  1
\A1;0.1870
 73
     1
 44
1.0
  0
POINT
  5
374
330
51
100
AcDbEntity
  8
DEFPOINTS
  6
Continuous
 62
     0
100
AcDbPoint
 10
0.3483369958437422
 20
0.3068161987087988
 30
0.0
  0
POINT
  5
375
330
51
100
AcDbEntity
  8
DEFPOINTS
  6
Continuous
 62
     0
100
AcDbPoint
 10
0.5353369958437435
 20
0.3068161987087988
 30
0.0
  0
POINT
  5
376
330
51
100
AcDbEntity
  8
DEFPOINTS
  6
Continuous
 62
     0
100
AcDbPoint
 10
0.5353369958437435
 20
0.212686205367862
 30
0.0
  0
ENDBLK
  5
5E
330
51
100
AcDbEntity
  8
0
100
AcDbBlockEnd
  0
BLOCK
  5
B2
330
B1
100
AcDbEntity
  8
0
100
AcDbBlockBegin
  2
*D3
 70
     1
 10
0.0
 20
0.0
 30
0.0
  3
*D3
  1

  0
LINE
  5
3A0
330
B1
100
AcDbEntity
  8
DIMENSIONS
  6
Continuous
 62
     0
370
    -2
100
AcDbLine
 10
0.5878369958437419
 20
0.296816198708799
 30
0.0
 11
0.778002404973868
 21
0.296816198708799
 31
0.0
  0
LINE
  5
3A1
330
B1
100
AcDbEntity
  8
DIMENSIONS
  6
Continuous
 62
     0
370
    -2
100
AcDbLine
 10
0.5318369958437428
 20
0.4168161987087991
 30
0.0
 11
0.778002404973868
 21
0.416816198708799
 31
0.0
  0
LINE
  5
3A2
330
B1
100
AcDbEntity
  8
DIMENSIONS
  6
Continuous
 62
     0
370
    -2
100
AcDbLine
 10
0.765502404973868
 20
0.309316198708799
 30
0.0
 11
0.765502404973868
 21
0.341566198708799
 31
0.0
  0
LINE
  5
3A3
330
B1
100
AcDbEntity
  8
DIMENSIONS
  6
Continuous
 62
     0
370
    -2
100
AcDbLine
 10
0.765502404973868
 20
0.404316198708799
 30
0.0
 11
0.765502404973868
 21
0.372066198708799
 31
0.0
  0
SOLID
  5
3A4
330
B1
100
AcDbEntity
  8
DIMENSIONS
  6
Continuous
 62
     0
100
AcDbTrace
 10
0.7634190716405347
 20
0.309316198708799
 30
0.0
 11
0.7675857383072014
 21
0.309316198708799
 31
0.0
 12
0.765502404973868
 22
0.296816198708799
 32
0.0
 13
0.765502404973868
 23
0.296816198708799
 33
0.0
  0
SOLID
  5
3A5
330
B1
100
AcDbEntity
  8
DIMENSIONS
  6
Continuous
 62
     0
100
AcDbTrace
 10
0.7634190716405347
 20
0.404316198708799
 30
0.0
 11
0.7675857383072014
 21
0.404316198708799
 31
0.0
 12
0.765502404973868
 22
0.416816198708799
 32
0.0
 13
0.765502404973868
 23
0.416816198708799
 33
0.0
  0
MTEXT
  5
3A6
330
B1
100
AcDbEntity
  8
DIMENSIONS
  6
Continuous
 62
     0
100
AcDbMText
 10
0.7655024049738679
 20
0.3568161987087991
 30
0.0
 40
0.0125
 41
0.0
 71
     5
 72
     1
  1
\A1;0.1200
 73
     1
 44
1.0
  0
POINT
  5
3A7
330
B1
100
AcDbEntity
  8
DEFPOINTS
  6
Continuous
 62
     0
100
AcDbPoint
 10
0.5253369958437419
 20
0.296816198708799
 30
0.0
  0
POINT
  5
3A8
330
B1
100
AcDbEntity
  8
DEFPOINTS
  6
Continuous
 62
     0
100
AcDbPoint
 10
0.4693369958437428
 20
0.4168161987087991
 30
0.0
  0
POINT
  5
3A9
330
B1
100
AcDbEntity
  8
DEFPOINTS
  6
Continuous
 62
     0
100
AcDbPoint
 10
0.765502404973868
 20
0.416816198708799
 30
0.0
  0
ENDBLK
  5
BE
330
B1
100
AcDbEntity
  8
0
100
AcDbBlockEnd
  0
BLOCK
  5
C1
330
C0
100
AcDbEntity
  8
0
100
AcDbBlockBegin
  2
*D4
 70
     1
 10
0.0
 20
0.0
 30
0.0
  3
*D4
  1

  0
LINE
  5
359
330
C0
100
AcDbEntity
  8
DIMENSIONS
  6
Continuous
 62
     0
370
    -2
100
AcDbLine
 10
0.1893369958437427
 20
0.731816198708799
 30
0.0
 11
0.1893369958437428
 21
0.9876593751586824
 31
0.0
  0
LINE
  5
35A
330
C0
100
AcDbEntity
  8
DIMENSIONS
  6
Continuous
 62
     0
370
    -2
100
AcDbLine
 10
0.6943369958437429
 20
0.7318161987087989
 30
0.0
 11
0.6943369958437429
 21
0.9876593751586824
 31
0.0
  0
LINE
  5
35B
330
C0
100
AcDbEntity
  8
DIMENSIONS
  6
Continuous
 62
     0
370
    -2
100
AcDbLine
 10
0.2018369958437428
 20
0.9751593751586824
 30
0.0
 11
0.4047119958437429
 21
0.9751593751586824
 31
0.0
  0
LINE
  5
35C
330
C0
100
AcDbEntity
  8
DIMENSIONS
  6
Continuous
 62
     0
370
    -2
100
AcDbLine
 10
0.681836995843743
 20
0.9751593751586824
 30
0.0
 11
0.4789619958437429
 21
0.9751593751586824
 31
0.0
  0
SOLID
  5
35D
330
C0
100
AcDbEntity
  8
DIMENSIONS
  6
Continuous
 62
     0
100
AcDbTrace
 10
0.2018369958437428
 20
0.9772427084920158
 30
0.0
 11
0.2018369958437428
 21
0.973076041825349
 31
0.0
 12
0.1893369958437428
 22
0.9751593751586824
 32
0.0
 13
0.1893369958437428
 23
0.9751593751586824
 33
0.0
  0
SOLID
  5
35E
330
C0
100
AcDbEntity
  8
DIMENSIONS
  6
Continuous
 62
     0
100
AcDbTrace
 10
0.681836995843743
 20
0.9772427084920158
 30
0.0
 11
0.681836995843743
 21
0.973076041825349
 31
0.0
 12
0.6943369958437429
 22
0.9751593751586824
 32
0.0
 13
0.6943369958437429
 23
0.9751593751586824
 33
0.0
  0
MTEXT
  5
35F
330
C0
100
AcDbEntity
  8
DIMENSIONS
  6
Continuous
 62
     0
100
AcDbMText
 10
0.4418369958437429
 20
0.9751593751586824
 30
0.0
 40
0.0125
 41
0.0
 71
     5
 72
     1
  1
\A1;0.5050
 73
     1
 44
1.0
  0
POINT
  5
360
330
C0
100
AcDbEntity
  8
DEFPOINTS
  6
Continuous
 62
     0
100
AcDbPoint
 10
0.1893369958437427
 20
0.669316198708799
 30
0.0
  0
POINT
  5
361
330
C0
100
AcDbEntity
  8
DEFPOINTS
  6
Continuous
 62
     0
100
AcDbPoint
 10
0.6943369958437429
 20
0.6693161987087989
 30
0.0
  0
POINT
  5
362
330
C0
100
AcDbEntity
  8
DEFPOINTS
  6
Continuous
 62
     0
100
AcDbPoint
 10
0.6943369958437429
 20
0.9751593751586824
 30
0.0
  0
ENDBLK
  5
CD
330
C0
100
AcDbEntity
  8
0
100
AcDbBlockEnd
  0
BLOCK
  5
D0
330
CF
100
AcDbEntity
  8
0
100
AcDbBlockBegin
  2
*D5
 70
     1
 10
0.0
 20
0.0
 30
0.0
  3
*D5
  1

  0
LINE
  5
363
330
CF
100
AcDbEntity
  8
DIMENSIONS
  6
Continuous
 62
     0
370
    -2
100
AcDbLine
 10
0.3793369958437428
 20
0.921816198708799
 30
0.0
 11
0.1172832806928336
 21
0.9218161987087992
 31
0.0
  0
LINE
  5
364
330
CF
100
AcDbEntity
  8
DIMENSIONS
  6
Continuous
 62
     0
370
    -2
100
AcDbLine
 10
0.2958369958437437
 20
0.296816198708799
 30
0.0
 11
0.1172832806928335
 21
0.2968161987087991
 31
0.0
  0
LINE
  5
365
330
CF
100
AcDbEntity
  8
DIMENSIONS
  6
Continuous
 62
     0
370
    -2
100
AcDbLine
 10
0.1297832806928336
 20
0.9093161987087992
 30
0.0
 11
0.1297832806928335
 21
0.6245661987087992
 31
0.0
  0
LINE
  5
366
330
CF
100
AcDbEntity
  8
DIMENSIONS
  6
Continuous
 62
     0
370
    -2
100
AcDbLine
 10
0.1297832806928334
 20
0.3093161987087991
 30
0.0
 11
0.1297832806928335
 21
0.5940661987087993
 31
0.0
  0
SOLID
  5
367
330
CF
100
AcDbEntity
  8
DIMENSIONS
  6
Continuous
 62
     0
100
AcDbTrace
 10
0.1276999473595003
 20
0.9093161987087992
 30
0.0
 11
0.1318666140261669
 21
0.9093161987087992
 31
0.0
 12
0.1297832806928336
 22
0.9218161987087992
 32
0.0
 13
0.1297832806928336
 23
0.9218161987087992
 33
0.0
  0
SOLID
  5
368
330
CF
100
AcDbEntity
  8
DIMENSIONS
  6
Continuous
 62
     0
100
AcDbTrace
 10
0.1276999473595001
 20
0.3093161987087991
 30
0.0
 11
0.1318666140261668
 21
0.3093161987087991
 31
0.0
 12
0.1297832806928334
 22
0.296816198708799
 32
0.0
 13
0.1297832806928334
 23
0.296816198708799
 33
0.0
  0
MTEXT
  5
369
330
CF
100
AcDbEntity
  8
DIMENSIONS
  6
Continuous
 62
     0
100
AcDbMText
 10
0.1297832806928334
 20
0.6093161987087992
 30
0.0
 40
0.0125
 41
0.0
 71
     5
 72
     1
  1
\A1;0.6250
 73
     1
 44
1.0
  0
POINT
  5
36A
330
CF
100
AcDbEntity
  8
DEFPOINTS
  6
Continuous
 62
     0
100
AcDbPoint
 10
0.4418369958437429
 20
0.921816198708799
 30
0.0
  0
POINT
  5
36B
330
CF
100
AcDbEntity
  8
DEFPOINTS
  6
Continuous
 62
     0
100
AcDbPoint
 10
0.3583369958437437
 20
0.296816198708799
 30
0.0
  0
POINT
  5
36C
330
CF
100
AcDbEntity
  8
DEFPOINTS
  6
Continuous
 62
     0
100
AcDbPoint
 10
0.1297832806928334
 20
0.296816198708799
 30
0.0
  0
ENDBLK
  5
DC
330
CF
100
AcDbEntity
  8
0
100
AcDbBlockEnd
  0
BLOCK
  5
DF
330
DE
100
AcDbEntity
  8
0
100
AcDbBlockBegin
  2
*D6
 70
     1
 10
0.0
 20
0.0
 30
0.0
  3
*D6
  1

  0
LINE
  5
396
330
DE
100
AcDbEntity
  8
DIMENSIONS
  6
Continuous
 62
     0
370
    -2
100
AcDbLine
 10
0.6693369958437428
 20
0.731816198708799
 30
0.0
 11
0.6693369958437428
 21
0.6855991694847619
 31
0.0
  0
LINE
  5
397
330
DE
100
AcDbEntity
  8
DIMENSIONS
  6
Continuous
 62
     0
370
    -2
100
AcDbLine
 10
0.6943369958437429
 20
0.7318161987087989
 30
0.0
 11
0.6943369958437429
 21
0.6855991694847619
 31
0.0
  0
LINE
  5
398
330
DE
100
AcDbEntity
  8
DIMENSIONS
  6
Continuous
 62
     0
370
    -2
100
AcDbLine
 10
0.6568369958437428
 20
0.6730991694847619
 30
0.0
 11
0.6443369958437427
 21
0.6730991694847619
 31
0.0
  0
LINE
  5
399
330
DE
100
AcDbEntity
  8
DIMENSIONS
  6
Continuous
 62
     0
370
    -2
100
AcDbLine
 10
0.7068369958437428
 20
0.6730991694847619
 30
0.0
 11
0.7193369958437429
 21
0.6730991694847619
 31
0.0
  0
SOLID
  5
39A
330
DE
100
AcDbEntity
  8
DIMENSIONS
  6
Continuous
 62
     0
100
AcDbTrace
 10
0.6568369958437428
 20
0.6751825028180952
 30
0.0
 11
0.6568369958437428
 21
0.6710158361514286
 31
0.0
 12
0.6693369958437428
 22
0.6730991694847619
 32
0.0
 13
0.6693369958437428
 23
0.6730991694847619
 33
0.0
  0
SOLID
  5
39B
330
DE
100
AcDbEntity
  8
DIMENSIONS
  6
Continuous
 62
     0
100
AcDbTrace
 10
0.7068369958437428
 20
0.6751825028180952
 30
0.0
 11
0.7068369958437428
 21
0.6710158361514286
 31
0.0
 12
0.6943369958437429
 22
0.6730991694847619
 32
0.0
 13
0.6943369958437429
 23
0.6730991694847619
 33
0.0
  0
MTEXT
  5
39C
330
DE
100
AcDbEntity
  8
DIMENSIONS
  6
Continuous
 62
     0
100
AcDbMText
 10
0.7564619958437429
 20
0.6730991694847619
 30
0.0
 40
0.0125
 41
0.0
 71
     5
 72
     1
  1
\A1;0.0250
 73
     1
 44
1.0
  0
POINT
  5
39D
330
DE
100
AcDbEntity
  8
DEFPOINTS
  6
Continuous
 62
     0
100
AcDbPoint
 10
0.6693369958437428
 20
0.669316198708799
 30
0.0
  0
POINT
  5
39E
330
DE
100
AcDbEntity
  8
DEFPOINTS
  6
Continuous
 62
     0
100
AcDbPoint
 10
0.6943369958437429
 20
0.6693161987087989
 30
0.0
  0
POINT
  5
39F
330
DE
100
AcDbEntity
  8
DEFPOINTS
  6
Continuous
 62
     0
100
AcDbPoint
 10
0.6943369958437429
 20
0.6730991694847619
 30
0.0
  0
ENDBLK
  5
EC
330
DE
100
AcDbEntity
  8
0
100
AcDbBlockEnd
  0
BLOCK
  5
212
330
211
100
AcDbEntity
  8
0
 62
     1
100
AcDbBlockBegin
  2
*U7
 70
     1
 10
0.0
 20
0.0
 30
0.0
  3
*U7
  1

  0
ENDBLK
  5
213
330
211
100
AcDbEntity
  8
0
 62
     1
100
AcDbBlockEnd
  0
BLOCK
  5
266
330
264
100
AcDbEntity
  8
0
 62
     1
100
AcDbBlockBegin
  2
GENAXEH
 70
     0
 10
0.0
 20
0.0
 30
0.0
  3
GENAXEH
  1

  0
LINE
  5
265
330
264
100
AcDbEntity
  8
0
100
AcDbLine
 10
-1.0
 20
0.0
 30
0.0
 11
1.0
 21
0.0
 31
0.0
  0
ENDBLK
  5
267
330
264
100
AcDbEntity
  8
0
 62
     1
100
AcDbBlockEnd
  0
ENDSEC
  0
SECTION
  2
ENTITIES
  0
DIMENSION
  5
2C
330
A
100
AcDbEntity
  8
DIMENSIONS
  6
Continuous
 62
     1
100
AcDbDimension
  2
*D0
 10
0.4043369958437429
 20
0.2576449145349334
 30
0.0
 11
0.3422119958437428
 21
0.2576449145349334
 31
0.0
 70
    32
 71
     5
 42
0.075
  3
DIMSTYLE1
100
AcDbAlignedDimension
 13
0.4793369958437428
 23
0.3268161987087992
 33
0.0
 14
0.4043369958437429
 24
0.3268161987087992
 34
0.0
100
AcDbRotatedDimension
1001
ACAD
1000
DSTYLE
1002
{
1070
   147
1040
0.009
1002
}
  0
DIMENSION
  5
43
330
A
100
AcDbEntity
  8
DIMENSIONS
  6
Continuous
 62
     1
100
AcDbDimension
  2
*D1
 10
0.6847839506627024
 20
0.296816198708799
 30
0.0
 11
0.636200617329369
 21
0.2718161987087991
 31
0.0
 70
    32
 71
     5
 42
0.0300000000000001
  3
DIMSTYLE2
100
AcDbAlignedDimension
 13
0.5253369958437419
 23
0.3268161987087992
 33
0.0
 14
0.5253369958437419
 24
0.296816198708799
 34
0.0
 50
90.0
100
AcDbRotatedDimension
1001
ACAD
1000
DSTYLE
1002
{
1070
   147
1040
0.009
1002
}
  0
DIMENSION
  5
53
330
A
100
AcDbEntity
  8
DIMENSIONS
  6
Continuous
 62
     1
100
AcDbDimension
  2
*D2
 10
0.5353369958437435
 20
0.212686205367862
 30
0.0
 11
0.4418369958437429
 21
0.212686205367862
 31
0.0
 70
    32
 71
     5
 42
0.1870000000000012
  3
DIMSTYLE3
100
AcDbAlignedDimension
 13
0.3483369958437422
 23
0.3068161987087988
 33
0.0
 14
0.5353369958437435
 24
0.3068161987087988
 34
0.0
100
AcDbRotatedDimension
1001
ACAD
1000
DSTYLE
1002
{
1070
   147
1040
0.009
1002
}
  0
LINE
  5
9F
330
A
100
AcDbEntity
  8
PRODUCT
  6
Continuous
 62
     5
100
AcDbLine
 10
0.4793369958437428
 20
0.3268161987087992
 30
0.0
 11
0.5253369958437419
 21
0.3268161987087992
 31
0.0
  0
ARC
  5
A0
330
A
100
AcDbEntity
  8
PRODUCT
  6
Continuous
 62
     5
100
AcDbCircle
 10
0.3583369958437437
 20
0.3168161987087994
 30
0.0
 40
0.01
100
AcDbArc
 50
89.99999999999998
 51
180.0
  0
ARC
  5
A1
330
A
100
AcDbEntity
  8
PRODUCT
  6
Continuous
 62
     5
100
AcDbCircle
 10
0.5253369958437419
 20
0.3168161987087994
 30
0.0
 40
0.01
100
AcDbArc
 50
0.0
 51
90.0
  0
LINE
  5
A2
330
A
100
AcDbEntity
  8
PRODUCT
  6
Continuous
 62
     5
100
AcDbLine
 10
0.3583369958437437
 20
0.3268161987087992
 30
0.0
 11
0.4043369958437429
 21
0.3268161987087992
 31
0.0
  0
ARC
  5
A3
330
A
100
AcDbEntity
  8
PRODUCT
  6
Continuous
 62
     5
100
AcDbCircle
 10
0.5253369958437419
 20
0.3068161987087988
 30
0.0
 40
0.01
100
AcDbArc
 50
270.0000000000001
 51
360.0000000000001
  0
ARC
  5
A4
330
A
100
AcDbEntity
  8
PRODUCT
  6
Continuous
 62
     5
100
AcDbCircle
 10
0.3583369958437437
 20
0.3068161987087988
 30
0.0
 40
0.01
100
AcDbArc
 50
180.0
 51
270.0000000000001
  0
LINE
  5
A5
330
A
100
AcDbEntity
  8
PRODUCT
  6
Continuous
 62
     5
100
AcDbLine
 10
0.3483369958437422
 20
0.3068161987087988
 30
0.0
 11
0.3483369958437422
 21
0.3168161987087994
 31
0.0
  0
LINE
  5
A6
330
A
100
AcDbEntity
  8
PRODUCT
  6
Continuous
 62
     5
100
AcDbLine
 10
0.5353369958437435
 20
0.3068161987087988
 30
0.0
 11
0.5353369958437435
 21
0.3168161987087994
 31
0.0
  0
LINE
  5
A7
330
A
100
AcDbEntity
  8
PRODUCT
  6
Continuous
 62
     5
100
AcDbLine
 10
0.3583369958437437
 20
0.296816198708799
 30
0.0
 11
0.5253369958437419
 21
0.296816198708799
 31
0.0
  0
LINE
  5
AA
330
A
100
AcDbEntity
  8
PRODUCT
  6
Continuous
 62
     5
100
AcDbLine
 10
0.4143369958437429
 20
0.4168161987087991
 30
0.0
 11
0.4693369958437428
 21
0.4168161987087991
 31
0.0
  0
LINE
  5
AB
330
A
100
AcDbEntity
  8
PRODUCT
  6
Continuous
 62
     5
100
AcDbLine
 10
0.4793369958437428
 20
0.3268161987087992
 30
0.0
 11
0.4793369958437428
 21
0.406816198708799
 31
0.0
  0
LINE
  5
AC
330
A
100
AcDbEntity
  8
PRODUCT
  6
Continuous
 62
     5
100
AcDbLine
 10
0.4043369958437429
 20
0.3268161987087992
 30
0.0
 11
0.4043369958437429
 21
0.406816198708799
 31
0.0
  0
ARC
  5
AD
330
A
100
AcDbEntity
  8
PRODUCT
  6
Continuous
 62
     5
100
AcDbCircle
 10
0.4143369958437429
 20
0.406816198708799
 30
0.0
 40
0.01
100
AcDbArc
 50
90.0
 51
180.0
  0
ARC
  5
AE
330
A
100
AcDbEntity
  8
PRODUCT
  6
Continuous
 62
     5
100
AcDbCircle
 10
0.4693369958437428
 20
0.406816198708799
 30
0.0
 40
0.01
100
AcDbArc
 50
0.0
 51
90.0
  0
CIRCLE
  5
AF
330
A
100
AcDbEntity
  8
PRODUCT
  6
Continuous
 62
     5
100
AcDbCircle
 10
0.4418369958437429
 20
0.669316198708799
 30
0.0
 40
0.2275
  0
DIMENSION
  5
B3
330
A
100
AcDbEntity
  8
DIMENSIONS
  6
Continuous
 62
     1
100
AcDbDimension
  2
*D3
 10
0.765502404973868
 20
0.416816198708799
 30
0.0
 11
0.7655024049738679
 21
0.3568161987087991
 31
0.0
 70
    32
 71
     5
 42
0.12
  3
DIMSTYLE4
100
AcDbAlignedDimension
 13
0.5253369958437419
 23
0.296816198708799
 33
0.0
 14
0.4693369958437428
 24
0.4168161987087991
 34
0.0
 50
90.0
100
AcDbRotatedDimension
1001
ACAD
1000
DSTYLE
1002
{
1070
   147
1040
0.009
1002
}
  0
DIMENSION
  5
C2
330
A
100
AcDbEntity
  8
DIMENSIONS
  6
Continuous
 62
     1
100
AcDbDimension
  2
*D4
 10
0.6943369958437429
 20
0.9751593751586824
 30
0.0
 11
0.4418369958437429
 21
0.9751593751586824
 31
0.0
 70
    32
 71
     5
 42
0.5050000000000001
  3
DIMSTYLE5
100
AcDbAlignedDimension
 13
0.1893369958437427
 23
0.669316198708799
 33
0.0
 14
0.6943369958437429
 24
0.6693161987087989
 34
0.0
100
AcDbRotatedDimension
1001
ACAD
1000
DSTYLE
1002
{
1070
   147
1040
0.009
1002
}
  0
DIMENSION
  5
D1
330
A
100
AcDbEntity
  8
DIMENSIONS
  6
Continuous
 62
     1
100
AcDbDimension
  2
*D5
 10
0.1297832806928334
 20
0.296816198708799
 30
0.0
 11
0.1297832806928334
 21
0.6093161987087992
 31
0.0
 70
    32
 71
     5
 42
0.625
  3
DIMSTYLE6
100
AcDbAlignedDimension
 13
0.4418369958437429
 23
0.921816198708799
 33
0.0
 14
0.3583369958437437
 24
0.296816198708799
 34
0.0
 50
90.0
100
AcDbRotatedDimension
1001
ACAD
1000
DSTYLE
1002
{
1070
   147
1040
0.009
1002
}
  0
DIMENSION
  5
E0
330
A
100
AcDbEntity
  8
DIMENSIONS
  6
Continuous
 62
     1
100
AcDbDimension
  2
*D6
 10
0.6943369958437429
 20
0.6730991694847619
 30
0.0
 11
0.7564619958437429
 21
0.6730991694847619
 31
0.0
 70
   160
 71
     5
 42
0.0250000000000001
  3
DIMSTYLE7
100
AcDbAlignedDimension
 13
0.6693369958437428
 23
0.669316198708799
 33
0.0
 14
0.6943369958437429
 24
0.6693161987087989
 34
0.0
100
AcDbRotatedDimension
1001
ACAD
1000
DSTYLE
1002
{
1070
   147
1040
0.009
1002
}
  0
ARC
  5
ED
330
A
100
AcDbEntity
  8
PRODUCT
  6
Continuous
 62
     5
100
AcDbCircle
 10
0.3893369958437427
 20
0.4070186577367191
 30
0.0
 40
0.015
100
AcDbArc
 50
0.0
 51
78.68156301549389
  0
ARC
  5
EE
330
A
100
AcDbEntity
  8
PRODUCT
  6
Continuous
 62
     5
100
AcDbCircle
 10
0.4943369958437428
 20
0.4070186577367191
 30
0.0
 40
0.015
100
AcDbArc
 50
101.3184369845062
 51
180.0
  0
ARC
  5
EF
330
A
100
AcDbEntity
  8
PRODUCT
  6
Continuous
 62
     5
100
AcDbCircle
 10
0.4418369958437429
 20
0.669316198708799
 30
0.0
 40
0.2525
100
AcDbArc
 50
281.3184369845063
 51
618.6815630154935
  0
ENDSEC
  0
SECTION
  2
OBJECTS
  0
DICTIONARY
  5
19
330
0
100
AcDbDictionary
281
     1
  3
ACAD_COLOR
350
154
  3
ACAD_GROUP
350
1A
  3
ACAD_LAYOUT
350
F5
  3
ACAD_MATERIAL
350
153
  3
ACAD_MLINESTYLE
350
1B
  3
ACAD_PLOTSETTINGS
350
F6
  3
ACAD_PLOTSTYLENAME
350
F3
  3
ACAD_TABLESTYLE
350
155
  3
AcDbVariableDictionary
350
14B
  3
AcmDictionary
350
21B
  3
AMG
350
15B
  3
AMGSNAPSETTINGS
350
284
  3
ASE_INDEX_DICTIONARY
350
FC
  3
MAPISURF_MODULE
350
1E7
  0
DICTIONARY
  5
28D
330
2
100
AcDbDictionary
280
     1
281
     1
  3
ACAD_LAYERFILTERS
360
3B8
  3
ACLYDICTIONARY
360
3B7
  0
DICTIONARY
  5
277
330
A
100
AcDbDictionary
280
     1
281
     1
  3
ACAD_INDEX
360
278
  0
DICTIONARY
  5
154
102
{ACAD_REACTORS
330
19
102
}
330
19
100
AcDbDictionary
281
     1
  0
DICTIONARY
  5
1A
102
{ACAD_REACTORS
330
19
102
}
330
19
100
AcDbDictionary
281
     1
  0
DICTIONARY
  5
F5
102
{ACAD_REACTORS
330
19
102
}
330
19
100
AcDbDictionary
281
     1
  3
Layout1
350
F8
  3
Model
350
F7
  0
DICTIONARY
  5
153
102
{ACAD_REACTORS
330
19
102
}
330
19
100
AcDbDictionary
281
     1
  0
DICTIONARY
  5
1B
102
{ACAD_REACTORS
330
19
102
}
330
19
100
AcDbDictionary
281
     1
  3
STANDARD
350
1C
  0
DICTIONARY
  5
F6
102
{ACAD_REACTORS
330
19
102
}
330
19
100
AcDbDictionary
281
     1
  0
ACDBDICTIONARYWDFLT
  5
F3
102
{ACAD_REACTORS
330
19
102
}
330
19
100
AcDbDictionary
281
     1
  3
Normal
350
F4
100
AcDbDictionaryWithDefault
340
F4
  0
DICTIONARY
  5
155
102
{ACAD_REACTORS
330
19
102
}
330
19
100
AcDbDictionary
281
     1
  3
Standard
350
156
  0
DICTIONARY
  5
14B
102
{ACAD_REACTORS
330
19
102
}
330
19
100
AcDbDictionary
281
     1
  3
CTABLESTYLE
350
283
  3
DIMASSOC
350
14C
  0
DICTIONARY
  5
21B
102
{ACAD_REACTORS
330
19
102
}
330
19
100
AcDbDictionary
281
     1
  3
AcmBOMDATA
350
21C
  3
AcmStdDictionary
350
227
  3
AMDTSECTSYM_ARROWCOLOR
350
246
  0
DICTIONARY
  5
15B
102
{ACAD_REACTORS
330
19
102
}
330
19
100
AcDbDictionary
281
     1
  3
AcMgSettings
350
15C
  3
AMGLAYCFG
350
229
  0
DICTIONARY
  5
284
102
{ACAD_REACTORS
330
19
102
}
330
19
100
AcDbDictionary
281
     1
  3
DIMENSION
350
289
  3
FEA
350
288
  3
HATCH (1)
350
285
  3
HATCH (2)
350
286
  3
SIMPLE WELD
350
28A
  3
SYMBOLS
350
287
  0
DICTIONARY
  5
FC
102
{ACAD_REACTORS
330
19
102
}
330
19
100
AcDbDictionary
281
     1
  3
ASEBlockHierarchyIndexRecord
350
FE
1001
DCO15
1040
1538456638.037
  0
DICTIONARY
  5
3B8
102
{ACAD_REACTORS
330
28D
102
}
330
28D
100
AcDbDictionary
281
     1
  0
DICTIONARY
  5
3B7
102
{ACAD_REACTORS
330
28D
102
}
330
28D
100
AcDbDictionary
281
     1
1001
ACAD
1000
<All
  0
DICTIONARY
  5
278
102
{ACAD_REACTORS
330
277
102
}
330
277
100
AcDbDictionary
281
     1
  3
*A1
350
279
  0
LAYOUT
  5
F8
102
{ACAD_REACTORS
330
F5
102
}
330
F5
100
AcDbPlotSettings
  1

  2
HP LaserJet 1100
  4

  6

 40
0.0
 41
0.0
 42
0.0
 43
0.0
 44
0.0
 45
0.0
 46
0.0
 47
0.0
 48
0.0
 49
0.0
140
0.0
141
0.0
142
1.0
143
1.0
 70
   688
 72
     0
 73
     0
 74
     5
  7

 75
    16
147
1.0
 76
     0
 77
     2
 78
   300
148
0.0
149
0.0
100
AcDbLayout
  1
Layout1
 70
     0
 71
     1
 10
0.0
 20
0.0
 11
12.0
 21
9.0
 12
0.0
 22
0.0
 32
0.0
 14
1.000000000000000E+20
 24
1.000000000000000E+20
 34
1.000000000000000E+20
 15
-1.000000000000000E+20
 25
-1.000000000000000E+20
 35
-1.000000000000000E+20
146
0.0
 13
0.0
 23
0.0
 33
0.0
 16
1.0
 26
0.0
 36
0.0
 17
0.0
 27
1.0
 37
0.0
 76
     0
330
B
  0
LAYOUT
  5
F7
102
{ACAD_REACTORS
330
F5
102
}
330
F5
100
AcDbPlotSettings
  1

  2
HP LaserJet 1100
  4

  6

 40
0.0
 41
0.0
 42
0.0
 43
0.0
 44
0.0
 45
0.0
 46
0.0
 47
0.0
 48
0.0
 49
0.0
140
0.0
141
0.0
142
1.0
143
1.0
 70
  1712
 72
     0
 73
     0
 74
     0
  7

 75
     0
147
1.0
 76
     0
 77
     2
 78
   300
148
0.0
149
0.0
100
AcDbLayout
  1
Model
 70
     1
 71
     0
 10
0.0
 20
0.0
 11
12.0
 21
9.0
 12
0.0
 22
0.0
 32
0.0
 14
0.0
 24
0.0
 34
0.0
 15
0.0
 25
0.0
 35
0.0
146
0.0
 13
0.0
 23
0.0
 33
0.0
 16
1.0
 26
0.0
 36
0.0
 17
0.0
 27
1.0
 37
0.0
 76
     0
330
A
  0
MLINESTYLE
  5
1C
102
{ACAD_REACTORS
330
1B
102
}
330
1B
100
AcDbMlineStyle
  2
STANDARD
 70
     0
  3

 62
     0
 51
90.00000000000019
 52
90.00000000000019
 71
     2
 49
0.5
 62
   256
  6
BYLAYER
 49
-0.5
 62
   256
  6
BYLAYER
  0
ACDBPLACEHOLDER
  5
F4
102
{ACAD_REACTORS
330
F3
102
}
330
F3
  0
TABLESTYLE
  5
156
102
{ACAD_REACTORS
330
155
102
}
330
155
100
AcDbTableStyle
  3
Standard
 70
     0
 71
     0
 40
0.06
 41
0.06
280
     0
281
     0
  7
STANDARD
140
0.18
170
     2
 62
     0
 63
     7
283
     0
274
    -2
284
     1
 64
     0
275
    -2
285
     1
 65
     0
276
    -2
286
     1
 66
     0
277
    -2
287
     1
 67
     0
278
    -2
288
     1
 68
     0
279
    -2
289
     1
 69
     0
  7
STANDARD
140
0.25
170
     5
 62
     0
 63
     7
283
     0
274
    -2
284
     1
 64
     0
275
    -2
285
     1
 65
     0
276
    -2
286
     1
 66
     0
277
    -2
287
     1
 67
     0
278
    -2
288
     1
 68
     0
279
    -2
289
     1
 69
     0
  7
STANDARD
140
0.18
170
     5
 62
     0
 63
     7
283
     0
274
    -2
284
     1
 64
     0
275
    -2
285
     1
 65
     0
276
    -2
286
     1
 66
     0
277
    -2
287
     1
 67
     0
278
    -2
288
     1
 68
     0
279
    -2
289
     1
 69
     0
  0
DICTIONARYVAR
  5
283
102
{ACAD_REACTORS
330
14B
102
}
330
14B
100
DictionaryVariables
280
     0
  1
STANDARD
  0
DICTIONARYVAR
  5
14C
102
{ACAD_REACTORS
330
14B
102
}
330
14B
100
DictionaryVariables
280
     0
  1
1
  0
ACMDATADICTIONARY
  5
21C
102
{ACAD_REACTORS
330
21B
102
}
330
21B
100
AcDbDictionary
281
     1
  3
*A1
350
21D
100
AcmDataDictionary
  0
DICTIONARY
  5
227
102
{ACAD_REACTORS
330
21B
102
}
330
21B
100
AcDbDictionary
281
     1
  3
ANSI
350
228
  0
XRECORD
  5
246
102
{ACAD_REACTORS
330
21B
102
}
330
21B
100
AcDbXrecord
280
     1
 90
-1023410169
  0
DICTIONARY
  5
15C
102
{ACAD_REACTORS
330
15B
102
}
330
15B
100
AcDbDictionary
281
     1
  3
DWGSETTINGS
350
15D
  3
TRANSSETTINGS
350
161
  0
ACAMGFILTERDAT
  5
289
102
{ACAD_REACTORS
330
284
102
}
330
284
100
AcAmgFilterDat
 70
    15
  1
DIMENSION,AMDT_*_DIM
  2
*
  3
*
  4
*
  5
*
290
     1
  0
ACAMGFILTERDAT
  5
288
102
{ACAD_REACTORS
330
284
102
}
330
284
100
AcAmgFilterDat
 70
    15
  1
*
  2
AM_FEA-AM_*
  3
*
  4
*
  5
*
290
     1
  0
ACAMGFILTERDAT
  5
285
102
{ACAD_REACTORS
330
284
102
}
330
284
100
AcAmgFilterDat
 70
    15
  1
HATCH
  2
*
  3
*
  4
*
  5
*
290
     1
  0
ACAMGFILTERDAT
  5
286
102
{ACAD_REACTORS
330
284
102
}
330
284
100
AcAmgFilterDat
 70
    15
  1
LINE
  2
8,8N,*-8,*-8N,AM_8,AM_8N,*-AM_8,*-AM_8N
  3
*
  4
*
  5
INSERT,STDPART2D
290
     1
  0
ACAMGFILTERDAT
  5
28A
102
{ACAD_REACTORS
330
284
102
}
330
284
100
AcAmgFilterDat
 70
    15
  1
ARC
  2
AM_5
  3
*
  4
2
  5
INSERT
290
     0
  0
ACAMGFILTERDAT
  5
287
102
{ACAD_REACTORS
330
284
102
}
330
284
100
AcAmgFilterDat
 70
    15
  1
ACMFCFRAME,ACMDATUMTARGET,ACMDATUMID,ACMWELDSYM,ACMSURFSYM,ACMFEATID,ACMPARTREF,ACMBALLOON,AMDTEDGESYM,AMGSCREWCALCTABLE
  2
*
  3
*
  4
*
  5
*
290
     1
  0
XRECORD
  5
FE
102
{ACAD_REACTORS
330
FC
102
}
330
FC
100
AcDbXrecord
280
     1
  0
LAYER_INDEX
  5
279
102
{ACAD_REACTORS
330
278
102
}
330
278
100
AcDbIndex
 40
2453626.40343191
100
AcDbLayerIndex
  8
0
360
27A
 90
        0
  8
DIMENSIONS
360
27B
 90
        7
  8
DEFPOINTS
360
27C
 90
        0
  8
PRODUCT
360
27D
 90
       18
  0
ACMDATAENTRYBLOCK
  5
21D
102
{ACAD_REACTORS
330
21C
102
}
330
21C
100
AcmDataEntry
100
AcmDataEntryBlock
  0
IDBUFFER
  5
27A
330
0
100
AcDbIdBuffer
  0
IDBUFFER
  5
27B
330
0
100
AcDbIdBuffer
330
2C
330
43
330
53
330
B3
330
C2
330
D1
330
E0
  0
IDBUFFER
  5
27C
330
0
100
AcDbIdBuffer
  0
IDBUFFER
  5
27D
330
0
100
AcDbIdBuffer
330
EE
330
EF
330
9F
330
A0
330
A1
330
A2
330
A3
330
A4
330
A5
330
A6
330
A7
330
AA
330
AB
330
AC
330
AD
330
AE
330
AF
330
ED
  0
ENDSEC
  0
EOF
