  0
SECTION
  2
HEADER
  9
$ACADVER
  1
AC1018
  9
$ACADMAINTVER
 70
    76
  9
$DWGCODEPAGE
  3
ANSI_1252
  9
$CUSTOMPROPERTYTAG
  1
AmdtFileType
  9
$CUSTOMPROPERTY
  1
84
  9
$INSBASE
 10
0.0
 20
0.0
 30
0.0
  9
$EXTMIN
 10
6.329044732734852
 20
3.112054067775252
 30
0.0
  9
$EXTMAX
 10
7.179044732734852
 20
4.212054067775252
 30
0.0
  9
$LIMMIN
 10
0.0
 20
0.0
  9
$LIMMAX
 10
0.0
 20
0.0
  9
$ORTHOMODE
 70
     0
  9
$REGENMODE
 70
     1
  9
$FILLMODE
 70
     1
  9
$QTEXTMODE
 70
     0
  9
$MIRRTEXT
 70
     1
  9
$LTSCALE
 40
1.0
  9
$ATTMODE
 70
     1
  9
$TEXTSIZE
 40
0.0
  9
$TRACEWID
 40
0.05
  9
$TEXTSTYLE
  7
STANDARD
  9
$CLAYER
  8
0
  9
$CELTYPE
  6
CONTINUOUS
  9
$CECOLOR
 62
     1
  9
$CELTSCALE
 40
1.0
  9
$DISPSILH
 70
     0
  9
$DIMSCALE
 40
1.0
  9
$DIMASZ
 40
0.18
  9
$DIMEXO
 40
0.0625
  9
$DIMDLI
 40
0.38
  9
$DIMRND
 40
0.0
  9
$DIMDLE
 40
0.0
  9
$DIMEXE
 40
0.25
  9
$DIMTP
 40
0.004
  9
$DIMTM
 40
-0.004
  9
$DIMTXT
 40
0.0125
  9
$DIMCEN
 40
0.09
  9
$DIMTSZ
 40
0.0
  9
$DIMTOL
 70
     0
  9
$DIMLIM
 70
     0
  9
$DIMTIH
 70
     1
  9
$DIMTOH
 70
     1
  9
$DIMSE1
 70
     0
  9
$DIMSE2
 70
     0
  9
$DIMTAD
 70
     0
  9
$DIMZIN
 70
     0
  9
$DIMBLK
  1

  9
$DIMASO
 70
     1
  9
$DIMSHO
 70
     1
  9
$DIMPOST
  1

  9
$DIMAPOST
  1

  9
$DIMALT
 70
     0
  9
$DIMALTD
 70
     2
  9
$DIMALTF
 40
25.4
  9
$DIMLFAC
 40
1.0
  9
$DIMTOFL
 70
     0
  9
$DIMTVP
 40
0.0
  9
$DIMTIX
 70
     0
  9
$DIMSOXD
 70
     0
  9
$DIMSAH
 70
     0
  9
$DIMBLK1
  1

  9
$DIMBLK2
  1

  9
$DIMSTYLE
  2
STANDARD
  9
$DIMCLRD
 70
     0
  9
$DIMCLRE
 70
     0
  9
$DIMCLRT
 70
     1
  9
$DIMTFAC
 40
1.0
  9
$DIMGAP
 40
0.09
  9
$DIMJUST
 70
     0
  9
$DIMSD1
 70
     0
  9
$DIMSD2
 70
     0
  9
$DIMTOLJ
 70
     1
  9
$DIMTZIN
 70
     0
  9
$DIMALTZ
 70
     0
  9
$DIMALTTZ
 70
     0
  9
$DIMUPT
 70
     0
  9
$DIMDEC
 70
     4
  9
$DIMTDEC
 70
     4
  9
$DIMALTU
 70
     2
  9
$DIMALTTD
 70
     2
  9
$DIMTXSTY
  7
STANDARD
  9
$DIMAUNIT
 70
     0
  9
$DIMADEC
 70
     0
  9
$DIMALTRND
 40
0.0
  9
$DIMAZIN
 70
     0
  9
$DIMDSEP
 70
    46
  9
$DIMATFIT
 70
     3
  9
$DIMFRAC
 70
     0
  9
$DIMLDRBLK
  1

  9
$DIMLUNIT
 70
     2
  9
$DIMLWD
 70
    -2
  9
$DIMLWE
 70
    -2
  9
$DIMTMOVE
 70
     0
  9
$LUNITS
 70
     2
  9
$LUPREC
 70
    10
  9
$SKETCHINC
 40
0.1
  9
$FILLETRAD
 40
0.0
  9
$AUNITS
 70
     0
  9
$AUPREC
 70
     0
  9
$MENU
  1
acad
  9
$ELEVATION
 40
0.0
  9
$PELEVATION
 40
0.0
  9
$THICKNESS
 40
0.0
  9
$LIMCHECK
 70
     0
  9
$CHAMFERA
 40
0.0
  9
$CHAMFERB
 40
0.0
  9
$CHAMFERC
 40
0.0
  9
$CHAMFERD
 40
0.0
  9
$SKPOLY
 70
     0
  9
$TDCREATE
 40
2444971.833333334
  9
$TDUCREATE
 40
2444972.000000000
  9
$TDUPDATE
 40
2453626.415835521
  9
$TDUUPDATE
 40
2453626.582502188
  9
$TDINDWG
 40
0.0680918634
  9
$TDUSRTIMER
 40
0.0680918634
  9
$USRTIMER
 70
     1
  9
$ANGBASE
 50
0.0
  9
$ANGDIR
 70
     0
  9
$PDMODE
 70
     2
  9
$PDSIZE
 40
0.0
  9
$PLINEWID
 40
0.0
  9
$SPLFRAME
 70
     0
  9
$SPLINETYPE
 70
     6
  9
$SPLINESEGS
 70
     8
  9
$HANDSEED
  5
322
  9
$SURFTAB1
 70
     6
  9
$SURFTAB2
 70
     6
  9
$SURFTYPE
 70
     6
  9
$SURFU
 70
     6
  9
$SURFV
 70
     6
  9
$UCSBASE
  2

  9
$UCSNAME
  2

  9
$UCSORG
 10
0.0
 20
0.0
 30
0.0
  9
$UCSXDIR
 10
1.0
 20
0.0
 30
0.0
  9
$UCSYDIR
 10
0.0
 20
1.0
 30
0.0
  9
$UCSORTHOREF
  2

  9
$UCSORTHOVIEW
 70
     0
  9
$UCSORGTOP
 10
0.0
 20
0.0
 30
0.0
  9
$UCSORGBOTTOM
 10
0.0
 20
0.0
 30
0.0
  9
$UCSORGLEFT
 10
0.0
 20
0.0
 30
0.0
  9
$UCSORGRIGHT
 10
0.0
 20
0.0
 30
0.0
  9
$UCSORGFRONT
 10
0.0
 20
0.0
 30
0.0
  9
$UCSORGBACK
 10
0.0
 20
0.0
 30
0.0
  9
$PUCSBASE
  2

  9
$PUCSNAME
  2

  9
$PUCSORG
 10
0.0
 20
0.0
 30
0.0
  9
$PUCSXDIR
 10
1.0
 20
0.0
 30
0.0
  9
$PUCSYDIR
 10
0.0
 20
1.0
 30
0.0
  9
$PUCSORTHOREF
  2

  9
$PUCSORTHOVIEW
 70
     0
  9
$PUCSORGTOP
 10
0.0
 20
0.0
 30
0.0
  9
$PUCSORGBOTTOM
 10
0.0
 20
0.0
 30
0.0
  9
$PUCSORGLEFT
 10
0.0
 20
0.0
 30
0.0
  9
$PUCSORGRIGHT
 10
0.0
 20
0.0
 30
0.0
  9
$PUCSORGFRONT
 10
0.0
 20
0.0
 30
0.0
  9
$PUCSORGBACK
 10
0.0
 20
0.0
 30
0.0
  9
$USERI1
 70
     0
  9
$USERI2
 70
     0
  9
$USERI3
 70
     0
  9
$USERI4
 70
     0
  9
$USERI5
 70
     0
  9
$USERR1
 40
0.0
  9
$USERR2
 40
0.0
  9
$USERR3
 40
0.0
  9
$USERR4
 40
0.0
  9
$USERR5
 40
0.0
  9
$WORLDVIEW
 70
     1
  9
$SHADEDGE
 70
     3
  9
$SHADEDIF
 70
    70
  9
$TILEMODE
 70
     1
  9
$MAXACTVP
 70
    16
  9
$PINSBASE
 10
0.0
 20
0.0
 30
0.0
  9
$PLIMCHECK
 70
     0
  9
$PEXTMIN
 10
1.000000000000000E+20
 20
1.000000000000000E+20
 30
1.000000000000000E+20
  9
$PEXTMAX
 10
-1.000000000000000E+20
 20
-1.000000000000000E+20
 30
-1.000000000000000E+20
  9
$PLIMMIN
 10
0.0
 20
0.0
  9
$PLIMMAX
 10
12.0
 20
9.0
  9
$UNITMODE
 70
     0
  9
$VISRETAIN
 70
     0
  9
$PLINEGEN
 70
     1
  9
$PSLTSCALE
 70
     0
  9
$TREEDEPTH
 70
  3020
  9
$CMLSTYLE
  2
STANDARD
  9
$CMLJUST
 70
     0
  9
$CMLSCALE
 40
1.0
  9
$PROXYGRAPHICS
 70
     1
  9
$MEASUREMENT
 70
     0
  9
$CELWEIGHT
370
    -1
  9
$ENDCAPS
280
     0
  9
$JOINSTYLE
280
     0
  9
$LWDISPLAY
290
     0
  9
$INSUNITS
 70
     0
  9
$HYPERLINKBASE
  1

  9
$STYLESHEET
  1

  9
$XEDIT
290
     1
  9
$CEPSNTYPE
380
     0
  9
$PSTYLEMODE
290
     1
  9
$FINGERPRINTGUID
  2
{001E37C5-6259-11D6-8A02-00902758FDDF}
  9
$VERSIONGUID
  2
{9743A07A-4A4A-48FE-BF94-4927DD248D9B}
  9
$EXTNAMES
290
     1
  9
$PSVPSCALE
 40
0.0
  9
$OLESTARTUP
290
     0
  9
$SORTENTS
280
   127
  9
$INDEXCTL
280
     1
  9
$HIDETEXT
280
     0
  9
$XCLIPFRAME
290
     0
  9
$HALOGAP
280
     0
  9
$OBSCOLOR
 70
   257
  9
$OBSLTYPE
280
     0
  9
$INTERSECTIONDISPLAY
280
     0
  9
$INTERSECTIONCOLOR
 70
   257
  9
$DIMASSOC
280
     1
  9
$PROJECTNAME
  1

  0
ENDSEC
  0
SECTION
  2
CLASSES
  0
CLASS
  1
IMAGE
  2
AcDbRasterImage
  3
ISM
 90
      127
 91
        0
280
     0
281
     1
  0
CLASS
  1
DICTIONARYVAR
  2
AcDbDictionaryVar
  3
ObjectDBX Classes
 90
        0
 91
        2
280
     0
281
     0
  0
CLASS
  1
RASTERVARIABLES
  2
AcDbRasterVariables
  3
ISM
 90
        0
 91
        0
280
     0
281
     0
  0
CLASS
  1
IMAGEDEF
  2
AcDbRasterImageDef
  3
ISM
 90
        0
 91
        0
280
     0
281
     0
  0
CLASS
  1
IMAGEDEF_REACTOR
  2
AcDbRasterImageDefReactor
  3
ISM
 90
        1
 91
        0
280
     0
281
     0
  0
CLASS
  1
IDBUFFER
  2
AcDbIdBuffer
  3
ObjectDBX Classes
 90
        0
 91
        5
280
     0
281
     0
  0
CLASS
  1
SPATIAL_FILTER
  2
AcDbSpatialFilter
  3
ObjectDBX Classes
 90
        0
 91
        0
280
     0
281
     0
  0
CLASS
  1
SORTENTSTABLE
  2
AcDbSortentsTable
  3
ObjectDBX Classes
 90
        0
 91
        0
280
     0
281
     0
  0
CLASS
  1
LAYER_INDEX
  2
AcDbLayerIndex
  3
ObjectDBX Classes
 90
        0
 91
        1
280
     0
281
     0
  0
CLASS
  1
SPATIAL_INDEX
  2
AcDbSpatialIndex
  3
ObjectDBX Classes
 90
        0
 91
        0
280
     0
281
     0
  0
CLASS
  1
OBJECT_PTR
  2
CAseDLPNTableRecord
  3
ASE-LPNTableRecord
 90
        1
 91
        0
280
     0
281
     0
  0
CLASS
  1
ACDBDICTIONARYWDFLT
  2
AcDbDictionaryWithDefault
  3
ObjectDBX Classes
 90
        0
 91
        1
280
     0
281
     0
  0
CLASS
  1
TABLESTYLE
  2
AcDbTableStyle
  3
ObjectDBX Classes
 90
     2047
 91
        1
280
     0
281
     0
  0
CLASS
  1
ACME_DOCUMENT
  2
AcMeDbDoc
  3
AcMeServices
 90
        0
 91
        2
280
     0
281
     0
  0
CLASS
  1
AMGSETTINGSOBJ
  2
AmgSettingsObj
  3
"AcadM|Product Description: AutoCAD Mechanical 2000|Company: Autodesk"
 90
        0
 91
        2
280
     0
281
     0
  0
CLASS
  1
ACMESCOPE
  2
AcMeScope
  3
AcMeServices
 90
        0
 91
        1
280
     0
281
     0
  0
CLASS
  1
ACMECOMMANDHISTORY
  2
AcMeCommandHistory
  3
AcMeServices
 90
        0
 91
        1
280
     0
281
     0
  0
CLASS
  1
ACIMSYSVARMAN
  2
AcImSysVarManager
  3
AcMeServices
 90
        0
 91
        6
280
     0
281
     0
  0
CLASS
  1
ACIMREALSYSVAR
  2
AcImRealSysVar
  3
AcMeServices
 90
        0
 91
       16
280
     0
281
     0
  0
CLASS
  1
ACIMINTSYSVAR
  2
AcImIntSysVar
  3
AcMeServices
 90
        0
 91
       45
280
     0
281
     0
  0
CLASS
  1
ACMEDRAWINGMAN
  2
AcMeDrawingMan
  3
AcMeServices
 90
        0
 91
        1
280
     0
281
     0
  0
CLASS
  1
ACMEVIEW
  2
AcMeView
  3
AcMeServices
 90
        0
 91
        1
280
     0
281
     0
  0
CLASS
  1
ACDBENTITYCACHE
  2
AcMeEntityCache
  3
AcMeServices
 90
        0
 91
        1
280
     0
281
     0
  0
CLASS
  1
GSMANAGER
  2
AcMeGSManager
  3
AcMeServices
 90
        0
 91
        1
280
     0
281
     0
  0
CLASS
  1
AMDTINTERNALREACTOR
  2
AmdtInternalReactor
  3
AcMeServices
 90
        0
 91
        2
280
     0
281
     0
  0
CLASS
  1
ACMESTATEMGR
  2
AcMeStateMgr
  3
AcMeServices
 90
        0
 91
        1
280
     0
281
     0
  0
CLASS
  1
ACGREFMASTER
  2
AcGrefMaster
  3
AcAttribServices
 90
        0
 91
        1
280
     0
281
     0
  0
CLASS
  1
AM_DRAWING_MGR
  2
AcDmDwgMgr
  3
AcMechDwgViewMgmt
 90
        0
 91
        1
280
     0
281
     0
  0
CLASS
  1
AM_DWG_DOCUMENT
  2
AcDmDwgDocument
  3
AcMechDwgViewMgmt
 90
        0
 91
        1
280
     0
281
     0
  0
CLASS
  1
AM_DWG_SHEET
  2
AcDmSheet
  3
AcMechDwgViewMgmt
 90
        0
 91
        1
280
     0
281
     0
  0
CLASS
  1
AM_VIEWDIMPARMAP
  2
AcDmViewDimParMap
  3
AcMechDwgViewMgmt
 90
        0
 91
        1
280
     0
281
     0
  0
CLASS
  1
AM_DWGMGR_NAME
  2
AcDmDwgMgrName
  3
AcMechDwgViewMgmt
 90
        0
 91
        1
280
     0
281
     0
  0
CLASS
  1
ACME_DATABASE
  2
AcMeDbDatabase
  3
AcMeServices
 90
        0
 91
        1
280
     0
281
     0
  0
CLASS
  1
ACRFINSADJUSTERMGR
  2
AcRfInsAdjusterMgr
  3
AcMeServices
 90
        0
 91
        1
280
     0
281
     0
  0
CLASS
  1
ACGREFACADMASTER
  2
AcGrefacadMaster
  3
AcGrefServices
 90
        0
 91
        1
280
     0
281
     0
  0
CLASS
  1
AMDTMENUSTATEMGR
  2
AmdtMenuStateMgr
  3
McadcomServices
 90
        0
 91
        1
280
     0
281
     0
  0
CLASS
  1
AMDTMCOMMENUSTATE
  2
AmdtMcomMenuState
  3
McadcomServices
 90
        0
 91
        1
280
     0
281
     0
  0
CLASS
  1
AMIMASTER
  2
AmiMaster
  3
AmiServices
 90
        0
 91
        1
280
     0
281
     0
  0
CLASS
  1
ASAPP
  2
AcAsAppObject
  3
AutoSurfServices
 90
        0
 91
        1
280
     0
281
     0
  0
CLASS
  1
IM_STATIC_MAN
  2
AcImStaticVarManager
  3
AcMeServices
 90
        0
 91
        1
280
     0
281
     0
  0
CLASS
  1
ACIMSTRSYSVAR
  2
AcImStrSysVar
  3
AcMeServices
 90
        0
 91
       11
280
     0
281
     0
  0
CLASS
  1
ACIMDBLSTATICVAR
  2
AcImDblStaticVar
  3
AcMeServices
 90
        0
 91
       20
280
     0
281
     0
  0
CLASS
  1
ACIMSTRSTATICVAR
  2
AcImStrStaticVar
  3
AcMeServices
 90
        0
 91
       12
280
     0
281
     0
  0
CLASS
  1
ACIMINTSTATICVAR
  2
AcImIntStaticVar
  3
AcMeServices
 90
        0
 91
       17
280
     0
281
     0
  0
CLASS
  1
ACASGREFMASTER
  2
AcAsGrefMaster
  3
AutoSurfResolverServices
 90
        0
 91
        1
280
     0
281
     0
  0
CLASS
  1
ACADGREFMODULE
  2
AcAdGrefModule
  3
AdGrefServices
 90
        0
 91
        1
280
     0
281
     0
  0
CLASS
  1
AMDTMAPISURFMOUDULE
  2
AmdtMApiSurfModule
  3
MApiSurfServices
 90
        0
 91
        1
280
     0
281
     0
  0
CLASS
  1
MAPIAMMOUDLE
  2
MApiAmModule
  3
MApiAmServices
 90
        0
 91
        1
280
     0
281
     0
  0
CLASS
  1
AMDTADMENUSTATE
  2
AmdtAdMenuState
  3
DesignerServices
 90
        0
 91
        1
280
     0
281
     0
  0
CLASS
  1
ADAPPL
  2
AcAdAppl
  3
DesignerServices
 90
        0
 91
        1
280
     0
281
     0
  0
CLASS
  1
DEPMGR
  2
AcAdDepMgr
  3
DesignerServices
 90
        0
 91
        1
280
     0
281
     0
  0
CLASS
  1
PARAMMGR
  2
AcAdParamMgr
  3
DesignerServices
 90
        0
 91
        1
280
     0
281
     0
  0
CLASS
  1
PARAMSCOPE
  2
AcAdParamScope
  3
DesignerServices
 90
        0
 91
        1
280
     0
281
     0
  0
CLASS
  1
NAMEDAPPL
  2
AcAdNamedAppl
  3
DesignerServices
 90
        0
 91
        1
280
     0
281
     0
  0
CLASS
  1
AMDTDMMENUSTATE
  2
AmdtDmMenuState
  3
AcMechDwgViewMgmt
 90
        0
 91
        1
280
     0
281
     0
  0
CLASS
  1
MAPIADMODULE
  2
MApiAdModule
  3
MApiAdServices
 90
        0
 91
        1
280
     0
281
     0
  0
CLASS
  1
AMDTAMMENUSTATE
  2
AmdtAmMenuState
  3
DesignerAssemblies
 90
        0
 91
        1
280
     0
281
     0
  0
CLASS
  1
ACAMPROJECT
  2
AcAmProject
  3
DesignerAssemblies
 90
        0
 91
        1
280
     0
281
     0
  0
CLASS
  1
ACAMGRCOMPDEF
  2
AcAmGrCompDef
  3
DesignerAssemblies
 90
        0
 91
        1
280
     0
281
     0
  0
CLASS
  1
ACCMCONTEXT
  2
AcCmContext
  3
DesignerAssemblies
 90
        0
 91
        1
280
     0
281
     0
  0
CLASS
  1
ACAMCOMPDEF
  2
AcAmCompDef
  3
DesignerAssemblies
 90
        0
 91
        1
280
     0
281
     0
  0
CLASS
  1
ACAMCOMPDEFMGR
  2
AcAmCompDefMgr
  3
DesignerAssemblies
 90
        0
 91
        1
280
     0
281
     0
  0
CLASS
  1
AMCONTEXTMGR
  2
AcAmContextMgr
  3
DesignerAssemblies
 90
        0
 91
        1
280
     0
281
     0
  0
CLASS
  1
ACAMCONTEXTMODELER
  2
AcAmContextModeler
  3
DesignerAssemblies
 90
        0
 91
        1
280
     0
281
     0
  0
CLASS
  1
ACMDATADICTIONARY
  2
AcmDataDictionary
  3
"AcmSymBB|Product Description: AutoCAD Mechanical 2004 DX|Company: Autodesk"
 90
        0
 91
        1
280
     0
281
     0
  0
CLASS
  1
ACMDATAENTRYBLOCK
  2
AcmDataEntryBlock
  3
"AcmSymBB|Product Description: AutoCAD Mechanical 2004 DX|Company: Autodesk"
 90
        0
 91
        1
280
     0
281
     0
  0
CLASS
  1
CATALOGSTATE
  2
AcAmCatalogState
  3
DesignerAssemblies
 90
        0
 91
        1
280
     0
281
     0
  0
CLASS
  1
ACAMGRCOMPDEFSET
  2
AcAmGrCompDefSet
  3
DesignerAssemblies
 90
        0
 91
        1
280
     0
281
     0
  0
CLASS
  1
AMDTBROWSERDBTAB
  2
AmdtBrowserDbTab
  3
McadcomServices
 90
        0
 91
        1
280
     0
281
     0
  0
CLASS
  1
CBROWSERAPPOBJECT
  2
CBrowserAppObject
  3
McadcomServices
 90
        0
 91
        3
280
     0
281
     0
  0
CLASS
  1
DM_PLACEHOLDER
  2
AcDmSelsetPlaceholder
  3
AcMechDwgViewMgmt
 90
        0
 91
        1
280
     0
281
     0
  0
CLASS
  1
ACMSTANDARDANSI
  2
AcmStandardANSI
  3
"Amdt_StdImp|Product Description: AutoCAD Mechanical 2004 DX|Company: Autodesk"
 90
        0
 91
        1
280
     0
281
     0
  0
CLASS
  1
AMGOBJPROPCFG
  2
AmgObjPropCfg
  3
"AmgLay|Product Description: AutoCAD Mechanical 2000|Company: Autodesk"
 90
        1
 91
        1
280
     0
281
     0
  0
CLASS
  1
ACMSURFSTANDARDANSI
  2
AcmSurfTextStdANSI
  3
"Amdt_StdImp|Product Description: AutoCAD Mechanical 2004 DX|Company: Autodesk"
 90
        0
 91
        1
280
     0
281
     0
  0
CLASS
  1
ACMFCFSTANDARDANSI
  2
AcmFCFStdANSI
  3
"Amdt_StdImp|Product Description: AutoCAD Mechanical 2004 DX|Company: Autodesk"
 90
        0
 91
        1
280
     0
281
     0
  0
CLASS
  1
ACMWELDSTANDARDANSI
  2
AcmWeldingStdANSI
  3
"Amdt_StdImp|Product Description: AutoCAD Mechanical 2004 DX|Company: Autodesk"
 90
        0
 91
        1
280
     0
281
     0
  0
CLASS
  1
ACMIDSTANDARDANSI
  2
AcmIdStdANSI
  3
"Amdt_StdImp|Product Description: AutoCAD Mechanical 2004 DX|Company: Autodesk"
 90
        0
 91
        1
280
     0
281
     0
  0
CLASS
  1
ACMDATUMSTANDARDANSI
  2
AcmDatumStdANSI
  3
"Amdt_StdImp|Product Description: AutoCAD Mechanical 2004 DX|Company: Autodesk"
 90
        0
 91
        1
280
     0
281
     0
  0
CLASS
  1
ACMBOMSTANDARDANSI
  2
AcmBOMStdANSI
  3
"Amdt_StdImp|Product Description: AutoCAD Mechanical 2004 DX|Company: Autodesk"
 90
        0
 91
        1
280
     0
281
     0
  0
CLASS
  1
ACMDETAILSTANDARDANSI
  2
AmdtDetailSymStdANSI
  3
"Amdt_StdImp|Product Description: AutoCAD Mechanical 2004 DX|Company: Autodesk"
 90
        0
 91
        1
280
     0
281
     0
  0
CLASS
  1
ACMSECTIONSTANDARDANSI
  2
AmdtSectionSymStdANSI
  3
"Amdt_StdImp|Product Description: AutoCAD Mechanical 2004 DX|Company: Autodesk"
 90
        0
 91
        1
280
     0
281
     0
  0
CLASS
  1
ACMCENTERLINESTANDARDANSI
  2
AmdtCenterLineStdANSI
  3
"Amdt_StdImp|Product Description: AutoCAD Mechanical 2004 DX|Company: Autodesk"
 90
        0
 91
        1
280
     0
281
     0
  0
CLASS
  1
ACMTHREADLINESTANDARDANSI
  2
AmdtThreadLineStdANSI
  3
"Amdt_StdImp|Product Description: AutoCAD Mechanical 2004 DX|Company: Autodesk"
 90
        0
 91
        1
280
     0
281
     0
  0
CLASS
  1
ACMNOTESTANDARDANSI
  2
AmdtNoteStdANSI
  3
"Amdt_StdImp|Product Description: AutoCAD Mechanical 2004 DX|Company: Autodesk"
 90
        0
 91
        1
280
     0
281
     0
  0
CLASS
  1
AMDTNOTETEMPLATEDB
  2
AmdtNoteTemplateDB
  3
AMDT_STDIMP_MODULE_NAME
 90
        0
 91
        6
280
     0
281
     0
  0
CLASS
  1
ACAMGLAYSTD
  2
AcAmgLayStd
  3
"AcAmgLayStd|Product Description: AutoCAD Mechanical 2000|Company: Autodesk"
 90
        0
 91
        1
280
     0
281
     0
  0
CLASS
  1
ACAMGDIMSTD
  2
AcAmgDimStd
  3
"AcAmgDimStd|Product Description: AutoCAD Mechanical 2000|Company: Autodesk"
 90
        0
 91
        1
280
     0
281
     0
  0
CLASS
  1
ACAMGHOLECHARTSTDANSI
  2
AcAmgHoleChartStdANSI
  3
ACMSYMBB_MODULE_NAME
 90
        0
 91
        1
280
     0
281
     0
  0
CLASS
  1
ACAMGTITLESTD
  2
AcAmgTitleStd
  3
"TITLEAPP"
 90
        0
 91
        1
280
     0
281
     0
  0
CLASS
  1
ACAMGFILTERDAT
  2
AcAmgFilterDat
  3
"AcadM|Product Description: AutoCAD Mechanical 2000|Company: Autodesk"
 90
        0
 91
        6
280
     0
281
     0
  0
CLASS
  1
EXACXREFPANELOBJECT
  2
ExAcXREFPanelObject
  3
EXAC_ESW
 90
        0
 91
        1
280
     0
281
     0
  0
ENDSEC
  0
SECTION
  2
TABLES
  0
TABLE
  2
VPORT
  5
7
330
0
100
AcDbSymbolTable
 70
     5
  0
VPORT
  5
321
330
7
100
AcDbSymbolTableRecord
100
AcDbViewportTableRecord
  2
*Active
 70
     0
 10
0.0
 20
0.0
 11
1.0
 21
1.0
 12
0.8974490421013264
 22
-0.5407141634675705
 13
0.0
 23
0.0
 14
1.0
 24
1.0
 15
0.0
 25
0.0
 16
0.0
 26
0.0
 36
1.0
 17
6.865793982722102
 27
3.846688783307264
 37
0.0
 40
2.367470191697145
 41
1.435540069686411
 42
50.0
 43
0.0
 44
0.0
 50
0.0
 51
0.0
 71
     0
 72
   100
 73
     1
 74
     1
 75
     0
 76
     0
 77
     0
 78
     0
281
     0
 65
     0
110
0.0
120
0.0
130
0.0
111
1.0
121
0.0
131
0.0
112
0.0
122
1.0
132
0.0
 79
     0
146
0.0
  0
ENDTAB
  0
TABLE
  2
LTYPE
  5
4
330
0
100
AcDbSymbolTable
 70
    20
  0
LTYPE
  5
11
330
4
100
AcDbSymbolTableRecord
100
AcDbLinetypeTableRecord
  2
BYBLOCK
 70
     0
  3

 72
    65
 73
     0
 40
0.0
  0
LTYPE
  5
12
330
4
100
AcDbSymbolTableRecord
100
AcDbLinetypeTableRecord
  2
BYLAYER
 70
     0
  3

 72
    65
 73
     0
 40
0.0
  0
LTYPE
  5
13
330
4
100
AcDbSymbolTableRecord
100
AcDbLinetypeTableRecord
  2
CONTINUOUS
 70
     0
  3
Solid line
 72
    65
 73
     0
 40
0.0
  0
LTYPE
  5
1D
330
4
100
AcDbSymbolTableRecord
100
AcDbLinetypeTableRecord
  2
DASHED
 70
     0
  3
_ _ _ _ _ _ _ _ _ _ _ _ _ _ _ _
 72
    65
 73
     2
 40
0.2
 49
0.1
 74
     0
 49
-0.1
 74
     0
  0
LTYPE
  5
1E
330
4
100
AcDbSymbolTableRecord
100
AcDbLinetypeTableRecord
  2
CENTER
 70
     0
  3
___ _ ___ _ ___ _ ___ _ ___ _ ___ _ ___ _ ___ _
 72
    65
 73
     4
 40
0.95
 49
0.625
 74
     0
 49
-0.125
 74
     0
 49
0.075
 74
     0
 49
-0.125
 74
     0
  0
LTYPE
  5
1F
330
4
100
AcDbSymbolTableRecord
100
AcDbLinetypeTableRecord
  2
PHANTOM
 70
     0
  3
______  __  __  ______  __  __  ______  __  __  
 72
    65
 73
     6
 40
1.024999999999999
 49
0.625
 74
     0
 49
-0.125
 74
     0
 49
0.075
 74
     0
 49
-0.125
 74
     0
 49
0.075
 74
     0
 49
-0.125
 74
     0
  0
LTYPE
  5
190
330
4
100
AcDbSymbolTableRecord
100
AcDbLinetypeTableRecord
  2
HIDDEN
 70
     0
  3
Hidden __ __ __ __ __ __ __ __ __ __ __ __ __ _
 72
    65
 73
     2
 40
0.375
 49
0.25
 74
     0
 49
-0.125
 74
     0
  0
LTYPE
  5
191
330
4
100
AcDbSymbolTableRecord
100
AcDbLinetypeTableRecord
  2
PHANTOM2
 70
     0
  3
Phantom (.5x) ___ _ _ ___ _ _ ___ _ _ ___ _ _
 72
    65
 73
     6
 40
1.25
 49
0.625
 74
     0
 49
-0.125
 74
     0
 49
0.125
 74
     0
 49
-0.125
 74
     0
 49
0.125
 74
     0
 49
-0.125
 74
     0
  0
LTYPE
  5
1E0
330
4
100
AcDbSymbolTableRecord
100
AcDbLinetypeTableRecord
  2
ASULTYPE
 70
     0
  3
Solid line
 72
    65
 73
     2
 40
3.0
 49
2.5
 74
     0
 49
0.5
 74
     0
  0
LTYPE
  5
1E1
330
4
100
AcDbSymbolTableRecord
100
AcDbLinetypeTableRecord
  2
ASVLTYPE
 70
     0
  3
__ __ __ __ __ __ __ __ __ __ __ __ __ __ __ __ __ __ __ __ __
 72
    65
 73
     2
 40
0.75
 49
0.5
 74
     0
 49
-0.25
 74
     0
  0
LTYPE
  5
228
330
4
100
AcDbSymbolTableRecord
100
AcDbLinetypeTableRecord
  2
AM_ISO02W050
 70
     0
  3
__ __ __ __ __ __ __ __ __ __ __ __ __ __ __
 72
    65
 73
     2
 40
7.5
 49
6.0
 74
     0
 49
-1.5
 74
     0
  0
LTYPE
  5
229
330
4
100
AcDbSymbolTableRecord
100
AcDbLinetypeTableRecord
  2
AM_ISO08W050
 70
     0
  3
____ . ____ . ____ . ____ . ____ . ____ . ____
 72
    65
 73
     4
 40
18.0
 49
12.0
 74
     0
 49
-1.5
 74
     0
 49
3.0
 74
     0
 49
-1.5
 74
     0
  0
LTYPE
  5
22A
330
4
100
AcDbSymbolTableRecord
100
AcDbLinetypeTableRecord
  2
AM_ISO09W050
 70
     0
  3
_____ . . _____ . . _____ . . ____ .. ____
 72
    65
 73
     6
 40
22.5
 49
12.0
 74
     0
 49
-1.5
 74
     0
 49
3.0
 74
     0
 49
-1.5
 74
     0
 49
3.0
 74
     0
 49
-1.5
 74
     0
  0
LTYPE
  5
22B
330
4
100
AcDbSymbolTableRecord
100
AcDbLinetypeTableRecord
  2
Amconstr
 70
     0
  3
_______________________
 72
    65
 73
     2
 40
9999.0
 49
9999.0
 74
     0
 49
0.0
 74
     0
  0
LTYPE
  5
22C
330
4
100
AcDbSymbolTableRecord
100
AcDbLinetypeTableRecord
  2
AM_ISO08W050x2
 70
     0
  3
__ . __ . __ . __ . __ . __
 72
    65
 73
     4
 40
9.0
 49
6.0
 74
     0
 49
-0.75
 74
     0
 49
1.5
 74
     0
 49
-0.75
 74
     0
  0
LTYPE
  5
22D
330
4
100
AcDbSymbolTableRecord
100
AcDbLinetypeTableRecord
  2
AM_ISO02W050x2
 70
     0
  3
 _ _ _ _ _ _ _ _ _ _ _ _
 72
    65
 73
     2
 40
3.75
 49
3.0
 74
     0
 49
-0.75
 74
     0
  0
LTYPE
  5
230
330
4
100
AcDbSymbolTableRecord
100
AcDbLinetypeTableRecord
  2
Amzigzag
 70
     0
  3
/\/-/\/-/\/-/\/-/\/-/\/
 72
    65
 73
     2
 40
11.0001
 49
0.0001
 74
     4
 75
   136
340
22F
 46
0.04
 50
0.0
 44
0.0
 45
0.0
 49
-11.0
 74
     0
  0
LTYPE
  5
231
330
4
100
AcDbSymbolTableRecord
100
AcDbLinetypeTableRecord
  2
CENTER2
 70
     0
  3
Center (.5x) ___ _ ___ _ ___ _ ___ _ ___ _ ___
 72
    65
 73
     4
 40
1.125
 49
0.75
 74
     0
 49
-0.125
 74
     0
 49
0.125
 74
     0
 49
-0.125
 74
     0
  0
LTYPE
  5
232
330
4
100
AcDbSymbolTableRecord
100
AcDbLinetypeTableRecord
  2
HIDDEN2
 70
     0
  3
Hidden (.5x) _ _ _ _ _ _ _ _ _ _ _ _ _ _ _ _ _
 72
    65
 73
     2
 40
0.1875
 49
0.125
 74
     0
 49
-0.0625
 74
     0
  0
LTYPE
  5
233
330
4
100
AcDbSymbolTableRecord
100
AcDbLinetypeTableRecord
  2
Amzigzag2
 70
     0
  3
/\/-/\/-/\/-/\/-/\/-/\/
 72
    65
 73
     2
 40
0.4401
 49
0.0001
 74
     4
 75
   136
340
22F
 46
0.0016
 50
0.0
 44
0.0
 45
0.0
 49
-0.4400000000000001
 74
     0
  0
LTYPE
  5
241
330
4
100
AcDbSymbolTableRecord
100
AcDbLinetypeTableRecord
  2
ACANSTGB
 70
     0
  3
__ . . __ . .
 72
    65
 73
     6
 40
0.35433070866
 49
0.15748031496
 74
     0
 49
-0.03937007874
 74
     0
 49
0.03937007874
 74
     0
 49
-0.03937007874
 74
     0
 49
0.03937007874
 74
     0
 49
-0.03937007874
 74
     0
  0
LTYPE
  5
242
330
4
100
AcDbSymbolTableRecord
100
AcDbLinetypeTableRecord
  2
ACANSTGL
 70
     0
  3
_ _ _ _ _
 72
    65
 73
     2
 40
0.11811023622
 49
0.07874015748
 74
     0
 49
-0.03937007874
 74
     0
  0
ENDTAB
  0
TABLE
  2
LAYER
  5
2
102
{ACAD_XDICTIONARY
360
27E
102
}
330
0
100
AcDbSymbolTable
 70
     5
  0
LAYER
  5
14
330
2
100
AcDbSymbolTableRecord
100
AcDbLayerTableRecord
  2
0
 70
     0
 62
     7
  6
CONTINUOUS
370
    -3
390
DC
  0
LAYER
  5
2B
330
2
100
AcDbSymbolTableRecord
100
AcDbLayerTableRecord
  2
DEFPOINTS
 70
     0
 62
     7
  6
CONTINUOUS
290
     0
370
    -3
390
DC
  0
LAYER
  5
27B
330
2
100
AcDbSymbolTableRecord
100
AcDbLayerTableRecord
  2
PRODUCT
 70
     0
 62
     7
  6
CONTINUOUS
370
    -3
390
DC
1001
AcAecLayerStandard
1000

1000

  0
LAYER
  5
28A
330
2
100
AcDbSymbolTableRecord
100
AcDbLayerTableRecord
  2
DIMENSIONS
 70
     0
 62
     7
  6
CONTINUOUS
370
    -3
390
DC
1001
AcAecLayerStandard
1000

1000

  0
ENDTAB
  0
TABLE
  2
STYLE
  5
3
330
0
100
AcDbSymbolTable
 70
     4
  0
STYLE
  5
17
330
3
100
AcDbSymbolTableRecord
100
AcDbTextStyleTableRecord
  2
STANDARD
 70
     0
 40
0.0
 41
1.0
 50
0.0
 71
     0
 42
0.0
  3
txt
  4

  0
STYLE
  5
22F
330
3
100
AcDbSymbolTableRecord
100
AcDbTextStyleTableRecord
  2

 70
     1
 40
0.0
 41
1.0
 50
0.0
 71
     0
 42
0.0125
  3
genltshp.shx
  4

  0
STYLE
  5
234
330
3
100
AcDbSymbolTableRecord
100
AcDbTextStyleTableRecord
  2
ACANSTS
 70
     0
 40
1.0
 41
1.0
 50
0.0
 71
     0
 42
0.0125
  3
romans.shx
  4

  0
STYLE
  5
240
330
3
100
AcDbSymbolTableRecord
100
AcDbTextStyleTableRecord
  2
ACANSGDT
 70
     0
 40
0.0
 41
1.0
 50
0.0
 71
     0
 42
0.0125
  3
AMGDT
  4

  0
ENDTAB
  0
TABLE
  2
VIEW
  5
5
330
0
100
AcDbSymbolTable
 70
     0
  0
ENDTAB
  0
TABLE
  2
UCS
  5
6
330
0
100
AcDbSymbolTable
 70
     1
  0
UCS
  5
20
330
6
100
AcDbSymbolTableRecord
100
AcDbUCSTableRecord
  2
CK_VIEW_1
 70
     0
 10
0.0
 20
0.0
 30
1.0
 11
1.0
 21
0.0
 31
0.0
 12
0.0
 22
1.0
 32
0.0
 79
     0
146
0.0
  0
ENDTAB
  0
TABLE
  2
APPID
  5
8
330
0
100
AcDbSymbolTable
 70
    17
  0
APPID
  5
16
330
8
100
AcDbSymbolTableRecord
100
AcDbRegAppTableRecord
  2
ACAD
 70
     0
  0
APPID
  5
E5
330
8
100
AcDbSymbolTableRecord
100
AcDbRegAppTableRecord
  2
DCO15
 70
     0
  0
APPID
  5
15C
330
8
100
AcDbSymbolTableRecord
100
AcDbRegAppTableRecord
  2
GENIUS_GENDIM_13
 70
     0
  0
APPID
  5
15D
330
8
100
AcDbSymbolTableRecord
100
AcDbRegAppTableRecord
  2
GENIUS_GENDTOL_13
 70
     0
  0
APPID
  5
15E
330
8
100
AcDbSymbolTableRecord
100
AcDbRegAppTableRecord
  2
GENIUS_GE3DTOL_13
 70
     0
  0
APPID
  5
161
330
8
100
AcDbSymbolTableRecord
100
AcDbRegAppTableRecord
  2
MCAD_NO_VIS
 70
     0
  0
APPID
  5
162
330
8
100
AcDbSymbolTableRecord
100
AcDbRegAppTableRecord
  2
ACAD_TEMP_GRAPHIC
 70
     0
  0
APPID
  5
193
330
8
100
AcDbSymbolTableRecord
100
AcDbRegAppTableRecord
  2
AD_DRAW
 70
     0
  0
APPID
  5
196
330
8
100
AcDbSymbolTableRecord
100
AcDbRegAppTableRecord
  2
ACATTRIBSERVICES
 70
     0
  0
APPID
  5
1E2
330
8
100
AcDbSymbolTableRecord
100
AcDbRegAppTableRecord
  2
ASURF_PCURVE_APPNAME
 70
     0
  0
APPID
  5
1E7
330
8
100
AcDbSymbolTableRecord
100
AcDbRegAppTableRecord
  2
AMG_3D2D_5.0
 70
     0
  0
APPID
  5
218
330
8
100
AcDbSymbolTableRecord
100
AcDbRegAppTableRecord
  2
DESIGNERASSEMBLIES
 70
     0
  0
APPID
  5
21F
330
8
100
AcDbSymbolTableRecord
100
AcDbRegAppTableRecord
  2
ACADM_DIM_EDIT
 70
     0
  0
APPID
  5
220
330
8
100
AcDbSymbolTableRecord
100
AcDbRegAppTableRecord
  2
AMDT_DM_ADJ
 70
     0
  0
APPID
  5
24E
330
8
100
AcDbSymbolTableRecord
100
AcDbRegAppTableRecord
  2
ACAD_DSTYLE_DIMARC_LENGTH_SYMBOL
 70
     0
  0
APPID
  5
24F
330
8
100
AcDbSymbolTableRecord
100
AcDbRegAppTableRecord
  2
ACAD_DSTYLE_DIMJOGGED_JOGANGLE_SYMBOL
 70
     0
  0
APPID
  5
27C
330
8
100
AcDbSymbolTableRecord
100
AcDbRegAppTableRecord
  2
AcAecLayerStandard
 70
     0
  0
ENDTAB
  0
TABLE
  2
DIMSTYLE
  5
9
330
0
100
AcDbSymbolTable
 70
    12
100
AcDbDimStyleTable
 71
     0
  0
DIMSTYLE
105
18
330
9
100
AcDbSymbolTableRecord
100
AcDbDimStyleTableRecord
  2
STANDARD
 70
     0
289
     0
340
17
  0
DIMSTYLE
105
27
102
{ACAD_REACTORS
330
2A
102
}
330
9
100
AcDbSymbolTableRecord
100
AcDbDimStyleTableRecord
  2
DIMSTYLE1
 70
     0
 41
0.0125
 44
0.0125
140
0.0125
289
     0
340
17
  0
DIMSTYLE
105
37
102
{ACAD_REACTORS
330
3A
102
}
330
9
100
AcDbSymbolTableRecord
100
AcDbDimStyleTableRecord
  2
DIMSTYLE2
 70
     0
 41
0.0125
 44
0.0125
140
0.0125
289
     0
340
17
  0
DIMSTYLE
105
46
102
{ACAD_REACTORS
330
49
102
}
330
9
100
AcDbSymbolTableRecord
100
AcDbDimStyleTableRecord
  2
DIMSTYLE3
 70
     0
 41
0.0125
 44
0.0125
140
0.0125
289
     0
340
17
  0
DIMSTYLE
105
55
102
{ACAD_REACTORS
330
58
102
}
330
9
100
AcDbSymbolTableRecord
100
AcDbDimStyleTableRecord
  2
DIMSTYLE4
 70
     0
 41
0.0125
 44
0.0125
140
0.0125
289
     0
340
17
  0
DIMSTYLE
105
64
102
{ACAD_REACTORS
330
67
102
}
330
9
100
AcDbSymbolTableRecord
100
AcDbDimStyleTableRecord
  2
DIMSTYLE5
 70
     0
 41
0.0125
 44
0.0125
140
0.0125
289
     0
340
17
  0
DIMSTYLE
105
24D
330
9
100
AcDbSymbolTableRecord
100
AcDbDimStyleTableRecord
  2
AM_ANSI
 70
     0
  4
mm
 41
0.1
 42
0.05
 43
0.5
 44
0.1
 47
0.1
 48
0.1
 78
     7
 79
     2
140
0.12
141
0.0
146
0.71
147
0.06
176
   256
177
   256
178
     2
274
     4
284
     7
340
17
371
    -1
372
    -1
1001
ACAD_DSTYLE_DIMARC_LENGTH_SYMBOL
1070
   379
1070
     1
1001
ACAD_DSTYLE_DIMJOGGED_JOGANGLE_SYMBOL
1070
   384
1040
0.7853981633974483
  0
DIMSTYLE
105
256
330
9
100
AcDbSymbolTableRecord
100
AcDbDimStyleTableRecord
  2
AM_ANSI$3
 70
     0
  4
mm
 41
0.1
 42
0.05
 43
0.5
 44
0.1
 47
0.1
 48
0.1
 78
     7
 79
     2
140
0.12
141
0.0
146
0.71
147
0.06
176
   256
177
   256
178
     2
274
     4
284
     7
288
     1
289
     0
340
17
371
    -1
372
    -1
1001
ACAD_DSTYLE_DIMARC_LENGTH_SYMBOL
1070
   379
1070
     1
1001
ACAD_DSTYLE_DIMJOGGED_JOGANGLE_SYMBOL
1070
   384
1040
0.7853981633974483
  0
DIMSTYLE
105
259
330
9
100
AcDbSymbolTableRecord
100
AcDbDimStyleTableRecord
  2
AM_ANSI$4
 70
     0
  4
mm
 41
0.1
 42
0.05
 43
0.5
 44
0.1
 47
0.1
 48
0.1
 78
     7
 79
     2
140
0.12
141
0.0
146
0.71
147
0.06
176
   256
177
   256
178
     2
274
     4
284
     7
288
     1
289
     0
340
17
371
    -1
372
    -1
1001
ACAD_DSTYLE_DIMARC_LENGTH_SYMBOL
1070
   379
1070
     1
1001
ACAD_DSTYLE_DIMJOGGED_JOGANGLE_SYMBOL
1070
   384
1040
0.7853981633974483
  0
DIMSTYLE
105
25E
330
9
100
AcDbSymbolTableRecord
100
AcDbDimStyleTableRecord
  2
AM_ANSI$7
 70
     0
  4
mm
 41
0.1
 42
0.05
 43
0.5
 44
0.1
 47
0.1
 48
0.1
 78
     7
 79
     2
140
0.24
141
0.0
146
0.71
147
0.06
176
   256
177
   256
178
     2
274
     4
284
     7
340
17
371
    -1
372
    -1
1001
ACAD_DSTYLE_DIMARC_LENGTH_SYMBOL
1070
   379
1070
     1
1001
ACAD_DSTYLE_DIMJOGGED_JOGANGLE_SYMBOL
1070
   384
1040
0.7853981633974483
  0
DIMSTYLE
105
261
330
9
100
AcDbSymbolTableRecord
100
AcDbDimStyleTableRecord
  2
AM_ANSI$SF
 70
     0
  4
mm
 41
0.1
 42
0.05
 43
0.5
 44
0.1
 47
0.1
 48
0.1
 75
     1
 76
     1
 78
     7
 79
     2
140
0.12
141
0.0
146
0.71
147
0.06
176
   256
177
   256
178
     2
274
     4
284
     7
340
17
371
    -1
372
    -1
1001
ACAD_DSTYLE_DIMARC_LENGTH_SYMBOL
1070
   379
1070
     1
1001
ACAD_DSTYLE_DIMJOGGED_JOGANGLE_SYMBOL
1070
   384
1040
0.7853981633974483
  0
DIMSTYLE
105
268
330
9
100
AcDbSymbolTableRecord
100
AcDbDimStyleTableRecord
  2
AM_ANSI$SH
 70
     0
  4
mm
 41
0.1
 42
0.05
 43
0.5
 44
0.1
 47
0.1
 48
0.1
 75
     1
 76
     1
 78
     7
 79
     2
140
0.12
141
0.0
146
0.71
147
0.06
173
     1
176
   256
177
   256
178
     2
274
     4
284
     7
340
17
343
262
371
    -1
372
    -1
1001
ACAD_DSTYLE_DIMARC_LENGTH_SYMBOL
1070
   379
1070
     1
1001
ACAD_DSTYLE_DIMJOGGED_JOGANGLE_SYMBOL
1070
   384
1040
0.7853981633974483
  0
ENDTAB
  0
TABLE
  2
BLOCK_RECORD
  5
1
330
0
100
AcDbSymbolTable
 70
     7
  0
BLOCK_RECORD
  5
A
102
{ACAD_XDICTIONARY
360
26E
102
}
330
1
100
AcDbSymbolTableRecord
100
AcDbBlockTableRecord
  2
*MODEL_SPACE
340
DF
  0
BLOCK_RECORD
  5
B
330
1
100
AcDbSymbolTableRecord
100
AcDbBlockTableRecord
  2
*PAPER_SPACE
340
E0
  0
BLOCK_RECORD
  5
28
330
1
100
AcDbSymbolTableRecord
100
AcDbBlockTableRecord
  2
*D0
340
0
  0
BLOCK_RECORD
  5
38
330
1
100
AcDbSymbolTableRecord
100
AcDbBlockTableRecord
  2
*D1
340
0
  0
BLOCK_RECORD
  5
47
330
1
100
AcDbSymbolTableRecord
100
AcDbBlockTableRecord
  2
*D2
340
0
  0
BLOCK_RECORD
  5
56
330
1
100
AcDbSymbolTableRecord
100
AcDbBlockTableRecord
  2
*D3
340
0
  0
BLOCK_RECORD
  5
65
330
1
100
AcDbSymbolTableRecord
100
AcDbBlockTableRecord
  2
*D4
340
0
  0
BLOCK_RECORD
  5
20F
330
1
100
AcDbSymbolTableRecord
100
AcDbBlockTableRecord
  2
*U5
340
0
  0
BLOCK_RECORD
  5
262
330
1
100
AcDbSymbolTableRecord
100
AcDbBlockTableRecord
  2
GENAXEH
340
0
  0
ENDTAB
  0
ENDSEC
  0
SECTION
  2
BLOCKS
  0
BLOCK
  5
D
330
A
100
AcDbEntity
  8
0
100
AcDbBlockBegin
  2
*MODEL_SPACE
 70
     0
 10
0.0
 20
0.0
 30
0.0
  3
*MODEL_SPACE
  1

  0
ENDBLK
  5
E
330
A
100
AcDbEntity
  8
0
100
AcDbBlockEnd
  0
BLOCK
  5
F
330
B
100
AcDbEntity
 67
     1
  8
0
100
AcDbBlockBegin
  2
*PAPER_SPACE
 70
     0
 10
0.0
 20
0.0
 30
0.0
  3
*PAPER_SPACE
  1

  0
ENDBLK
  5
10
330
B
100
AcDbEntity
 67
     1
  8
0
100
AcDbBlockEnd
  0
BLOCK
  5
29
330
28
100
AcDbEntity
  8
0
100
AcDbBlockBegin
  2
*D0
 70
     1
 10
0.0
 20
0.0
 30
0.0
  3
*D0
  1

  0
LINE
  5
30B
330
28
100
AcDbEntity
  8
DIMENSIONS
  6
Continuous
 62
     0
370
    -2
100
AcDbLine
 10
6.988904558604153
 20
3.569750133663251
 30
0.0
 11
7.030927803820625
 21
3.569750133663251
 31
0.0
  0
LINE
  5
30C
330
28
100
AcDbEntity
  8
DIMENSIONS
  6
Continuous
 62
     0
370
    -2
100
AcDbLine
 10
6.988904558604153
 20
3.599750133663251
 30
0.0
 11
7.030927803820625
 21
3.59975013366325
 31
0.0
  0
LINE
  5
30D
330
28
100
AcDbEntity
  8
DIMENSIONS
  6
Continuous
 62
     0
370
    -2
100
AcDbLine
 10
7.018427803820625
 20
3.55725013366325
 30
0.0
 11
7.018427803820625
 21
3.544750133663251
 31
0.0
  0
LINE
  5
30E
330
28
100
AcDbEntity
  8
DIMENSIONS
  6
Continuous
 62
     0
370
    -2
100
AcDbLine
 10
7.018427803820625
 20
3.612250133663251
 30
0.0
 11
7.018427803820625
 21
3.62475013366325
 31
0.0
  0
LINE
  5
30F
330
28
100
AcDbEntity
  8
DIMENSIONS
  6
Continuous
 62
     0
370
    -2
100
AcDbLine
 10
7.018427803820625
 20
3.62475013366325
 30
0.0
 11
7.030927803820625
 21
3.62475013366325
 31
0.0
  0
SOLID
  5
310
330
28
100
AcDbEntity
  8
DIMENSIONS
  6
Continuous
 62
     0
100
AcDbTrace
 10
7.016344470487291
 20
3.55725013366325
 30
0.0
 11
7.020511137153958
 21
3.55725013366325
 31
0.0
 12
7.018427803820625
 22
3.569750133663251
 32
0.0
 13
7.018427803820625
 23
3.569750133663251
 33
0.0
  0
SOLID
  5
311
330
28
100
AcDbEntity
  8
DIMENSIONS
  6
Continuous
 62
     0
100
AcDbTrace
 10
7.016344470487291
 20
3.612250133663251
 30
0.0
 11
7.020511137153958
 21
3.612250133663251
 31
0.0
 12
7.018427803820625
 22
3.59975013366325
 32
0.0
 13
7.018427803820625
 23
3.59975013366325
 33
0.0
  0
MTEXT
  5
312
330
28
100
AcDbEntity
  8
DIMENSIONS
  6
Continuous
 62
     0
100
AcDbMText
 10
7.067011137153957
 20
3.624750133663252
 30
0.0
 40
0.0125
 41
0.0
 71
     5
 72
     1
  1
\A1;0.0300
 73
     1
 44
1.0
  0
POINT
  5
313
330
28
100
AcDbEntity
  8
DEFPOINTS
  6
Continuous
 62
     0
100
AcDbPoint
 10
6.926404558604153
 20
3.569750133663251
 30
0.0
  0
POINT
  5
314
330
28
100
AcDbEntity
  8
DEFPOINTS
  6
Continuous
 62
     0
100
AcDbPoint
 10
6.926404558604153
 20
3.599750133663251
 30
0.0
  0
POINT
  5
315
330
28
100
AcDbEntity
  8
DEFPOINTS
  6
Continuous
 62
     0
100
AcDbPoint
 10
7.018427803820625
 20
3.59975013366325
 30
0.0
  0
ENDBLK
  5
36
330
28
100
AcDbEntity
  8
0
100
AcDbBlockEnd
  0
BLOCK
  5
39
330
38
100
AcDbEntity
  8
0
100
AcDbBlockBegin
  2
*D1
 70
     1
 10
0.0
 20
0.0
 30
0.0
  3
*D1
  1

  0
LINE
  5
300
330
38
100
AcDbEntity
  8
DIMENSIONS
  6
Continuous
 62
     0
370
    -2
100
AcDbLine
 10
6.898524195468128
 20
3.7147013213014
 30
0.0
 11
6.866981516491848
 21
3.745530006203183
 31
0.0
  0
LINE
  5
301
330
38
100
AcDbEntity
  8
DIMENSIONS
  6
Continuous
 62
     0
370
    -2
100
AcDbLine
 10
6.884544867389622
 20
3.700398231199142
 30
0.0
 11
6.853002188413343
 21
3.731226916100923
 31
0.0
  0
LINE
  5
302
330
38
100
AcDbEntity
  8
DIMENSIONS
  6
Continuous
 62
     0
370
    -2
100
AcDbLine
 10
6.866779165227
 20
3.763206517566164
 30
0.0
 11
6.875516245276068
 21
3.772145948880079
 31
0.0
  0
LINE
  5
303
330
38
100
AcDbEntity
  8
DIMENSIONS
  6
Continuous
 62
     0
370
    -2
100
AcDbLine
 10
6.83532567705036
 20
3.731024564836075
 30
0.0
 11
6.826588597001294
 21
3.722085133522162
 31
0.0
  0
LINE
  5
304
330
38
100
AcDbEntity
  8
DIMENSIONS
  6
Continuous
 62
     0
370
    -2
100
AcDbLine
 10
6.826588597001294
 20
3.722085133522162
 30
0.0
 11
6.814088597001295
 21
3.722085133522162
 31
0.0
  0
SOLID
  5
305
330
38
100
AcDbEntity
  8
DIMENSIONS
  6
Continuous
 62
     0
100
AcDbTrace
 10
6.865289260008014
 20
3.764662697574342
 30
0.0
 11
6.868269070445986
 21
3.761750337557986
 31
0.0
 12
6.858042085177933
 22
3.75426708625225
 32
0.0
 13
6.858042085177933
 23
3.75426708625225
 33
0.0
  0
SOLID
  5
306
330
38
100
AcDbEntity
  8
DIMENSIONS
  6
Continuous
 62
     0
100
AcDbTrace
 10
6.833835771831375
 20
3.732480744844253
 30
0.0
 11
6.836815582269347
 21
3.729568384827897
 31
0.0
 12
6.844062757099428
 22
3.73996399614999
 32
0.0
 13
6.844062757099428
 23
3.73996399614999
 33
0.0
  0
MTEXT
  5
307
330
38
100
AcDbEntity
  8
DIMENSIONS
  6
Continuous
 62
     0
100
AcDbMText
 10
6.778005263667961
 20
3.722085133522162
 30
0.0
 40
0.0125
 41
0.0
 71
     5
 72
     1
  1
\A1;0.0200
 73
     1
 44
1.0
  0
POINT
  5
308
330
38
100
AcDbEntity
  8
DEFPOINTS
  6
Continuous
 62
     0
100
AcDbPoint
 10
6.853827038898556
 20
3.758386721546736
 30
0.0
  0
POINT
  5
309
330
38
100
AcDbEntity
  8
DEFPOINTS
  6
Continuous
 62
     0
100
AcDbPoint
 10
6.83984771082005
 20
3.744083631444478
 30
0.0
  0
POINT
  5
30A
330
38
100
AcDbEntity
  8
DEFPOINTS
  6
Continuous
 62
     0
100
AcDbPoint
 10
6.844062757099428
 20
3.73996399614999
 30
0.0
  0
ENDBLK
  5
45
330
38
100
AcDbEntity
  8
0
100
AcDbBlockEnd
  0
BLOCK
  5
48
330
47
100
AcDbEntity
  8
0
100
AcDbBlockBegin
  2
*D2
 70
     1
 10
0.0
 20
0.0
 30
0.0
  3
*D2
  1

  0
LINE
  5
316
330
47
100
AcDbEntity
  8
DIMENSIONS
  6
Continuous
 62
     0
370
    -2
100
AcDbLine
 10
6.666404558604154
 20
3.517250133663251
 30
0.0
 11
6.666404558604154
 21
3.47682993057412
 31
0.0
  0
LINE
  5
317
330
47
100
AcDbEntity
  8
DIMENSIONS
  6
Continuous
 62
     0
370
    -2
100
AcDbLine
 10
6.936404558604153
 20
3.517250133663251
 30
0.0
 11
6.936404558604153
 21
3.47682993057412
 31
0.0
  0
LINE
  5
318
330
47
100
AcDbEntity
  8
DIMENSIONS
  6
Continuous
 62
     0
370
    -2
100
AcDbLine
 10
6.678904558604154
 20
3.48932993057412
 30
0.0
 11
6.764279558604154
 21
3.48932993057412
 31
0.0
  0
LINE
  5
319
330
47
100
AcDbEntity
  8
DIMENSIONS
  6
Continuous
 62
     0
370
    -2
100
AcDbLine
 10
6.923904558604153
 20
3.48932993057412
 30
0.0
 11
6.838529558604153
 21
3.48932993057412
 31
0.0
  0
SOLID
  5
31A
330
47
100
AcDbEntity
  8
DIMENSIONS
  6
Continuous
 62
     0
100
AcDbTrace
 10
6.678904558604154
 20
3.491413263907453
 30
0.0
 11
6.678904558604154
 21
3.487246597240787
 31
0.0
 12
6.666404558604154
 22
3.48932993057412
 32
0.0
 13
6.666404558604154
 23
3.48932993057412
 33
0.0
  0
SOLID
  5
31B
330
47
100
AcDbEntity
  8
DIMENSIONS
  6
Continuous
 62
     0
100
AcDbTrace
 10
6.923904558604153
 20
3.491413263907453
 30
0.0
 11
6.923904558604153
 21
3.487246597240787
 31
0.0
 12
6.936404558604153
 22
3.48932993057412
 32
0.0
 13
6.936404558604153
 23
3.48932993057412
 33
0.0
  0
MTEXT
  5
31C
330
47
100
AcDbEntity
  8
DIMENSIONS
  6
Continuous
 62
     0
100
AcDbMText
 10
6.801404558604153
 20
3.48932993057412
 30
0.0
 40
0.0125
 41
0.0
 71
     5
 72
     1
  1
\A1;0.2700
 73
     1
 44
1.0
  0
POINT
  5
31D
330
47
100
AcDbEntity
  8
DEFPOINTS
  6
Continuous
 62
     0
100
AcDbPoint
 10
6.666404558604154
 20
3.579750133663251
 30
0.0
  0
POINT
  5
31E
330
47
100
AcDbEntity
  8
DEFPOINTS
  6
Continuous
 62
     0
100
AcDbPoint
 10
6.936404558604153
 20
3.579750133663251
 30
0.0
  0
POINT
  5
31F
330
47
100
AcDbEntity
  8
DEFPOINTS
  6
Continuous
 62
     0
100
AcDbPoint
 10
6.936404558604153
 20
3.48932993057412
 30
0.0
  0
ENDBLK
  5
54
330
47
100
AcDbEntity
  8
0
100
AcDbBlockEnd
  0
BLOCK
  5
57
330
56
100
AcDbEntity
  8
0
100
AcDbBlockBegin
  2
*D3
 70
     1
 10
0.0
 20
0.0
 30
0.0
  3
*D3
  1

  0
LINE
  5
2F6
330
56
100
AcDbEntity
  8
DIMENSIONS
  6
Continuous
 62
     0
370
    -2
100
AcDbLine
 10
6.621661989535578
 20
3.836413576298678
 30
0.0
 11
6.562184867268448
 21
3.836413576298678
 31
0.0
  0
LINE
  5
2F7
330
56
100
AcDbEntity
  8
DIMENSIONS
  6
Continuous
 62
     0
370
    -2
100
AcDbLine
 10
6.613904558604153
 20
3.599750133663251
 30
0.0
 11
6.562184867268448
 21
3.599750133663251
 31
0.0
  0
LINE
  5
2F8
330
56
100
AcDbEntity
  8
DIMENSIONS
  6
Continuous
 62
     0
370
    -2
100
AcDbLine
 10
6.574684867268448
 20
3.823913576298678
 30
0.0
 11
6.574684867268448
 21
3.733331854980965
 31
0.0
  0
LINE
  5
2F9
330
56
100
AcDbEntity
  8
DIMENSIONS
  6
Continuous
 62
     0
370
    -2
100
AcDbLine
 10
6.574684867268448
 20
3.612250133663251
 30
0.0
 11
6.574684867268448
 21
3.702831854980965
 31
0.0
  0
SOLID
  5
2FA
330
56
100
AcDbEntity
  8
DIMENSIONS
  6
Continuous
 62
     0
100
AcDbTrace
 10
6.572601533935115
 20
3.823913576298678
 30
0.0
 11
6.576768200601781
 21
3.823913576298678
 31
0.0
 12
6.574684867268448
 22
3.836413576298678
 32
0.0
 13
6.574684867268448
 23
3.836413576298678
 33
0.0
  0
SOLID
  5
2FB
330
56
100
AcDbEntity
  8
DIMENSIONS
  6
Continuous
 62
     0
100
AcDbTrace
 10
6.572601533935115
 20
3.612250133663251
 30
0.0
 11
6.576768200601781
 21
3.612250133663251
 31
0.0
 12
6.574684867268448
 22
3.599750133663251
 32
0.0
 13
6.574684867268448
 23
3.599750133663251
 33
0.0
  0
MTEXT
  5
2FC
330
56
100
AcDbEntity
  8
DIMENSIONS
  6
Continuous
 62
     0
100
AcDbMText
 10
6.574684867268447
 20
3.718081854980966
 30
0.0
 40
0.0125
 41
0.0
 71
     5
 72
     1
  1
\A1;0.2367
 73
     1
 44
1.0
  0
POINT
  5
2FD
330
56
100
AcDbEntity
  8
DEFPOINTS
  6
Continuous
 62
     0
100
AcDbPoint
 10
6.684161989535578
 20
3.836413576298678
 30
0.0
  0
POINT
  5
2FE
330
56
100
AcDbEntity
  8
DEFPOINTS
  6
Continuous
 62
     0
100
AcDbPoint
 10
6.676404558604153
 20
3.599750133663251
 30
0.0
  0
POINT
  5
2FF
330
56
100
AcDbEntity
  8
DEFPOINTS
  6
Continuous
 62
     0
100
AcDbPoint
 10
6.574684867268448
 20
3.599750133663251
 30
0.0
  0
ENDBLK
  5
63
330
56
100
AcDbEntity
  8
0
100
AcDbBlockEnd
  0
BLOCK
  5
66
330
65
100
AcDbEntity
  8
0
100
AcDbBlockBegin
  2
*D4
 70
     1
 10
0.0
 20
0.0
 30
0.0
  3
*D4
  1

  0
LINE
  5
2EC
330
65
100
AcDbEntity
  8
DIMENSIONS
  6
Continuous
 62
     0
370
    -2
100
AcDbLine
 10
6.613904558604153
 20
3.599750133663251
 30
0.0
 11
6.47468392942387
 21
3.599750133663251
 31
0.0
  0
LINE
  5
2ED
330
65
100
AcDbEntity
  8
DIMENSIONS
  6
Continuous
 62
     0
370
    -2
100
AcDbLine
 10
6.528904558604153
 20
3.894750133663251
 30
0.0
 11
6.47468392942387
 21
3.894750133663251
 31
0.0
  0
LINE
  5
2EE
330
65
100
AcDbEntity
  8
DIMENSIONS
  6
Continuous
 62
     0
370
    -2
100
AcDbLine
 10
6.48718392942387
 20
3.612250133663251
 30
0.0
 11
6.48718392942387
 21
3.732000133663251
 31
0.0
  0
LINE
  5
2EF
330
65
100
AcDbEntity
  8
DIMENSIONS
  6
Continuous
 62
     0
370
    -2
100
AcDbLine
 10
6.48718392942387
 20
3.882250133663251
 30
0.0
 11
6.48718392942387
 21
3.762500133663251
 31
0.0
  0
SOLID
  5
2F0
330
65
100
AcDbEntity
  8
DIMENSIONS
  6
Continuous
 62
     0
100
AcDbTrace
 10
6.485100596090537
 20
3.612250133663251
 30
0.0
 11
6.489267262757203
 21
3.612250133663251
 31
0.0
 12
6.48718392942387
 22
3.599750133663251
 32
0.0
 13
6.48718392942387
 23
3.599750133663251
 33
0.0
  0
SOLID
  5
2F1
330
65
100
AcDbEntity
  8
DIMENSIONS
  6
Continuous
 62
     0
100
AcDbTrace
 10
6.485100596090537
 20
3.882250133663251
 30
0.0
 11
6.489267262757203
 21
3.882250133663251
 31
0.0
 12
6.48718392942387
 22
3.894750133663251
 32
0.0
 13
6.48718392942387
 23
3.894750133663251
 33
0.0
  0
MTEXT
  5
2F2
330
65
100
AcDbEntity
  8
DIMENSIONS
  6
Continuous
 62
     0
100
AcDbMText
 10
6.487183929423869
 20
3.747250133663252
 30
0.0
 40
0.0125
 41
0.0
 71
     5
 72
     1
  1
\A1;0.2950
 73
     1
 44
1.0
  0
POINT
  5
2F3
330
65
100
AcDbEntity
  8
DEFPOINTS
  6
Continuous
 62
     0
100
AcDbPoint
 10
6.676404558604153
 20
3.599750133663251
 30
0.0
  0
POINT
  5
2F4
330
65
100
AcDbEntity
  8
DEFPOINTS
  6
Continuous
 62
     0
100
AcDbPoint
 10
6.591404558604153
 20
3.894750133663251
 30
0.0
  0
POINT
  5
2F5
330
65
100
AcDbEntity
  8
DEFPOINTS
  6
Continuous
 62
     0
100
AcDbPoint
 10
6.48718392942387
 20
3.894750133663251
 30
0.0
  0
ENDBLK
  5
72
330
65
100
AcDbEntity
  8
0
100
AcDbBlockEnd
  0
BLOCK
  5
210
330
20F
100
AcDbEntity
  8
0
 62
     1
100
AcDbBlockBegin
  2
*U5
 70
     1
 10
0.0
 20
0.0
 30
0.0
  3
*U5
  1

  0
ENDBLK
  5
211
330
20F
100
AcDbEntity
  8
0
 62
     1
100
AcDbBlockEnd
  0
BLOCK
  5
264
330
262
100
AcDbEntity
  8
0
 62
     1
100
AcDbBlockBegin
  2
GENAXEH
 70
     0
 10
0.0
 20
0.0
 30
0.0
  3
GENAXEH
  1

  0
LINE
  5
263
330
262
100
AcDbEntity
  8
0
100
AcDbLine
 10
-1.0
 20
0.0
 30
0.0
 11
1.0
 21
0.0
 31
0.0
  0
ENDBLK
  5
265
330
262
100
AcDbEntity
  8
0
 62
     1
100
AcDbBlockEnd
  0
ENDSEC
  0
SECTION
  2
ENTITIES
  0
DIMENSION
  5
2A
330
A
100
AcDbEntity
  8
DIMENSIONS
  6
Continuous
 62
     1
100
AcDbDimension
  2
*D0
 10
7.018427803820625
 20
3.59975013366325
 30
0.0
 11
7.067011137153957
 21
3.624750133663252
 31
0.0
 70
    32
 71
     5
 42
0.0299999999999998
  3
DIMSTYLE1
100
AcDbAlignedDimension
 13
6.926404558604153
 23
3.569750133663251
 33
0.0
 14
6.926404558604153
 24
3.599750133663251
 34
0.0
 50
90.0
100
AcDbRotatedDimension
1001
ACAD
1000
DSTYLE
1002
{
1070
   147
1040
0.009
1002
}
  0
DIMENSION
  5
3A
330
A
100
AcDbEntity
  8
DIMENSIONS
  6
Continuous
 62
     1
100
AcDbDimension
  2
*D1
 10
6.844062757099428
 20
3.73996399614999
 30
0.0
 11
6.778005263667961
 21
3.722085133522162
 31
0.0
 70
    32
 71
     5
 42
0.019999999999996
  3
DIMSTYLE2
100
AcDbAlignedDimension
 13
6.853827038898556
 23
3.758386721546736
 33
0.0
 14
6.83984771082005
 24
3.744083631444477
 34
0.0
 50
225.6558628464022
100
AcDbRotatedDimension
1001
ACAD
1000
DSTYLE
1002
{
1070
   147
1040
0.009
1002
}
  0
DIMENSION
  5
49
330
A
100
AcDbEntity
  8
DIMENSIONS
  6
Continuous
 62
     1
100
AcDbDimension
  2
*D2
 10
6.936404558604153
 20
3.48932993057412
 30
0.0
 11
6.801404558604153
 21
3.48932993057412
 31
0.0
 70
    32
 71
     5
 42
0.2699999999999996
  3
DIMSTYLE3
100
AcDbAlignedDimension
 13
6.666404558604154
 23
3.579750133663251
 33
0.0
 14
6.936404558604153
 24
3.579750133663251
 34
0.0
100
AcDbRotatedDimension
1001
ACAD
1000
DSTYLE
1002
{
1070
   147
1040
0.009
1002
}
  0
DIMENSION
  5
58
330
A
100
AcDbEntity
  8
DIMENSIONS
  6
Continuous
 62
     1
100
AcDbDimension
  2
*D3
 10
6.574684867268448
 20
3.599750133663251
 30
0.0
 11
6.574684867268447
 21
3.718081854980966
 31
0.0
 70
    32
 71
     5
 42
0.2366634426354275
  3
DIMSTYLE4
100
AcDbAlignedDimension
 13
6.684161989535578
 23
3.836413576298678
 33
0.0
 14
6.676404558604153
 24
3.599750133663251
 34
0.0
 50
90.0
100
AcDbRotatedDimension
1001
ACAD
1000
DSTYLE
1002
{
1070
   147
1040
0.009
1002
}
  0
DIMENSION
  5
67
330
A
100
AcDbEntity
  8
DIMENSIONS
  6
Continuous
 62
     1
100
AcDbDimension
  2
*D4
 10
6.48718392942387
 20
3.894750133663251
 30
0.0
 11
6.487183929423869
 21
3.747250133663252
 31
0.0
 70
    32
 71
     5
 42
0.2950000000000004
  3
DIMSTYLE5
100
AcDbAlignedDimension
 13
6.676404558604153
 23
3.599750133663251
 33
0.0
 14
6.591404558604153
 24
3.894750133663251
 34
0.0
 50
90.0
100
AcDbRotatedDimension
1001
ACAD
1000
DSTYLE
1002
{
1070
   147
1040
0.009
1002
}
  0
ARC
  5
B5
330
A
100
AcDbEntity
  8
PRODUCT
  6
Continuous
 62
     5
100
AcDbCircle
 10
6.606416352327258
 20
3.798707093191454
 30
0.0
 40
0.05
100
AcDbArc
 50
359.0724302397825
 51
405.9514080347356
  0
ARC
  5
B6
330
A
100
AcDbEntity
  8
PRODUCT
  6
Continuous
 62
     5
100
AcDbCircle
 10
6.684161989535578
 20
3.886413576298678
 30
0.0
 40
0.05
100
AcDbArc
 50
231.6009457682331
 51
277.8180998701241
  0
ARC
  5
B7
330
A
100
AcDbEntity
  8
PRODUCT
  6
Continuous
 62
     5
100
AcDbCircle
 10
6.936410087970489
 20
3.875005999878127
 30
0.0
 40
0.2722867988168241
100
AcDbArc
 50
197.9510441559611
 51
231.5871065618309
  0
ARC
  5
B8
330
A
100
AcDbEntity
  8
PRODUCT
  6
Continuous
 62
     5
100
AcDbCircle
 10
6.649528386214704
 20
3.549356500587782
 30
0.0
 40
0.2722867988168241
100
AcDbArc
 50
45.65586284640316
 51
79.29192525227289
  0
ARC
  5
B9
330
A
100
AcDbEntity
  8
PRODUCT
  6
Continuous
 62
     5
100
AcDbCircle
 10
6.936410087970483
 20
3.875005999878124
 30
0.0
 40
0.2922867988168171
100
AcDbArc
 50
197.9510441559604
 51
231.5871065618312
  0
ARC
  5
BA
330
A
100
AcDbEntity
  8
PRODUCT
  6
Continuous
 62
     5
100
AcDbCircle
 10
6.649528386214702
 20
3.54935650058778
 30
0.0
 40
0.2922867988168265
100
AcDbArc
 50
45.65586284640316
 51
79.29192525227257
  0
ARC
  5
BB
330
A
100
AcDbEntity
  8
PRODUCT
  6
Continuous
 62
     5
100
AcDbCircle
 10
6.801404558604153
 20
3.704750133663251
 30
0.0
 40
0.075
100
AcDbArc
 50
231.5871065618312
 51
252.8953648233567
  0
ARC
  5
BC
330
A
100
AcDbEntity
  8
PRODUCT
  6
Continuous
 62
     5
100
AcDbCircle
 10
6.826404558604153
 20
3.623509749616891
 30
0.0
 40
0.01
100
AcDbArc
 50
107.1046351766387
 51
180.0000000000025
  0
ARC
  5
BD
330
A
100
AcDbEntity
  8
PRODUCT
  6
Continuous
 62
     5
100
AcDbCircle
 10
6.776404558604154
 20
3.623509749616891
 30
0.0
 40
0.01
100
AcDbArc
 50
0.0
 51
72.89536482335413
  0
LINE
  5
BE
330
A
100
AcDbEntity
  8
PRODUCT
  6
Continuous
 62
     5
100
AcDbLine
 10
6.666404558604154
 20
3.589750133663251
 30
0.0
 11
6.666404558604154
 21
3.579750133663251
 31
0.0
  0
ARC
  5
BF
330
A
100
AcDbEntity
  8
PRODUCT
  6
Continuous
 62
     5
100
AcDbCircle
 10
6.676404558604153
 20
3.589750133663251
 30
0.0
 40
0.01
100
AcDbArc
 50
90.0
 51
180.0
  0
ARC
  5
C0
330
A
100
AcDbEntity
  8
PRODUCT
  6
Continuous
 62
     5
100
AcDbCircle
 10
6.676404558604153
 20
3.579750133663251
 30
0.0
 40
0.01
100
AcDbArc
 50
180.0
 51
270.0
  0
ARC
  5
C1
330
A
100
AcDbEntity
  8
PRODUCT
  6
Continuous
 62
     5
100
AcDbCircle
 10
6.926404558604153
 20
3.579750133663251
 30
0.0
 40
0.01
100
AcDbArc
 50
270.0
 51
360.0
  0
ARC
  5
C2
330
A
100
AcDbEntity
  8
PRODUCT
  6
Continuous
 62
     5
100
AcDbCircle
 10
6.926404558604153
 20
3.589750133663251
 30
0.0
 40
0.01
100
AcDbArc
 50
0.0
 51
90.0
  0
ARC
  5
C3
330
A
100
AcDbEntity
  8
PRODUCT
  6
Continuous
 62
     5
100
AcDbCircle
 10
6.806404558604153
 20
3.619750133663251
 30
0.0
 40
0.01
100
AcDbArc
 50
0.0
 51
90.0
  0
ARC
  5
C4
330
A
100
AcDbEntity
  8
PRODUCT
  6
Continuous
 62
     5
100
AcDbCircle
 10
6.796404558604153
 20
3.619750133663251
 30
0.0
 40
0.01
100
AcDbArc
 50
90.0
 51
180.0
  0
ARC
  5
C5
330
A
100
AcDbEntity
  8
PRODUCT
  6
Continuous
 62
     5
100
AcDbCircle
 10
6.776404558604154
 20
3.609750133663251
 30
0.0
 40
0.01
100
AcDbArc
 50
270.0
 51
360.0
  0
ARC
  5
C6
330
A
100
AcDbEntity
  8
PRODUCT
  6
Continuous
 62
     5
100
AcDbCircle
 10
6.826404558604153
 20
3.609750133663251
 30
0.0
 40
0.01
100
AcDbArc
 50
180.0
 51
270.0
  0
LINE
  5
C7
330
A
100
AcDbEntity
  8
PRODUCT
  6
Continuous
 62
     5
100
AcDbLine
 10
6.776404558604154
 20
3.599750133663251
 30
0.0
 11
6.676404558604153
 21
3.599750133663251
 31
0.0
  0
ARC
  5
C8
330
A
100
AcDbEntity
  8
PRODUCT
  6
Continuous
 62
     5
100
AcDbCircle
 10
6.696404558604155
 20
3.797250133663251
 30
0.0
 40
0.04
100
AcDbArc
 50
179.0724302397822
 51
197.9510441559604
  0
LINE
  5
C9
330
A
100
AcDbEntity
  8
PRODUCT
  6
Continuous
 62
     5
100
AcDbLine
 10
6.587928217677639
 20
3.886156381618015
 30
0.0
 11
6.641179761592406
 21
3.834644613643813
 31
0.0
  0
LINE
  5
CA
330
A
100
AcDbEntity
  8
PRODUCT
  6
Continuous
 62
     5
100
AcDbLine
 10
6.594510232823886
 20
3.893668652215063
 30
0.0
 11
6.653105247338261
 21
3.847228390780559
 31
0.0
  0
ARC
  5
CB
330
A
100
AcDbEntity
  8
PRODUCT
  6
Continuous
 62
     5
100
AcDbCircle
 10
6.696404558604155
 20
3.797250133663251
 30
0.0
 40
0.02
100
AcDbArc
 50
79.29192525227289
 51
197.9510441559606
  0
ARC
  5
CC
330
A
100
AcDbEntity
  8
PRODUCT
  6
Continuous
 62
     5
100
AcDbCircle
 10
6.696404558604155
 20
3.797250133663251
 30
0.0
 40
0.04
100
AcDbArc
 50
79.29192525227259
 51
97.81809987012483
  0
ARC
  5
CD
330
A
100
AcDbEntity
  8
PRODUCT
  6
Continuous
 62
     5
100
AcDbCircle
 10
6.591404558604153
 20
3.889750133663251
 30
0.0
 40
0.005
100
AcDbArc
 50
51.60094576823305
 51
225.9514080347368
  0
ARC
  5
CE
330
A
100
AcDbEntity
  8
PRODUCT
  6
Continuous
 62
     5
100
AcDbCircle
 10
6.801404558604153
 20
3.704750133663251
 30
0.0
 40
0.055
100
AcDbArc
 50
231.5871065618305
 51
405.655862846403
  0
ARC
  5
CF
330
A
100
AcDbEntity
  8
PRODUCT
  6
Continuous
 62
     5
100
AcDbCircle
 10
6.801404558604153
 20
3.704750133663251
 30
0.0
 40
0.075
100
AcDbArc
 50
287.1046351766441
 51
405.655862846403
  0
LINE
  5
D0
330
A
100
AcDbEntity
  8
PRODUCT
  6
Continuous
 62
     5
100
AcDbLine
 10
6.786404558604154
 20
3.609750133663251
 30
0.0
 11
6.786404558604154
 21
3.62350974961689
 31
0.0
  0
LINE
  5
D1
330
A
100
AcDbEntity
  8
PRODUCT
  6
Continuous
 62
     5
100
AcDbLine
 10
6.816404558604153
 20
3.609750133663251
 30
0.0
 11
6.816404558604153
 21
3.623509749616891
 31
0.0
  0
LINE
  5
D2
330
A
100
AcDbEntity
  8
PRODUCT
  6
Continuous
 62
     5
100
AcDbLine
 10
6.806404558604153
 20
3.629750133663251
 30
0.0
 11
6.796404558604153
 21
3.629750133663251
 31
0.0
  0
LINE
  5
D3
330
A
100
AcDbEntity
  8
PRODUCT
  6
Continuous
 62
     5
100
AcDbLine
 10
6.936404558604153
 20
3.579750133663251
 30
0.0
 11
6.936404558604153
 21
3.589750133663251
 31
0.0
  0
LINE
  5
D4
330
A
100
AcDbEntity
  8
PRODUCT
  6
Continuous
 62
     5
100
AcDbLine
 10
6.926404558604153
 20
3.599750133663251
 30
0.0
 11
6.826404558604153
 21
3.599750133663251
 31
0.0
  0
LINE
  5
D5
330
A
100
AcDbEntity
  8
PRODUCT
  6
Continuous
 62
     5
100
AcDbLine
 10
6.926404558604153
 20
3.569750133663251
 30
0.0
 11
6.676404558604153
 21
3.569750133663251
 31
0.0
  0
ENDSEC
  0
SECTION
  2
OBJECTS
  0
DICTIONARY
  5
19
330
0
100
AcDbDictionary
281
     1
  3
ACAD_COLOR
350
152
  3
ACAD_GROUP
350
1A
  3
ACAD_LAYOUT
350
DD
  3
ACAD_MATERIAL
350
151
  3
ACAD_MLINESTYLE
350
1B
  3
ACAD_PLOTSETTINGS
350
DE
  3
ACAD_PLOTSTYLENAME
350
DB
  3
ACAD_TABLESTYLE
350
153
  3
AcDbVariableDictionary
350
13F
  3
AcmDictionary
350
219
  3
AMG
350
159
  3
AMGSNAPSETTINGS
350
283
  3
ASE_INDEX_DICTIONARY
350
E4
  3
MAPISURF_MODULE
350
1E5
  0
DICTIONARY
  5
27E
330
2
100
AcDbDictionary
280
     1
281
     1
  3
ACAD_LAYERFILTERS
360
2EB
  3
ACLYDICTIONARY
360
2EA
  0
DICTIONARY
  5
26E
330
A
100
AcDbDictionary
280
     1
281
     1
  3
ACAD_INDEX
360
26F
  0
DICTIONARY
  5
152
102
{ACAD_REACTORS
330
19
102
}
330
19
100
AcDbDictionary
281
     1
  0
DICTIONARY
  5
1A
102
{ACAD_REACTORS
330
19
102
}
330
19
100
AcDbDictionary
281
     1
  0
DICTIONARY
  5
DD
102
{ACAD_REACTORS
330
19
102
}
330
19
100
AcDbDictionary
281
     1
  3
Layout1
350
E0
  3
Model
350
DF
  0
DICTIONARY
  5
151
102
{ACAD_REACTORS
330
19
102
}
330
19
100
AcDbDictionary
281
     1
  0
DICTIONARY
  5
1B
102
{ACAD_REACTORS
330
19
102
}
330
19
100
AcDbDictionary
281
     1
  3
STANDARD
350
1C
  0
DICTIONARY
  5
DE
102
{ACAD_REACTORS
330
19
102
}
330
19
100
AcDbDictionary
281
     1
  0
ACDBDICTIONARYWDFLT
  5
DB
102
{ACAD_REACTORS
330
19
102
}
330
19
100
AcDbDictionary
281
     1
  3
Normal
350
DC
100
AcDbDictionaryWithDefault
340
DC
  0
DICTIONARY
  5
153
102
{ACAD_REACTORS
330
19
102
}
330
19
100
AcDbDictionary
281
     1
  3
Standard
350
154
  0
DICTIONARY
  5
13F
102
{ACAD_REACTORS
330
19
102
}
330
19
100
AcDbDictionary
281
     1
  3
CTABLESTYLE
350
27A
  3
DIMASSOC
350
140
  0
DICTIONARY
  5
219
102
{ACAD_REACTORS
330
19
102
}
330
19
100
AcDbDictionary
281
     1
  3
AcmBOMDATA
350
21A
  3
AcmStdDictionary
350
225
  3
AMDTSECTSYM_ARROWCOLOR
350
244
  0
DICTIONARY
  5
159
102
{ACAD_REACTORS
330
19
102
}
330
19
100
AcDbDictionary
281
     1
  3
AcMgSettings
350
15A
  3
AMGLAYCFG
350
227
  0
DICTIONARY
  5
283
102
{ACAD_REACTORS
330
19
102
}
330
19
100
AcDbDictionary
281
     1
  3
DIMENSION
350
288
  3
FEA
350
287
  3
HATCH (1)
350
284
  3
HATCH (2)
350
285
  3
SIMPLE WELD
350
289
  3
SYMBOLS
350
286
  0
DICTIONARY
  5
E4
102
{ACAD_REACTORS
330
19
102
}
330
19
100
AcDbDictionary
281
     1
  3
ASEBlockHierarchyIndexRecord
350
E6
1001
DCO15
1040
1538457625.773
  0
DICTIONARY
  5
2EB
102
{ACAD_REACTORS
330
27E
102
}
330
27E
100
AcDbDictionary
281
     1
  0
DICTIONARY
  5
2EA
102
{ACAD_REACTORS
330
27E
102
}
330
27E
100
AcDbDictionary
281
     1
1001
ACAD
1000
<All
  0
DICTIONARY
  5
26F
102
{ACAD_REACTORS
330
26E
102
}
330
26E
100
AcDbDictionary
281
     1
  3
*A1
350
270
  0
LAYOUT
  5
E0
102
{ACAD_REACTORS
330
DD
102
}
330
DD
100
AcDbPlotSettings
  1

  2
HP LaserJet 1100
  4

  6

 40
0.0
 41
0.0
 42
0.0
 43
0.0
 44
0.0
 45
0.0
 46
0.0
 47
0.0
 48
0.0
 49
0.0
140
0.0
141
0.0
142
1.0
143
1.0
 70
   688
 72
     0
 73
     0
 74
     5
  7

 75
    16
147
1.0
 76
     0
 77
     2
 78
   300
148
0.0
149
0.0
100
AcDbLayout
  1
Layout1
 70
     0
 71
     1
 10
0.0
 20
0.0
 11
12.0
 21
9.0
 12
0.0
 22
0.0
 32
0.0
 14
1.000000000000000E+20
 24
1.000000000000000E+20
 34
1.000000000000000E+20
 15
-1.000000000000000E+20
 25
-1.000000000000000E+20
 35
-1.000000000000000E+20
146
0.0
 13
0.0
 23
0.0
 33
0.0
 16
1.0
 26
0.0
 36
0.0
 17
0.0
 27
1.0
 37
0.0
 76
     0
330
B
  0
LAYOUT
  5
DF
102
{ACAD_REACTORS
330
DD
102
}
330
DD
100
AcDbPlotSettings
  1

  2
HP LaserJet 4V
  4
Letter
  6

 40
5.873749732971191
 41
10.95374488830566
 42
10.53041076660156
 43
13.49374389648437
 44
215.8999938964844
 45
279.3999938964844
 46
2.54
 47
0.0
 48
6.354044732734852
 49
3.137054067775252
140
7.154044732734852
141
4.187054067775251
142
1.0
143
0.1046077189487347
 70
 11956
 72
     0
 73
     0
 74
     4
  7

 75
     0
147
9.559524001188394
 76
     0
 77
     2
 78
   300
148
-161.3927362114652
149
-79.68117332149141
100
AcDbLayout
  1
Model
 70
     1
 71
     0
 10
0.0
 20
0.0
 11
12.0
 21
9.0
 12
0.0
 22
0.0
 32
0.0
 14
0.0
 24
0.0
 34
0.0
 15
0.0
 25
0.0
 35
0.0
146
0.0
 13
0.0
 23
0.0
 33
0.0
 16
1.0
 26
0.0
 36
0.0
 17
0.0
 27
1.0
 37
0.0
 76
     0
330
A
  0
MLINESTYLE
  5
1C
102
{ACAD_REACTORS
330
1B
102
}
330
1B
100
AcDbMlineStyle
  2
STANDARD
 70
     0
  3

 62
     0
 51
90.00000000000019
 52
90.00000000000019
 71
     2
 49
0.5
 62
   256
  6
BYLAYER
 49
-0.5
 62
   256
  6
BYLAYER
  0
ACDBPLACEHOLDER
  5
DC
102
{ACAD_REACTORS
330
DB
102
}
330
DB
  0
TABLESTYLE
  5
154
102
{ACAD_REACTORS
330
153
102
}
330
153
100
AcDbTableStyle
  3
Standard
 70
     0
 71
     0
 40
0.06
 41
0.06
280
     0
281
     0
  7
STANDARD
140
0.18
170
     2
 62
     0
 63
     7
283
     0
274
    -2
284
     1
 64
     0
275
    -2
285
     1
 65
     0
276
    -2
286
     1
 66
     0
277
    -2
287
     1
 67
     0
278
    -2
288
     1
 68
     0
279
    -2
289
     1
 69
     0
  7
STANDARD
140
0.25
170
     5
 62
     0
 63
     7
283
     0
274
    -2
284
     1
 64
     0
275
    -2
285
     1
 65
     0
276
    -2
286
     1
 66
     0
277
    -2
287
     1
 67
     0
278
    -2
288
     1
 68
     0
279
    -2
289
     1
 69
     0
  7
STANDARD
140
0.18
170
     5
 62
     0
 63
     7
283
     0
274
    -2
284
     1
 64
     0
275
    -2
285
     1
 65
     0
276
    -2
286
     1
 66
     0
277
    -2
287
     1
 67
     0
278
    -2
288
     1
 68
     0
279
    -2
289
     1
 69
     0
  0
DICTIONARYVAR
  5
27A
102
{ACAD_REACTORS
330
13F
102
}
330
13F
100
DictionaryVariables
280
     0
  1
STANDARD
  0
DICTIONARYVAR
  5
140
102
{ACAD_REACTORS
330
13F
102
}
330
13F
100
DictionaryVariables
280
     0
  1
1
  0
ACMDATADICTIONARY
  5
21A
102
{ACAD_REACTORS
330
219
102
}
330
219
100
AcDbDictionary
281
     1
  3
*A1
350
21B
100
AcmDataDictionary
  0
DICTIONARY
  5
225
102
{ACAD_REACTORS
330
219
102
}
330
219
100
AcDbDictionary
281
     1
  3
ANSI
350
226
  0
XRECORD
  5
244
102
{ACAD_REACTORS
330
219
102
}
330
219
100
AcDbXrecord
280
     1
 90
-1023410169
  0
DICTIONARY
  5
15A
102
{ACAD_REACTORS
330
159
102
}
330
159
100
AcDbDictionary
281
     1
  3
DWGSETTINGS
350
15B
  3
TRANSSETTINGS
350
15F
  0
ACAMGFILTERDAT
  5
288
102
{ACAD_REACTORS
330
283
102
}
330
283
100
AcAmgFilterDat
 70
    15
  1
DIMENSION,AMDT_*_DIM
  2
*
  3
*
  4
*
  5
*
290
     1
  0
ACAMGFILTERDAT
  5
287
102
{ACAD_REACTORS
330
283
102
}
330
283
100
AcAmgFilterDat
 70
    15
  1
*
  2
AM_FEA-AM_*
  3
*
  4
*
  5
*
290
     1
  0
ACAMGFILTERDAT
  5
284
102
{ACAD_REACTORS
330
283
102
}
330
283
100
AcAmgFilterDat
 70
    15
  1
HATCH
  2
*
  3
*
  4
*
  5
*
290
     1
  0
ACAMGFILTERDAT
  5
285
102
{ACAD_REACTORS
330
283
102
}
330
283
100
AcAmgFilterDat
 70
    15
  1
LINE
  2
8,8N,*-8,*-8N,AM_8,AM_8N,*-AM_8,*-AM_8N
  3
*
  4
*
  5
INSERT,STDPART2D
290
     1
  0
ACAMGFILTERDAT
  5
289
102
{ACAD_REACTORS
330
283
102
}
330
283
100
AcAmgFilterDat
 70
    15
  1
ARC
  2
AM_5
  3
*
  4
2
  5
INSERT
290
     0
  0
ACAMGFILTERDAT
  5
286
102
{ACAD_REACTORS
330
283
102
}
330
283
100
AcAmgFilterDat
 70
    15
  1
ACMFCFRAME,ACMDATUMTARGET,ACMDATUMID,ACMWELDSYM,ACMSURFSYM,ACMFEATID,ACMPARTREF,ACMBALLOON,AMDTEDGESYM,AMGSCREWCALCTABLE
  2
*
  3
*
  4
*
  5
*
290
     1
  0
XRECORD
  5
E6
102
{ACAD_REACTORS
330
E4
102
}
330
E4
100
AcDbXrecord
280
     1
  0
LAYER_INDEX
  5
270
102
{ACAD_REACTORS
330
26F
102
}
330
26F
100
AcDbIndex
 40
2453626.415835521
100
AcDbLayerIndex
  8
0
360
271
 90
        0
  8
DEFPOINTS
360
272
 90
        0
  8
PRODUCT
360
273
 90
       33
  8
DIMENSIONS
360
274
 90
        5
  0
ACMDATAENTRYBLOCK
  5
21B
102
{ACAD_REACTORS
330
21A
102
}
330
21A
100
AcmDataEntry
100
AcmDataEntryBlock
  0
IDBUFFER
  5
271
330
0
100
AcDbIdBuffer
  0
IDBUFFER
  5
272
330
0
100
AcDbIdBuffer
  0
IDBUFFER
  5
273
330
0
100
AcDbIdBuffer
330
C5
330
C6
330
C7
330
C8
330
C9
330
CA
330
CB
330
CC
330
CD
330
CE
330
CF
330
D0
330
D1
330
D2
330
D3
330
D4
330
D5
330
B5
330
B6
330
B7
330
B8
330
B9
330
BA
330
BB
330
BC
330
BD
330
BE
330
BF
330
C0
330
C1
330
C2
330
C3
330
C4
  0
IDBUFFER
  5
274
330
0
100
AcDbIdBuffer
330
2A
330
3A
330
49
330
58
330
67
  0
ENDSEC
  0
EOF
