  0
SECTION
  2
HEADER
  9
$ACADVER
  1
AC1018
  9
$ACADMAINTVER
 70
    76
  9
$DWGCODEPAGE
  3
ANSI_1252
  9
$CUSTOMPROPERTYTAG
  1
AmdtFileType
  9
$CUSTOMPROPERTY
  1
84
  9
$INSBASE
 10
0.0
 20
0.0
 30
0.0
  9
$EXTMIN
 10
9.366555212455075
 20
5.261941094762692
 30
0.0
  9
$EXTMAX
 10
10.13155521245507
 20
6.251941094762692
 30
0.0
  9
$LIMMIN
 10
0.0
 20
0.0
  9
$LIMMAX
 10
12.0
 20
9.0
  9
$ORTHOMODE
 70
     0
  9
$REGENMODE
 70
     1
  9
$FILLMODE
 70
     1
  9
$QTEXTMODE
 70
     0
  9
$MIRRTEXT
 70
     1
  9
$LTSCALE
 40
1.0
  9
$ATTMODE
 70
     1
  9
$TEXTSIZE
 40
0.2
  9
$TRACEWID
 40
0.05
  9
$TEXTSTYLE
  7
Standard
  9
$CLAYER
  8
DIMENSIONS
  9
$CELTYPE
  6
ByLayer
  9
$CECOLOR
 62
   256
  9
$CELTSCALE
 40
1.0
  9
$DISPSILH
 70
     0
  9
$DIMSCALE
 40
1.0
  9
$DIMASZ
 40
0.0125
  9
$DIMEXO
 40
0.01
  9
$DIMDLI
 40
0.38
  9
$DIMRND
 40
0.0
  9
$DIMDLE
 40
0.0
  9
$DIMEXE
 40
0.0125
  9
$DIMTP
 40
0.0
  9
$DIMTM
 40
0.0
  9
$DIMTXT
 40
0.0125
  9
$DIMCEN
 40
0.01
  9
$DIMTSZ
 40
0.0
  9
$DIMTOL
 70
     0
  9
$DIMLIM
 70
     0
  9
$DIMTIH
 70
     1
  9
$DIMTOH
 70
     1
  9
$DIMSE1
 70
     0
  9
$DIMSE2
 70
     0
  9
$DIMTAD
 70
     0
  9
$DIMZIN
 70
     4
  9
$DIMBLK
  1

  9
$DIMASO
 70
     1
  9
$DIMSHO
 70
     1
  9
$DIMPOST
  1

  9
$DIMAPOST
  1

  9
$DIMALT
 70
     0
  9
$DIMALTD
 70
     2
  9
$DIMALTF
 40
25.4
  9
$DIMLFAC
 40
1.0
  9
$DIMTOFL
 70
     0
  9
$DIMTVP
 40
0.0
  9
$DIMTIX
 70
     0
  9
$DIMSOXD
 70
     0
  9
$DIMSAH
 70
     0
  9
$DIMBLK1
  1

  9
$DIMBLK2
  1

  9
$DIMSTYLE
  2
DIMSTYLE1
  9
$DIMCLRD
 70
     0
  9
$DIMCLRE
 70
     0
  9
$DIMCLRT
 70
     0
  9
$DIMTFAC
 40
1.0
  9
$DIMGAP
 40
0.01
  9
$DIMJUST
 70
     0
  9
$DIMSD1
 70
     0
  9
$DIMSD2
 70
     0
  9
$DIMTOLJ
 70
     1
  9
$DIMTZIN
 70
     0
  9
$DIMALTZ
 70
     0
  9
$DIMALTTZ
 70
     0
  9
$DIMUPT
 70
     0
  9
$DIMDEC
 70
     3
  9
$DIMTDEC
 70
     3
  9
$DIMALTU
 70
     2
  9
$DIMALTTD
 70
     2
  9
$DIMTXSTY
  7
Standard
  9
$DIMAUNIT
 70
     0
  9
$DIMADEC
 70
     0
  9
$DIMALTRND
 40
0.0
  9
$DIMAZIN
 70
     0
  9
$DIMDSEP
 70
    46
  9
$DIMATFIT
 70
     0
  9
$DIMFRAC
 70
     0
  9
$DIMLDRBLK
  1

  9
$DIMLUNIT
 70
     2
  9
$DIMLWD
 70
    -2
  9
$DIMLWE
 70
    -2
  9
$DIMTMOVE
 70
     0
  9
$LUNITS
 70
     2
  9
$LUPREC
 70
     4
  9
$SKETCHINC
 40
0.1
  9
$FILLETRAD
 40
0.1
  9
$AUNITS
 70
     0
  9
$AUPREC
 70
     0
  9
$MENU
  1
.
  9
$ELEVATION
 40
0.0
  9
$PELEVATION
 40
0.0
  9
$THICKNESS
 40
0.0
  9
$LIMCHECK
 70
     0
  9
$CHAMFERA
 40
0.5
  9
$CHAMFERB
 40
0.5
  9
$CHAMFERC
 40
1.0
  9
$CHAMFERD
 40
0.0
  9
$SKPOLY
 70
     0
  9
$TDCREATE
 40
2453278.470857801
  9
$TDUCREATE
 40
2453278.637524467
  9
$TDUPDATE
 40
2453626.433510452
  9
$TDUUPDATE
 40
2453626.600177118
  9
$TDINDWG
 40
0.7551485185
  9
$TDUSRTIMER
 40
0.7551485185
  9
$USRTIMER
 70
     1
  9
$ANGBASE
 50
0.0
  9
$ANGDIR
 70
     0
  9
$PDMODE
 70
     0
  9
$PDSIZE
 40
0.0
  9
$PLINEWID
 40
0.0
  9
$SPLFRAME
 70
     0
  9
$SPLINETYPE
 70
     6
  9
$SPLINESEGS
 70
     8
  9
$HANDSEED
  5
13D9
  9
$SURFTAB1
 70
     6
  9
$SURFTAB2
 70
     6
  9
$SURFTYPE
 70
     6
  9
$SURFU
 70
     6
  9
$SURFV
 70
     6
  9
$UCSBASE
  2

  9
$UCSNAME
  2

  9
$UCSORG
 10
0.0
 20
0.0
 30
0.0
  9
$UCSXDIR
 10
1.0
 20
0.0
 30
0.0
  9
$UCSYDIR
 10
0.0
 20
1.0
 30
0.0
  9
$UCSORTHOREF
  2

  9
$UCSORTHOVIEW
 70
     0
  9
$UCSORGTOP
 10
0.0
 20
0.0
 30
0.0
  9
$UCSORGBOTTOM
 10
0.0
 20
0.0
 30
0.0
  9
$UCSORGLEFT
 10
0.0
 20
0.0
 30
0.0
  9
$UCSORGRIGHT
 10
0.0
 20
0.0
 30
0.0
  9
$UCSORGFRONT
 10
0.0
 20
0.0
 30
0.0
  9
$UCSORGBACK
 10
0.0
 20
0.0
 30
0.0
  9
$PUCSBASE
  2

  9
$PUCSNAME
  2

  9
$PUCSORG
 10
0.0
 20
0.0
 30
0.0
  9
$PUCSXDIR
 10
1.0
 20
0.0
 30
0.0
  9
$PUCSYDIR
 10
0.0
 20
1.0
 30
0.0
  9
$PUCSORTHOREF
  2

  9
$PUCSORTHOVIEW
 70
     0
  9
$PUCSORGTOP
 10
0.0
 20
0.0
 30
0.0
  9
$PUCSORGBOTTOM
 10
0.0
 20
0.0
 30
0.0
  9
$PUCSORGLEFT
 10
0.0
 20
0.0
 30
0.0
  9
$PUCSORGRIGHT
 10
0.0
 20
0.0
 30
0.0
  9
$PUCSORGFRONT
 10
0.0
 20
0.0
 30
0.0
  9
$PUCSORGBACK
 10
0.0
 20
0.0
 30
0.0
  9
$USERI1
 70
     0
  9
$USERI2
 70
     0
  9
$USERI3
 70
     0
  9
$USERI4
 70
     0
  9
$USERI5
 70
     0
  9
$USERR1
 40
0.0
  9
$USERR2
 40
0.0
  9
$USERR3
 40
0.0
  9
$USERR4
 40
0.0
  9
$USERR5
 40
0.0
  9
$WORLDVIEW
 70
     1
  9
$SHADEDGE
 70
     3
  9
$SHADEDIF
 70
    70
  9
$TILEMODE
 70
     1
  9
$MAXACTVP
 70
    64
  9
$PINSBASE
 10
0.0
 20
0.0
 30
0.0
  9
$PLIMCHECK
 70
     0
  9
$PEXTMIN
 10
1.000000000000000E+20
 20
1.000000000000000E+20
 30
1.000000000000000E+20
  9
$PEXTMAX
 10
-1.000000000000000E+20
 20
-1.000000000000000E+20
 30
-1.000000000000000E+20
  9
$PLIMMIN
 10
0.0
 20
0.0
  9
$PLIMMAX
 10
12.0
 20
9.0
  9
$UNITMODE
 70
     0
  9
$VISRETAIN
 70
     1
  9
$PLINEGEN
 70
     0
  9
$PSLTSCALE
 70
     1
  9
$TREEDEPTH
 70
  3020
  9
$CMLSTYLE
  2
Standard
  9
$CMLJUST
 70
     0
  9
$CMLSCALE
 40
1.0
  9
$PROXYGRAPHICS
 70
     1
  9
$MEASUREMENT
 70
     0
  9
$CELWEIGHT
370
    -1
  9
$ENDCAPS
280
     0
  9
$JOINSTYLE
280
     0
  9
$LWDISPLAY
290
     0
  9
$INSUNITS
 70
     1
  9
$HYPERLINKBASE
  1

  9
$STYLESHEET
  1
monochrome.ctb
  9
$XEDIT
290
     1
  9
$CEPSNTYPE
380
     0
  9
$PSTYLEMODE
290
     1
  9
$FINGERPRINTGUID
  2
{6F5A6F87-5F86-42BA-831B-5E1BAAE09515}
  9
$VERSIONGUID
  2
{6A4D7B01-F833-4F08-8D62-0AFA64DC7209}
  9
$EXTNAMES
290
     1
  9
$PSVPSCALE
 40
0.0
  9
$OLESTARTUP
290
     0
  9
$SORTENTS
280
   127
  9
$INDEXCTL
280
     1
  9
$HIDETEXT
280
     1
  9
$XCLIPFRAME
290
     0
  9
$HALOGAP
280
     0
  9
$OBSCOLOR
 70
   257
  9
$OBSLTYPE
280
     0
  9
$INTERSECTIONDISPLAY
280
     0
  9
$INTERSECTIONCOLOR
 70
   257
  9
$DIMASSOC
280
     2
  9
$PROJECTNAME
  1

  0
ENDSEC
  0
SECTION
  2
CLASSES
  0
CLASS
  1
ACDBDICTIONARYWDFLT
  2
AcDbDictionaryWithDefault
  3
ObjectDBX Classes
 90
        0
 91
        1
280
     0
281
     0
  0
CLASS
  1
DIMASSOC
  2
AcDbDimAssoc
  3
"AcDbDimAssoc|Product Desc:     AcDim ARX App For Dimension|Company:          Autodesk, Inc.|WEB Address:      www.autodesk.com"
 90
        0
 91
        1
280
     0
281
     0
  0
CLASS
  1
DICTIONARYVAR
  2
AcDbDictionaryVar
  3
ObjectDBX Classes
 90
        0
 91
        3
280
     0
281
     0
  0
CLASS
  1
TABLESTYLE
  2
AcDbTableStyle
  3
ObjectDBX Classes
 90
     2047
 91
        1
280
     0
281
     0
  0
CLASS
  1
SORTENTSTABLE
  2
AcDbSortentsTable
  3
ObjectDBX Classes
 90
        0
 91
        1
280
     0
281
     0
  0
CLASS
  1
ACME_DOCUMENT
  2
AcMeDbDoc
  3
AcMeServices
 90
        0
 91
        2
280
     0
281
     0
  0
CLASS
  1
AMGSETTINGSOBJ
  2
AmgSettingsObj
  3
"AcadM|Product Description: AutoCAD Mechanical 2000|Company: Autodesk"
 90
        0
 91
        2
280
     0
281
     0
  0
CLASS
  1
ACMESCOPE
  2
AcMeScope
  3
AcMeServices
 90
        0
 91
        1
280
     0
281
     0
  0
CLASS
  1
ACMECOMMANDHISTORY
  2
AcMeCommandHistory
  3
AcMeServices
 90
        0
 91
        1
280
     0
281
     0
  0
CLASS
  1
ACIMSYSVARMAN
  2
AcImSysVarManager
  3
AcMeServices
 90
        0
 91
        6
280
     0
281
     0
  0
CLASS
  1
ACIMREALSYSVAR
  2
AcImRealSysVar
  3
AcMeServices
 90
        0
 91
       16
280
     0
281
     0
  0
CLASS
  1
ACIMINTSYSVAR
  2
AcImIntSysVar
  3
AcMeServices
 90
        0
 91
       45
280
     0
281
     0
  0
CLASS
  1
ACMEDRAWINGMAN
  2
AcMeDrawingMan
  3
AcMeServices
 90
        0
 91
        1
280
     0
281
     0
  0
CLASS
  1
ACMEVIEW
  2
AcMeView
  3
AcMeServices
 90
        0
 91
        1
280
     0
281
     0
  0
CLASS
  1
ACDBENTITYCACHE
  2
AcMeEntityCache
  3
AcMeServices
 90
        0
 91
        1
280
     0
281
     0
  0
CLASS
  1
GSMANAGER
  2
AcMeGSManager
  3
AcMeServices
 90
        0
 91
        1
280
     0
281
     0
  0
CLASS
  1
AMDTINTERNALREACTOR
  2
AmdtInternalReactor
  3
AcMeServices
 90
        0
 91
        2
280
     0
281
     0
  0
CLASS
  1
ACMESTATEMGR
  2
AcMeStateMgr
  3
AcMeServices
 90
        0
 91
        1
280
     0
281
     0
  0
CLASS
  1
ACGREFMASTER
  2
AcGrefMaster
  3
AcAttribServices
 90
        0
 91
        1
280
     0
281
     0
  0
CLASS
  1
AM_DRAWING_MGR
  2
AcDmDwgMgr
  3
AcMechDwgViewMgmt
 90
        0
 91
        1
280
     0
281
     0
  0
CLASS
  1
AM_DWG_DOCUMENT
  2
AcDmDwgDocument
  3
AcMechDwgViewMgmt
 90
        0
 91
        1
280
     0
281
     0
  0
CLASS
  1
AM_DWG_SHEET
  2
AcDmSheet
  3
AcMechDwgViewMgmt
 90
        0
 91
        2
280
     0
281
     0
  0
CLASS
  1
AM_VIEWDIMPARMAP
  2
AcDmViewDimParMap
  3
AcMechDwgViewMgmt
 90
        0
 91
        2
280
     0
281
     0
  0
CLASS
  1
AM_DWGMGR_NAME
  2
AcDmDwgMgrName
  3
AcMechDwgViewMgmt
 90
        0
 91
        1
280
     0
281
     0
  0
CLASS
  1
ACME_DATABASE
  2
AcMeDbDatabase
  3
AcMeServices
 90
        0
 91
        1
280
     0
281
     0
  0
CLASS
  1
ACRFINSADJUSTERMGR
  2
AcRfInsAdjusterMgr
  3
AcMeServices
 90
        0
 91
        1
280
     0
281
     0
  0
CLASS
  1
ACGREFACADMASTER
  2
AcGrefacadMaster
  3
AcGrefServices
 90
        0
 91
        1
280
     0
281
     0
  0
CLASS
  1
AMDTMENUSTATEMGR
  2
AmdtMenuStateMgr
  3
McadcomServices
 90
        0
 91
        1
280
     0
281
     0
  0
CLASS
  1
AMDTMCOMMENUSTATE
  2
AmdtMcomMenuState
  3
McadcomServices
 90
        0
 91
        1
280
     0
281
     0
  0
CLASS
  1
AMIMASTER
  2
AmiMaster
  3
AmiServices
 90
        0
 91
        1
280
     0
281
     0
  0
CLASS
  1
ASAPP
  2
AcAsAppObject
  3
AutoSurfServices
 90
        0
 91
        1
280
     0
281
     0
  0
CLASS
  1
IM_STATIC_MAN
  2
AcImStaticVarManager
  3
AcMeServices
 90
        0
 91
        1
280
     0
281
     0
  0
CLASS
  1
ACIMSTRSYSVAR
  2
AcImStrSysVar
  3
AcMeServices
 90
        0
 91
       11
280
     0
281
     0
  0
CLASS
  1
ACIMDBLSTATICVAR
  2
AcImDblStaticVar
  3
AcMeServices
 90
        0
 91
       20
280
     0
281
     0
  0
CLASS
  1
ACIMSTRSTATICVAR
  2
AcImStrStaticVar
  3
AcMeServices
 90
        0
 91
       12
280
     0
281
     0
  0
CLASS
  1
ACIMINTSTATICVAR
  2
AcImIntStaticVar
  3
AcMeServices
 90
        0
 91
       17
280
     0
281
     0
  0
CLASS
  1
ACASGREFMASTER
  2
AcAsGrefMaster
  3
AutoSurfResolverServices
 90
        0
 91
        1
280
     0
281
     0
  0
CLASS
  1
ACADGREFMODULE
  2
AcAdGrefModule
  3
AdGrefServices
 90
        0
 91
        1
280
     0
281
     0
  0
CLASS
  1
AMDTMAPISURFMOUDULE
  2
AmdtMApiSurfModule
  3
MApiSurfServices
 90
        0
 91
        1
280
     0
281
     0
  0
CLASS
  1
MAPIAMMOUDLE
  2
MApiAmModule
  3
MApiAmServices
 90
        0
 91
        1
280
     0
281
     0
  0
CLASS
  1
AMDTADMENUSTATE
  2
AmdtAdMenuState
  3
DesignerServices
 90
        0
 91
        1
280
     0
281
     0
  0
CLASS
  1
ADAPPL
  2
AcAdAppl
  3
DesignerServices
 90
        0
 91
        1
280
     0
281
     0
  0
CLASS
  1
DEPMGR
  2
AcAdDepMgr
  3
DesignerServices
 90
        0
 91
        1
280
     0
281
     0
  0
CLASS
  1
PARAMMGR
  2
AcAdParamMgr
  3
DesignerServices
 90
        0
 91
        1
280
     0
281
     0
  0
CLASS
  1
PARAMSCOPE
  2
AcAdParamScope
  3
DesignerServices
 90
        0
 91
        1
280
     0
281
     0
  0
CLASS
  1
NAMEDAPPL
  2
AcAdNamedAppl
  3
DesignerServices
 90
        0
 91
        1
280
     0
281
     0
  0
CLASS
  1
AMDTDMMENUSTATE
  2
AmdtDmMenuState
  3
AcMechDwgViewMgmt
 90
        0
 91
        1
280
     0
281
     0
  0
CLASS
  1
MAPIADMODULE
  2
MApiAdModule
  3
MApiAdServices
 90
        0
 91
        1
280
     0
281
     0
  0
CLASS
  1
AMDTAMMENUSTATE
  2
AmdtAmMenuState
  3
DesignerAssemblies
 90
        0
 91
        1
280
     0
281
     0
  0
CLASS
  1
ACAMPROJECT
  2
AcAmProject
  3
DesignerAssemblies
 90
        0
 91
        1
280
     0
281
     0
  0
CLASS
  1
ACAMGRCOMPDEF
  2
AcAmGrCompDef
  3
DesignerAssemblies
 90
        0
 91
        1
280
     0
281
     0
  0
CLASS
  1
ACCMCONTEXT
  2
AcCmContext
  3
DesignerAssemblies
 90
        0
 91
        1
280
     0
281
     0
  0
CLASS
  1
ACAMCOMPDEF
  2
AcAmCompDef
  3
DesignerAssemblies
 90
        0
 91
        1
280
     0
281
     0
  0
CLASS
  1
ACAMCOMPDEFMGR
  2
AcAmCompDefMgr
  3
DesignerAssemblies
 90
        0
 91
        1
280
     0
281
     0
  0
CLASS
  1
AMCONTEXTMGR
  2
AcAmContextMgr
  3
DesignerAssemblies
 90
        0
 91
        1
280
     0
281
     0
  0
CLASS
  1
ACAMCONTEXTMODELER
  2
AcAmContextModeler
  3
DesignerAssemblies
 90
        0
 91
        1
280
     0
281
     0
  0
CLASS
  1
ACMDATADICTIONARY
  2
AcmDataDictionary
  3
"AcmSymBB|Product Description: AutoCAD Mechanical 2004 DX|Company: Autodesk"
 90
        0
 91
        1
280
     0
281
     0
  0
CLASS
  1
ACMDATAENTRYBLOCK
  2
AcmDataEntryBlock
  3
"AcmSymBB|Product Description: AutoCAD Mechanical 2004 DX|Company: Autodesk"
 90
        0
 91
        1
280
     0
281
     0
  0
CLASS
  1
CATALOGSTATE
  2
AcAmCatalogState
  3
DesignerAssemblies
 90
        0
 91
        1
280
     0
281
     0
  0
CLASS
  1
ACAMGRCOMPDEFSET
  2
AcAmGrCompDefSet
  3
DesignerAssemblies
 90
        0
 91
        1
280
     0
281
     0
  0
CLASS
  1
AMDTBROWSERDBTAB
  2
AmdtBrowserDbTab
  3
McadcomServices
 90
        0
 91
        1
280
     0
281
     0
  0
CLASS
  1
CBROWSERAPPOBJECT
  2
CBrowserAppObject
  3
McadcomServices
 90
        0
 91
        3
280
     0
281
     0
  0
CLASS
  1
DM_PLACEHOLDER
  2
AcDmSelsetPlaceholder
  3
AcMechDwgViewMgmt
 90
        0
 91
        1
280
     0
281
     0
  0
CLASS
  1
ACMSTANDARDANSI
  2
AcmStandardANSI
  3
"Amdt_StdImp|Product Description: AutoCAD Mechanical 2004 DX|Company: Autodesk"
 90
        0
 91
        1
280
     0
281
     0
  0
CLASS
  1
AMGOBJPROPCFG
  2
AmgObjPropCfg
  3
"AmgLay|Product Description: AutoCAD Mechanical 2000|Company: Autodesk"
 90
        1
 91
        1
280
     0
281
     0
  0
CLASS
  1
ACMSURFSTANDARDANSI
  2
AcmSurfTextStdANSI
  3
"Amdt_StdImp|Product Description: AutoCAD Mechanical 2004 DX|Company: Autodesk"
 90
        0
 91
        1
280
     0
281
     0
  0
CLASS
  1
ACMFCFSTANDARDANSI
  2
AcmFCFStdANSI
  3
"Amdt_StdImp|Product Description: AutoCAD Mechanical 2004 DX|Company: Autodesk"
 90
        0
 91
        1
280
     0
281
     0
  0
CLASS
  1
ACMWELDSTANDARDANSI
  2
AcmWeldingStdANSI
  3
"Amdt_StdImp|Product Description: AutoCAD Mechanical 2004 DX|Company: Autodesk"
 90
        0
 91
        1
280
     0
281
     0
  0
CLASS
  1
ACMIDSTANDARDANSI
  2
AcmIdStdANSI
  3
"Amdt_StdImp|Product Description: AutoCAD Mechanical 2004 DX|Company: Autodesk"
 90
        0
 91
        1
280
     0
281
     0
  0
CLASS
  1
ACMDATUMSTANDARDANSI
  2
AcmDatumStdANSI
  3
"Amdt_StdImp|Product Description: AutoCAD Mechanical 2004 DX|Company: Autodesk"
 90
        0
 91
        1
280
     0
281
     0
  0
CLASS
  1
ACMBOMSTANDARDANSI
  2
AcmBOMStdANSI
  3
"Amdt_StdImp|Product Description: AutoCAD Mechanical 2004 DX|Company: Autodesk"
 90
        0
 91
        1
280
     0
281
     0
  0
CLASS
  1
ACMDETAILSTANDARDANSI
  2
AmdtDetailSymStdANSI
  3
"Amdt_StdImp|Product Description: AutoCAD Mechanical 2004 DX|Company: Autodesk"
 90
        0
 91
        1
280
     0
281
     0
  0
CLASS
  1
ACMSECTIONSTANDARDANSI
  2
AmdtSectionSymStdANSI
  3
"Amdt_StdImp|Product Description: AutoCAD Mechanical 2004 DX|Company: Autodesk"
 90
        0
 91
        1
280
     0
281
     0
  0
CLASS
  1
ACMCENTERLINESTANDARDANSI
  2
AmdtCenterLineStdANSI
  3
"Amdt_StdImp|Product Description: AutoCAD Mechanical 2004 DX|Company: Autodesk"
 90
        0
 91
        1
280
     0
281
     0
  0
CLASS
  1
ACMTHREADLINESTANDARDANSI
  2
AmdtThreadLineStdANSI
  3
"Amdt_StdImp|Product Description: AutoCAD Mechanical 2004 DX|Company: Autodesk"
 90
        0
 91
        1
280
     0
281
     0
  0
CLASS
  1
ACMNOTESTANDARDANSI
  2
AmdtNoteStdANSI
  3
"Amdt_StdImp|Product Description: AutoCAD Mechanical 2004 DX|Company: Autodesk"
 90
        0
 91
        1
280
     0
281
     0
  0
CLASS
  1
AMDTNOTETEMPLATEDB
  2
AmdtNoteTemplateDB
  3
AMDT_STDIMP_MODULE_NAME
 90
        0
 91
        6
280
     0
281
     0
  0
CLASS
  1
ACAMGLAYSTD
  2
AcAmgLayStd
  3
"AcAmgLayStd|Product Description: AutoCAD Mechanical 2000|Company: Autodesk"
 90
        0
 91
        1
280
     0
281
     0
  0
CLASS
  1
ACAMGDIMSTD
  2
AcAmgDimStd
  3
"AcAmgDimStd|Product Description: AutoCAD Mechanical 2000|Company: Autodesk"
 90
        0
 91
        1
280
     0
281
     0
  0
CLASS
  1
ACAMGHOLECHARTSTDANSI
  2
AcAmgHoleChartStdANSI
  3
ACMSYMBB_MODULE_NAME
 90
        0
 91
        1
280
     0
281
     0
  0
CLASS
  1
ACAMGTITLESTD
  2
AcAmgTitleStd
  3
"TITLEAPP"
 90
        0
 91
        1
280
     0
281
     0
  0
CLASS
  1
ACAMGFILTERDAT
  2
AcAmgFilterDat
  3
"AcadM|Product Description: AutoCAD Mechanical 2000|Company: Autodesk"
 90
        0
 91
        6
280
     0
281
     0
  0
CLASS
  1
LAYER_INDEX
  2
AcDbLayerIndex
  3
ObjectDBX Classes
 90
        0
 91
        1
280
     0
281
     0
  0
CLASS
  1
IDBUFFER
  2
AcDbIdBuffer
  3
ObjectDBX Classes
 90
        0
 91
        5
280
     0
281
     0
  0
CLASS
  1
EXACXREFPANELOBJECT
  2
ExAcXREFPanelObject
  3
EXAC_ESW
 90
        0
 91
        1
280
     0
281
     0
  0
ENDSEC
  0
SECTION
  2
TABLES
  0
TABLE
  2
VPORT
  5
8
330
0
100
AcDbSymbolTable
 70
     5
  0
VPORT
  5
13D8
330
8
100
AcDbSymbolTableRecord
100
AcDbViewportTableRecord
  2
*Active
 70
     0
 10
0.0
 20
0.0
 11
1.0
 21
1.0
 12
-0.1716394466342719
 22
-0.3093551385531047
 13
0.0
 23
0.0
 14
0.5
 24
0.5
 15
0.5
 25
0.5
 16
0.0
 26
0.0
 36
1.0
 17
9.82178243991758
 27
5.845644281635231
 37
0.0
 40
1.558376585388487
 41
1.435540069686411
 42
50.0
 43
0.0
 44
0.0
 50
0.0
 51
0.0
 71
     0
 72
   100
 73
     1
 74
     3
 75
     0
 76
     0
 77
     0
 78
     0
281
     0
 65
     0
110
0.0
120
0.0
130
0.0
111
1.0
121
0.0
131
0.0
112
0.0
122
1.0
132
0.0
 79
     0
146
0.0
  0
ENDTAB
  0
TABLE
  2
LTYPE
  5
5
330
0
100
AcDbSymbolTable
 70
    19
  0
LTYPE
  5
14
330
5
100
AcDbSymbolTableRecord
100
AcDbLinetypeTableRecord
  2
ByBlock
 70
     0
  3

 72
    65
 73
     0
 40
0.0
  0
LTYPE
  5
15
330
5
100
AcDbSymbolTableRecord
100
AcDbLinetypeTableRecord
  2
ByLayer
 70
     0
  3

 72
    65
 73
     0
 40
0.0
  0
LTYPE
  5
16
330
5
100
AcDbSymbolTableRecord
100
AcDbLinetypeTableRecord
  2
Continuous
 70
     0
  3
Solid line
 72
    65
 73
     0
 40
0.0
  0
LTYPE
  5
1272
330
5
100
AcDbSymbolTableRecord
100
AcDbLinetypeTableRecord
  2
HIDDEN
 70
     0
  3
Hidden __ __ __ __ __ __ __ __ __ __ __ __ __ _
 72
    65
 73
     2
 40
0.375
 49
0.25
 74
     0
 49
-0.125
 74
     0
  0
LTYPE
  5
1273
330
5
100
AcDbSymbolTableRecord
100
AcDbLinetypeTableRecord
  2
PHANTOM2
 70
     0
  3
Phantom (.5x) ___ _ _ ___ _ _ ___ _ _ ___ _ _
 72
    65
 73
     6
 40
1.25
 49
0.625
 74
     0
 49
-0.125
 74
     0
 49
0.125
 74
     0
 49
-0.125
 74
     0
 49
0.125
 74
     0
 49
-0.125
 74
     0
  0
LTYPE
  5
1274
330
5
100
AcDbSymbolTableRecord
100
AcDbLinetypeTableRecord
  2
CENTER
 70
     0
  3
Center ____ _ ____ _ ____ _ ____ _ ____ _ ____
 72
    65
 73
     4
 40
2.0
 49
1.25
 74
     0
 49
-0.25
 74
     0
 49
0.25
 74
     0
 49
-0.25
 74
     0
  0
LTYPE
  5
12C3
330
5
100
AcDbSymbolTableRecord
100
AcDbLinetypeTableRecord
  2
ASULTYPE
 70
     0
  3
Solid line
 72
    65
 73
     2
 40
3.0
 49
2.5
 74
     0
 49
0.5
 74
     0
  0
LTYPE
  5
12C4
330
5
100
AcDbSymbolTableRecord
100
AcDbLinetypeTableRecord
  2
ASVLTYPE
 70
     0
  3
__ __ __ __ __ __ __ __ __ __ __ __ __ __ __ __ __ __ __ __ __
 72
    65
 73
     2
 40
0.75
 49
0.5
 74
     0
 49
-0.25
 74
     0
  0
LTYPE
  5
130B
330
5
100
AcDbSymbolTableRecord
100
AcDbLinetypeTableRecord
  2
AM_ISO02W050
 70
     0
  3
__ __ __ __ __ __ __ __ __ __ __ __ __ __ __
 72
    65
 73
     2
 40
7.5
 49
6.0
 74
     0
 49
-1.5
 74
     0
  0
LTYPE
  5
130C
330
5
100
AcDbSymbolTableRecord
100
AcDbLinetypeTableRecord
  2
AM_ISO08W050
 70
     0
  3
____ . ____ . ____ . ____ . ____ . ____ . ____
 72
    65
 73
     4
 40
18.0
 49
12.0
 74
     0
 49
-1.5
 74
     0
 49
3.0
 74
     0
 49
-1.5
 74
     0
  0
LTYPE
  5
130D
330
5
100
AcDbSymbolTableRecord
100
AcDbLinetypeTableRecord
  2
AM_ISO09W050
 70
     0
  3
_____ . . _____ . . _____ . . ____ .. ____
 72
    65
 73
     6
 40
22.5
 49
12.0
 74
     0
 49
-1.5
 74
     0
 49
3.0
 74
     0
 49
-1.5
 74
     0
 49
3.0
 74
     0
 49
-1.5
 74
     0
  0
LTYPE
  5
130E
330
5
100
AcDbSymbolTableRecord
100
AcDbLinetypeTableRecord
  2
Amconstr
 70
     0
  3
_______________________
 72
    65
 73
     2
 40
9999.0
 49
9999.0
 74
     0
 49
0.0
 74
     0
  0
LTYPE
  5
130F
330
5
100
AcDbSymbolTableRecord
100
AcDbLinetypeTableRecord
  2
AM_ISO08W050x2
 70
     0
  3
__ . __ . __ . __ . __ . __
 72
    65
 73
     4
 40
9.0
 49
6.0
 74
     0
 49
-0.75
 74
     0
 49
1.5
 74
     0
 49
-0.75
 74
     0
  0
LTYPE
  5
1310
330
5
100
AcDbSymbolTableRecord
100
AcDbLinetypeTableRecord
  2
AM_ISO02W050x2
 70
     0
  3
 _ _ _ _ _ _ _ _ _ _ _ _
 72
    65
 73
     2
 40
3.75
 49
3.0
 74
     0
 49
-0.75
 74
     0
  0
LTYPE
  5
1313
330
5
100
AcDbSymbolTableRecord
100
AcDbLinetypeTableRecord
  2
Amzigzag
 70
     0
  3
/\/-/\/-/\/-/\/-/\/-/\/
 72
    65
 73
     2
 40
11.0001
 49
0.0001
 74
     4
 75
   136
340
1312
 46
0.04
 50
0.0
 44
0.0
 45
0.0
 49
-11.0
 74
     0
  0
LTYPE
  5
1314
330
5
100
AcDbSymbolTableRecord
100
AcDbLinetypeTableRecord
  2
CENTER2
 70
     0
  3
Center (.5x) ___ _ ___ _ ___ _ ___ _ ___ _ ___
 72
    65
 73
     4
 40
1.125
 49
0.75
 74
     0
 49
-0.125
 74
     0
 49
0.125
 74
     0
 49
-0.125
 74
     0
  0
LTYPE
  5
1315
330
5
100
AcDbSymbolTableRecord
100
AcDbLinetypeTableRecord
  2
HIDDEN2
 70
     0
  3
Hidden (.5x) _ _ _ _ _ _ _ _ _ _ _ _ _ _ _ _ _
 72
    65
 73
     2
 40
0.1875
 49
0.125
 74
     0
 49
-0.0625
 74
     0
  0
LTYPE
  5
1316
330
5
100
AcDbSymbolTableRecord
100
AcDbLinetypeTableRecord
  2
Amzigzag2
 70
     0
  3
/\/-/\/-/\/-/\/-/\/-/\/
 72
    65
 73
     2
 40
0.4401
 49
0.0001
 74
     4
 75
   136
340
1312
 46
0.0016
 50
0.0
 44
0.0
 45
0.0
 49
-0.4400000000000001
 74
     0
  0
LTYPE
  5
1324
330
5
100
AcDbSymbolTableRecord
100
AcDbLinetypeTableRecord
  2
ACANSTGB
 70
     0
  3
__ . . __ . .
 72
    65
 73
     6
 40
0.35433070866
 49
0.15748031496
 74
     0
 49
-0.03937007874
 74
     0
 49
0.03937007874
 74
     0
 49
-0.03937007874
 74
     0
 49
0.03937007874
 74
     0
 49
-0.03937007874
 74
     0
  0
LTYPE
  5
1325
330
5
100
AcDbSymbolTableRecord
100
AcDbLinetypeTableRecord
  2
ACANSTGL
 70
     0
  3
_ _ _ _ _
 72
    65
 73
     2
 40
0.11811023622
 49
0.07874015748
 74
     0
 49
-0.03937007874
 74
     0
  0
ENDTAB
  0
TABLE
  2
LAYER
  5
2
102
{ACAD_XDICTIONARY
360
137A
102
}
330
0
100
AcDbSymbolTable
 70
     5
  0
LAYER
  5
10
330
2
100
AcDbSymbolTableRecord
100
AcDbLayerTableRecord
  2
0
 70
     0
 62
     7
  6
Continuous
370
    -3
390
F
  0
LAYER
  5
74
330
2
100
AcDbSymbolTableRecord
100
AcDbLayerTableRecord
  2
DIMENSIONS
 70
     0
 62
     1
  6
Continuous
370
    -3
390
F
  0
LAYER
  5
75
330
2
100
AcDbSymbolTableRecord
100
AcDbLayerTableRecord
  2
TITLE_BLOCK
 70
     0
 62
     7
  6
Continuous
370
    -3
390
F
  0
LAYER
  5
76
330
2
100
AcDbSymbolTableRecord
100
AcDbLayerTableRecord
  2
DEFPOINTS
 70
     0
 62
     7
  6
Continuous
290
     0
370
    -3
390
F
  0
LAYER
  5
1378
330
2
100
AcDbSymbolTableRecord
100
AcDbLayerTableRecord
  2
PRODUCT
 70
     0
 62
     1
  6
Continuous
370
    -3
390
F
1001
AcAecLayerStandard
1000

1000

  0
ENDTAB
  0
TABLE
  2
STYLE
  5
3
330
0
100
AcDbSymbolTable
 70
     4
  0
STYLE
  5
11
330
3
100
AcDbSymbolTableRecord
100
AcDbTextStyleTableRecord
  2
Standard
 70
     0
 40
0.0
 41
1.0
 50
0.0
 71
     0
 42
0.2
  3
txt
  4

  0
STYLE
  5
1312
330
3
100
AcDbSymbolTableRecord
100
AcDbTextStyleTableRecord
  2

 70
     1
 40
0.0
 41
1.0
 50
0.0
 71
     0
 42
0.2
  3
genltshp.shx
  4

  0
STYLE
  5
1317
330
3
100
AcDbSymbolTableRecord
100
AcDbTextStyleTableRecord
  2
ACANSTS
 70
     0
 40
1.0
 41
1.0
 50
0.0
 71
     0
 42
0.2
  3
romans.shx
  4

  0
STYLE
  5
1323
330
3
100
AcDbSymbolTableRecord
100
AcDbTextStyleTableRecord
  2
ACANSGDT
 70
     0
 40
0.0
 41
1.0
 50
0.0
 71
     0
 42
0.2
  3
AMGDT
  4

  0
ENDTAB
  0
TABLE
  2
VIEW
  5
6
330
0
100
AcDbSymbolTable
 70
     0
  0
ENDTAB
  0
TABLE
  2
UCS
  5
7
330
0
100
AcDbSymbolTable
 70
     0
  0
ENDTAB
  0
TABLE
  2
APPID
  5
9
330
0
100
AcDbSymbolTable
 70
    18
  0
APPID
  5
12
330
9
100
AcDbSymbolTableRecord
100
AcDbRegAppTableRecord
  2
ACAD
 70
     0
  0
APPID
  5
293
330
9
100
AcDbSymbolTableRecord
100
AcDbRegAppTableRecord
  2
DCO15
 70
     0
  0
APPID
  5
123C
330
9
100
AcDbSymbolTableRecord
100
AcDbRegAppTableRecord
  2
GENIUS_GENDIM_13
 70
     0
  0
APPID
  5
123D
330
9
100
AcDbSymbolTableRecord
100
AcDbRegAppTableRecord
  2
GENIUS_GENDTOL_13
 70
     0
  0
APPID
  5
123E
330
9
100
AcDbSymbolTableRecord
100
AcDbRegAppTableRecord
  2
GENIUS_GE3DTOL_13
 70
     0
  0
APPID
  5
1241
330
9
100
AcDbSymbolTableRecord
100
AcDbRegAppTableRecord
  2
MCAD_NO_VIS
 70
     0
  0
APPID
  5
1242
330
9
100
AcDbSymbolTableRecord
100
AcDbRegAppTableRecord
  2
ACAD_TEMP_GRAPHIC
 70
     0
  0
APPID
  5
1276
330
9
100
AcDbSymbolTableRecord
100
AcDbRegAppTableRecord
  2
AD_DRAW
 70
     0
  0
APPID
  5
1279
330
9
100
AcDbSymbolTableRecord
100
AcDbRegAppTableRecord
  2
ACATTRIBSERVICES
 70
     0
  0
APPID
  5
12C5
330
9
100
AcDbSymbolTableRecord
100
AcDbRegAppTableRecord
  2
ASURF_PCURVE_APPNAME
 70
     0
  0
APPID
  5
12CA
330
9
100
AcDbSymbolTableRecord
100
AcDbRegAppTableRecord
  2
AMG_3D2D_5.0
 70
     0
  0
APPID
  5
12FB
330
9
100
AcDbSymbolTableRecord
100
AcDbRegAppTableRecord
  2
DESIGNERASSEMBLIES
 70
     0
  0
APPID
  5
1302
330
9
100
AcDbSymbolTableRecord
100
AcDbRegAppTableRecord
  2
ACADM_DIM_EDIT
 70
     0
  0
APPID
  5
1303
330
9
100
AcDbSymbolTableRecord
100
AcDbRegAppTableRecord
  2
AMDT_DM_ADJ
 70
     0
  0
APPID
  5
1331
330
9
100
AcDbSymbolTableRecord
100
AcDbRegAppTableRecord
  2
ACAD_DSTYLE_DIMARC_LENGTH_SYMBOL
 70
     0
  0
APPID
  5
1332
330
9
100
AcDbSymbolTableRecord
100
AcDbRegAppTableRecord
  2
ACAD_DSTYLE_DIMJOGGED_JOGANGLE_SYMBOL
 70
     0
  0
APPID
  5
1379
330
9
100
AcDbSymbolTableRecord
100
AcDbRegAppTableRecord
  2
AcAecLayerStandard
 70
     0
  0
APPID
  5
13D1
330
9
100
AcDbSymbolTableRecord
100
AcDbRegAppTableRecord
  2
ACAD_EXEMPT_FROM_CAD_STANDARDS
 70
     0
  0
ENDTAB
  0
TABLE
  2
DIMSTYLE
  5
A
330
0
100
AcDbSymbolTable
 70
    14
100
AcDbDimStyleTable
 71
     2
340
78
340
27
  0
DIMSTYLE
105
27
330
A
100
AcDbSymbolTableRecord
100
AcDbDimStyleTableRecord
  2
Standard
 70
     0
340
11
  0
DIMSTYLE
105
78
102
{ACAD_REACTORS
330
11C8
102
}
330
A
100
AcDbSymbolTableRecord
100
AcDbDimStyleTableRecord
  2
DIMSTYLE1
 70
     0
 41
0.0125
 42
0.01
 44
0.0125
 78
     4
140
0.0125
141
0.01
147
0.01
271
     3
272
     3
289
     0
340
11
  0
DIMSTYLE
105
79
330
A
100
AcDbSymbolTableRecord
100
AcDbDimStyleTableRecord
  2
DIMSTYLE2
 70
     0
 41
0.0125
 44
0.0125
140
0.0125
289
     0
340
11
  0
DIMSTYLE
105
7A
330
A
100
AcDbSymbolTableRecord
100
AcDbDimStyleTableRecord
  2
DIMSTYLE3
 70
     0
 41
0.0125
 44
0.0125
140
0.0125
289
     0
340
11
  0
DIMSTYLE
105
7B
330
A
100
AcDbSymbolTableRecord
100
AcDbDimStyleTableRecord
  2
DIMSTYLE4
 70
     0
 41
0.0125
 44
0.0125
140
0.0125
289
     0
340
11
  0
DIMSTYLE
105
7C
330
A
100
AcDbSymbolTableRecord
100
AcDbDimStyleTableRecord
  2
DIMSTYLE5
 70
     0
 41
0.0125
 44
0.0125
140
0.0125
289
     0
340
11
  0
DIMSTYLE
105
7D
330
A
100
AcDbSymbolTableRecord
100
AcDbDimStyleTableRecord
  2
DIMSTYLE6
 70
     0
 41
0.0125
 44
0.0125
140
0.0125
289
     0
340
11
  0
DIMSTYLE
105
1330
330
A
100
AcDbSymbolTableRecord
100
AcDbDimStyleTableRecord
  2
AM_ANSI
 70
     0
  4
mm
 41
0.1
 42
0.05
 43
0.5
 44
0.1
 47
0.1
 48
0.1
 78
     7
 79
     2
140
0.12
141
0.0
146
0.71
147
0.06
176
   256
177
   256
178
     2
274
     4
284
     7
340
11
371
    -1
372
    -1
1001
ACAD_DSTYLE_DIMARC_LENGTH_SYMBOL
1070
   379
1070
     1
1001
ACAD_DSTYLE_DIMJOGGED_JOGANGLE_SYMBOL
1070
   384
1040
0.7853981633974483
  0
DIMSTYLE
105
1339
330
A
100
AcDbSymbolTableRecord
100
AcDbDimStyleTableRecord
  2
AM_ANSI$3
 70
     0
  4
mm
 41
0.1
 42
0.05
 43
0.5
 44
0.1
 47
0.1
 48
0.1
 78
     7
 79
     2
140
0.12
141
0.0
146
0.71
147
0.06
176
   256
177
   256
178
     2
274
     4
284
     7
288
     1
289
     0
340
11
371
    -1
372
    -1
1001
ACAD_DSTYLE_DIMARC_LENGTH_SYMBOL
1070
   379
1070
     1
1001
ACAD_DSTYLE_DIMJOGGED_JOGANGLE_SYMBOL
1070
   384
1040
0.7853981633974483
  0
DIMSTYLE
105
133C
330
A
100
AcDbSymbolTableRecord
100
AcDbDimStyleTableRecord
  2
AM_ANSI$4
 70
     0
  4
mm
 41
0.1
 42
0.05
 43
0.5
 44
0.1
 47
0.1
 48
0.1
 78
     7
 79
     2
140
0.12
141
0.0
146
0.71
147
0.06
176
   256
177
   256
178
     2
274
     4
284
     7
288
     1
289
     0
340
11
371
    -1
372
    -1
1001
ACAD_DSTYLE_DIMARC_LENGTH_SYMBOL
1070
   379
1070
     1
1001
ACAD_DSTYLE_DIMJOGGED_JOGANGLE_SYMBOL
1070
   384
1040
0.7853981633974483
  0
DIMSTYLE
105
1341
330
A
100
AcDbSymbolTableRecord
100
AcDbDimStyleTableRecord
  2
AM_ANSI$7
 70
     0
  4
mm
 41
0.1
 42
0.05
 43
0.5
 44
0.1
 47
0.1
 48
0.1
 78
     7
 79
     2
140
0.24
141
0.0
146
0.71
147
0.06
176
   256
177
   256
178
     2
274
     4
284
     7
340
11
371
    -1
372
    -1
1001
ACAD_DSTYLE_DIMARC_LENGTH_SYMBOL
1070
   379
1070
     1
1001
ACAD_DSTYLE_DIMJOGGED_JOGANGLE_SYMBOL
1070
   384
1040
0.7853981633974483
  0
DIMSTYLE
105
1344
330
A
100
AcDbSymbolTableRecord
100
AcDbDimStyleTableRecord
  2
AM_ANSI$SF
 70
     0
  4
mm
 41
0.1
 42
0.05
 43
0.5
 44
0.1
 47
0.1
 48
0.1
 75
     1
 76
     1
 78
     7
 79
     2
140
0.12
141
0.0
146
0.71
147
0.06
176
   256
177
   256
178
     2
274
     4
284
     7
340
11
371
    -1
372
    -1
1001
ACAD_DSTYLE_DIMARC_LENGTH_SYMBOL
1070
   379
1070
     1
1001
ACAD_DSTYLE_DIMJOGGED_JOGANGLE_SYMBOL
1070
   384
1040
0.7853981633974483
  0
DIMSTYLE
105
134B
330
A
100
AcDbSymbolTableRecord
100
AcDbDimStyleTableRecord
  2
AM_ANSI$SH
 70
     0
  4
mm
 41
0.1
 42
0.05
 43
0.5
 44
0.1
 47
0.1
 48
0.1
 75
     1
 76
     1
 78
     7
 79
     2
140
0.12
141
0.0
146
0.71
147
0.06
173
     1
176
   256
177
   256
178
     2
274
     4
284
     7
340
11
343
1345
371
    -1
372
    -1
1001
ACAD_DSTYLE_DIMARC_LENGTH_SYMBOL
1070
   379
1070
     1
1001
ACAD_DSTYLE_DIMJOGGED_JOGANGLE_SYMBOL
1070
   384
1040
0.7853981633974483
  0
ENDTAB
  0
TABLE
  2
BLOCK_RECORD
  5
1
330
0
100
AcDbSymbolTable
 70
     6
  0
BLOCK_RECORD
  5
1F
102
{ACAD_XDICTIONARY
360
1168
102
}
330
1
100
AcDbSymbolTableRecord
100
AcDbBlockTableRecord
  2
*Model_Space
340
22
  0
BLOCK_RECORD
  5
1B
330
1
100
AcDbSymbolTableRecord
100
AcDbBlockTableRecord
  2
*Paper_Space
340
1E
  0
BLOCK_RECORD
  5
23
330
1
100
AcDbSymbolTableRecord
100
AcDbBlockTableRecord
  2
*Paper_Space0
340
26
  0
BLOCK_RECORD
  5
BDD
330
1
100
AcDbSymbolTableRecord
100
AcDbBlockTableRecord
  2
Extruded Part Boarder
340
0
1001
ACAD
1000
DesignCenter Data
1002
{
1070
     1
1070
     1
1002
}
  0
BLOCK_RECORD
  5
11C9
330
1
100
AcDbSymbolTableRecord
100
AcDbBlockTableRecord
  2
*D2
340
0
  0
BLOCK_RECORD
  5
12F2
330
1
100
AcDbSymbolTableRecord
100
AcDbBlockTableRecord
  2
*U3
340
0
  0
BLOCK_RECORD
  5
1345
330
1
100
AcDbSymbolTableRecord
100
AcDbBlockTableRecord
  2
GENAXEH
340
0
  0
ENDTAB
  0
ENDSEC
  0
SECTION
  2
BLOCKS
  0
BLOCK
  5
20
330
1F
100
AcDbEntity
  8
0
100
AcDbBlockBegin
  2
*Model_Space
 70
     0
 10
0.0
 20
0.0
 30
0.0
  3
*Model_Space
  1

  0
ENDBLK
  5
21
330
1F
100
AcDbEntity
  8
0
100
AcDbBlockEnd
  0
BLOCK
  5
1C
330
1B
100
AcDbEntity
 67
     1
  8
0
100
AcDbBlockBegin
  2
*Paper_Space
 70
     0
 10
0.0
 20
0.0
 30
0.0
  3
*Paper_Space
  1

  0
ENDBLK
  5
1D
330
1B
100
AcDbEntity
 67
     1
  8
0
100
AcDbBlockEnd
  0
BLOCK
  5
24
330
23
100
AcDbEntity
 67
     1
  8
0
100
AcDbBlockBegin
  2
*Paper_Space0
 70
     0
 10
0.0
 20
0.0
 30
0.0
  3
*Paper_Space0
  1

  0
ENDBLK
  5
25
330
23
100
AcDbEntity
 67
     1
  8
0
100
AcDbBlockEnd
  0
BLOCK
  5
C08
330
BDD
100
AcDbEntity
  8
0
100
AcDbBlockBegin
  2
Extruded Part Boarder
 70
     0
 10
0.0
 20
0.0
 30
0.0
  3
Extruded Part Boarder
  1

  0
LINE
  5
BDE
330
BDD
100
AcDbEntity
  8
TITLE_BLOCK
  6
Continuous
 62
     7
100
AcDbLine
 10
14.78302213198278
 20
11.57516829586068
 30
0.0
 11
13.93302213198278
 21
11.57516829586068
 31
0.0
  0
LINE
  5
BDF
330
BDD
100
AcDbEntity
  8
TITLE_BLOCK
  6
Continuous
 62
     7
100
AcDbLine
 10
13.95802213198278
 20
11.55016829586068
 30
0.0
 11
14.75802213198278
 21
11.55016829586068
 31
0.0
  0
LINE
  5
BE0
330
BDD
100
AcDbEntity
  8
TITLE_BLOCK
  6
Continuous
 62
     7
100
AcDbLine
 10
13.93302213198278
 20
10.47516829586068
 30
0.0
 11
13.93302213198278
 21
11.57516829586068
 31
0.0
  0
LINE
  5
BE1
330
BDD
100
AcDbEntity
  8
TITLE_BLOCK
  6
Continuous
 62
     7
100
AcDbLine
 10
13.95802213198278
 20
10.50016829586068
 30
0.0
 11
13.95802213198278
 21
11.55016829586068
 31
0.0
  0
LINE
  5
BE2
330
BDD
100
AcDbEntity
  8
TITLE_BLOCK
  6
Continuous
 62
     7
100
AcDbLine
 10
14.75802213198278
 20
11.55016829586068
 30
0.0
 11
14.75802213198278
 21
10.50016829586068
 31
0.0
  0
LINE
  5
BE3
330
BDD
100
AcDbEntity
  8
TITLE_BLOCK
  6
Continuous
 62
     7
100
AcDbLine
 10
14.78302213198278
 20
10.47516829586068
 30
0.0
 11
14.78302213198278
 21
11.57516829586068
 31
0.0
  0
MTEXT
  5
BE4
330
BDD
100
AcDbEntity
  8
0
  6
Continuous
 62
     2
100
AcDbMText
 10
14.15972580042397
 20
10.58345414730853
 30
0.0
 40
0.00625
 41
0.2959652489
 71
     1
 72
     5
  3
{\Fisocp.shx|c0;\C7;NOTICE OF CONFIDENTIAL INFORMATION:  INFORMATION CONTAINED HEREIN IS CONFIDENTIAL AND PROPRIETARY IN NATURE AND SHALL AT ALL TIMES REMAIN THE PROPERTY OF ULTRAFAB, INC. 1050 HOOK ROAD FARMINGTON NY 14425.  BY REVIEWING THE CONTENT
  1
S OF THIS DOCUMENT, YOU HEREBY AGREE TO ALL THE TERMS AND CONDITIONS SET FORTH ABOVE.}
 73
     1
 44
1.0
  0
LINE
  5
BE5
330
BDD
100
AcDbEntity
  8
TITLE_BLOCK
  6
Continuous
 62
     7
100
AcDbLine
 10
14.78302213198278
 20
10.47516829586068
 30
0.0
 11
13.93302213198278
 21
10.47516829586068
 31
0.0
  0
LINE
  5
BE6
330
BDD
100
AcDbEntity
  8
TITLE_BLOCK
  6
Continuous
 62
     7
100
AcDbLine
 10
14.75802213198278
 20
10.50016829586068
 30
0.0
 11
13.95802213198278
 21
10.50016829586068
 31
0.0
  0
LINE
  5
BE7
330
BDD
100
AcDbEntity
  8
TITLE_BLOCK
  6
Continuous
 62
     7
100
AcDbLine
 10
13.95802213198278
 20
10.66266829586068
 30
0.0
 11
14.75802213198278
 21
10.66266829586068
 31
0.0
  0
LINE
  5
BE8
330
BDD
100
AcDbEntity
  8
TITLE_BLOCK
  6
Continuous
 62
     7
100
AcDbLine
 10
14.15802213198278
 20
10.58766829586068
 30
0.0
 11
14.35802213198278
 21
10.58766829586068
 31
0.0
  0
LINE
  5
BE9
330
BDD
100
AcDbEntity
  8
TITLE_BLOCK
  6
Continuous
 62
     7
100
AcDbLine
 10
14.15802213198278
 20
10.53766829586068
 30
0.0
 11
13.95802213198278
 21
10.53766829586068
 31
0.0
  0
LINE
  5
BEA
330
BDD
100
AcDbEntity
  8
TITLE_BLOCK
  6
Continuous
 62
     7
100
AcDbLine
 10
13.97052213198278
 20
10.60641829586068
 30
0.0
 11
14.14552213198278
 21
10.60641829586068
 31
0.0
  0
LINE
  5
BEB
330
BDD
100
AcDbEntity
  8
TITLE_BLOCK
  6
Continuous
 62
     7
100
AcDbLine
 10
13.97052213198278
 20
10.55016829586068
 30
0.0
 11
14.14552213198278
 21
10.55016829586068
 31
0.0
  0
TEXT
  5
BEC
330
BDD
100
AcDbEntity
  8
TITLE_BLOCK
  6
Continuous
 62
     7
100
AcDbText
 10
13.96427213198278
 20
10.64391829586068
 30
0.0
 40
0.01
  1
CUSTOMER APPROVAL:
 41
0.5
100
AcDbText
  0
TEXT
  5
BED
330
BDD
100
AcDbEntity
  8
TITLE_BLOCK
  6
Continuous
 62
     7
100
AcDbText
 10
13.96427213198278
 20
10.58766829586068
 30
0.0
 40
0.01
  1
DATE:
 41
0.5
100
AcDbText
  0
LINE
  5
BEE
330
BDD
100
AcDbEntity
  8
TITLE_BLOCK
  6
Continuous
 62
     7
100
AcDbLine
 10
14.15802213198278
 20
10.63766829586068
 30
0.0
 11
14.25802213198278
 21
10.63766829586068
 31
0.0
  0
LINE
  5
BEF
330
BDD
100
AcDbEntity
  8
TITLE_BLOCK
  6
Continuous
 62
     7
100
AcDbLine
 10
14.15802213198278
 20
10.61266829586068
 30
0.0
 11
14.25802213198278
 21
10.61266829586068
 31
0.0
  0
LINE
  5
BF0
330
BDD
100
AcDbEntity
  8
TITLE_BLOCK
  6
Continuous
 62
     7
100
AcDbLine
 10
14.15802213198278
 20
10.66266829586068
 30
0.0
 11
14.15802213198278
 21
10.50016829586068
 31
0.0
  0
TEXT
  5
BF1
330
BDD
100
AcDbEntity
  8
TITLE_BLOCK
  6
Continuous
 62
     7
100
AcDbText
 10
14.16427213198278
 20
10.62516829586068
 30
0.0
 40
0.00625
  1
SIZE:
 41
0.5
100
AcDbText
  0
TEXT
  5
BF2
330
BDD
100
AcDbEntity
  8
TITLE_BLOCK
  6
Continuous
 62
     7
100
AcDbText
 10
14.16427213198278
 20
10.60016829586068
 30
0.0
 40
0.00625
  1
SHEET:
 41
0.5
100
AcDbText
  0
TEXT
  5
BF3
330
BDD
100
AcDbEntity
  8
TITLE_BLOCK
  6
Continuous
 62
     7
100
AcDbText
 10
14.16427213198278
 20
10.65016829586068
 30
0.0
 40
0.00625
  1
SCALE:
 41
0.5
100
AcDbText
  0
TEXT
  5
BF4
330
BDD
100
AcDbEntity
  8
TITLE_BLOCK
  6
Continuous
 62
     7
100
AcDbText
 10
14.19552213198278
 20
10.61891829586068
 30
0.0
 40
0.0125
  1
A
 41
0.5
100
AcDbText
  0
LINE
  5
BF5
330
BDD
100
AcDbEntity
  8
TITLE_BLOCK
  6
Continuous
 62
     7
100
AcDbLine
 10
14.25802213198278
 20
10.66266829586068
 30
0.0
 11
14.25802213198278
 21
10.58766829586068
 31
0.0
  0
TEXT
  5
BF6
330
BDD
100
AcDbEntity
  8
TITLE_BLOCK
  6
Continuous
 62
     7
100
AcDbText
 10
14.26427213198278
 20
10.65016829586068
 30
0.0
 40
0.00625
  1
MATERIAL:
 41
0.5
100
AcDbText
  0
LINE
  5
BF7
330
BDD
100
AcDbEntity
  8
TITLE_BLOCK
  6
Continuous
 62
     7
100
AcDbLine
 10
14.45802213198278
 20
10.62516829586068
 30
0.0
 11
14.75802213198278
 21
10.62516829586068
 31
0.0
  0
LINE
  5
BF8
330
BDD
100
AcDbEntity
  8
TITLE_BLOCK
  6
Continuous
 62
     7
100
AcDbLine
 10
14.45802213198278
 20
10.53766829586068
 30
0.0
 11
14.75802213198278
 21
10.53766829586068
 31
0.0
  0
TEXT
  5
BF9
330
BDD
100
AcDbEntity
  8
TITLE_BLOCK
  6
Continuous
 62
     7
100
AcDbText
 10
14.60437046955896
 20
10.63963879844496
 30
0.0
 40
0.01
  1
Extruded Components Division
 41
0.5
100
AcDbText
  0
TEXT
  5
BFA
330
BDD
100
AcDbEntity
  8
TITLE_BLOCK
  6
Continuous
 62
     7
100
AcDbText
 10
14.54814713198278
 20
10.55016829586068
 30
0.0
 40
0.01875
  1
PART DRAWING
 41
0.5
100
AcDbText
  0
TEXT
  5
BFB
330
BDD
100
AcDbEntity
  8
TITLE_BLOCK
  6
Continuous
 62
     7
100
AcDbText
 10
14.56214713198278
 20
10.60016829586068
 30
0.0
 40
0.01875
  1
.290 HIGH
 41
0.5
100
AcDbText
  0
TEXT
  5
BFC
330
BDD
100
AcDbEntity
  8
TITLE_BLOCK
  6
Continuous
 62
     7
100
AcDbText
 10
14.55314713198278
 20
10.57516829586068
 30
0.0
 40
0.01875
  1
.187 T-SLOT
 41
0.5
100
AcDbText
  0
TEXT
  5
BFD
330
BDD
100
AcDbEntity
  8
TITLE_BLOCK
  6
Continuous
 62
     7
100
AcDbText
 10
14.47052213198278
 20
10.63141829586068
 30
0.0
 40
0.025
  1
ULTRAFAB
 41
0.5
100
AcDbText
  0
TEXT
  5
BFE
330
BDD
100
AcDbEntity
  8
TITLE_BLOCK
  6
Continuous
 62
     7
100
AcDbText
 10
14.46427213198278
 20
10.51891829586068
 30
0.0
 40
0.01
  1
PART NO.:
 41
0.5
100
AcDbText
  0
LINE
  5
BFF
330
BDD
100
AcDbEntity
  8
TITLE_BLOCK
  6
Continuous
 62
     7
100
AcDbLine
 10
14.45802213198278
 20
10.66266829586068
 30
0.0
 11
14.45802213198278
 21
10.50016829586068
 31
0.0
  0
LINE
  5
C00
330
BDD
100
AcDbEntity
  8
TITLE_BLOCK
  6
Continuous
 62
     7
100
AcDbLine
 10
14.35802213198278
 20
10.58766829586068
 30
0.0
 11
14.45802213198278
 21
10.58766829586068
 31
0.0
  0
LINE
  5
C01
330
BDD
100
AcDbEntity
  8
TITLE_BLOCK
  6
Continuous
 62
     7
100
AcDbLine
 10
14.35802213198278
 20
10.58766829586068
 30
0.0
 11
14.45802213198278
 21
10.58766829586068
 31
0.0
  0
LINE
  5
C02
330
BDD
100
AcDbEntity
  8
TITLE_BLOCK
  6
Continuous
 62
     7
100
AcDbLine
 10
14.35802213198278
 20
10.66266829586068
 30
0.0
 11
14.35802213198278
 21
10.58766829586068
 31
0.0
  0
TEXT
  5
C03
330
BDD
100
AcDbEntity
  8
TITLE_BLOCK
  6
Continuous
 62
     7
100
AcDbText
 10
14.36427213198278
 20
10.65016829586068
 30
0.0
 40
0.00625
  1
COLOR:
 41
0.5
100
AcDbText
  0
TEXT
  5
C04
330
BDD
100
AcDbEntity
  8
TITLE_BLOCK
  6
Continuous
 62
     7
100
AcDbText
 10
14.46427213198278
 20
10.60641829586068
 30
0.0
 40
0.01
  1
TITLE:
 41
0.5
100
AcDbText
  0
TEXT
  5
C05
330
BDD
100
AcDbEntity
  8
TITLE_BLOCK
  6
Continuous
 62
     7
100
AcDbText
 10
14.59172427378823
 20
10.62921506225416
 30
0.0
 40
0.01875
  1
INC
 50
90.0
 41
0.5
100
AcDbText
  0
LINE
  5
C06
330
BDD
100
AcDbEntity
  8
TITLE_BLOCK
  6
Continuous
 62
     7
100
AcDbLine
 10
14.65802213198278
 20
10.53766829586068
 30
0.0
 11
14.65802213198278
 21
10.50016829586068
 31
0.0
  0
TEXT
  5
C07
330
BDD
100
AcDbEntity
  8
TITLE_BLOCK
  6
Continuous
 62
     7
100
AcDbText
 10
14.66427213198278
 20
10.51891829586068
 30
0.0
 40
0.01
  1
REV.:
 41
0.5
100
AcDbText
  0
ENDBLK
  5
C09
330
BDD
100
AcDbEntity
  8
0
100
AcDbBlockEnd
  0
BLOCK
  5
11D5
330
11C9
100
AcDbEntity
  8
0
100
AcDbBlockBegin
  2
*D2
 70
     1
 10
0.0
 20
0.0
 30
0.0
  3
*D2
  1

  0
LINE
  5
139F
330
11C9
100
AcDbEntity
  8
DIMENSIONS
 62
     0
370
    -2
100
AcDbLine
 10
9.842371396941187
 20
5.609706215315969
 30
0.0
 11
9.970451617533521
 21
5.609706215315969
 31
0.0
  0
LINE
  5
13A0
330
11C9
100
AcDbEntity
  8
DIMENSIONS
 62
     0
370
    -2
100
AcDbLine
 10
9.842371396941187
 20
5.586706215315969
 30
0.0
 11
9.970451617533521
 21
5.586706215315969
 31
0.0
  0
LINE
  5
13A1
330
11C9
100
AcDbEntity
  8
DIMENSIONS
 62
     0
370
    -2
100
AcDbLine
 10
9.957951617533522
 20
5.622206215315969
 30
0.0
 11
9.957951617533522
 21
5.634706215315969
 31
0.0
  0
LINE
  5
13A2
330
11C9
100
AcDbEntity
  8
DIMENSIONS
 62
     0
370
    -2
100
AcDbLine
 10
9.957951617533522
 20
5.574206215315969
 30
0.0
 11
9.957951617533522
 21
5.561706215315969
 31
0.0
  0
LINE
  5
13A3
330
11C9
100
AcDbEntity
  8
DIMENSIONS
 62
     0
370
    -2
100
AcDbLine
 10
9.957951617533522
 20
5.561706215315969
 30
0.0
 11
9.945451617533523
 21
5.561706215315969
 31
0.0
  0
SOLID
  5
13A4
330
11C9
100
AcDbEntity
  8
DIMENSIONS
 62
     0
100
AcDbTrace
 10
9.955868284200189
 20
5.622206215315969
 30
0.0
 11
9.960034950866855
 21
5.622206215315969
 31
0.0
 12
9.957951617533522
 22
5.609706215315969
 32
0.0
 13
9.957951617533522
 23
5.609706215315969
 33
0.0
  0
SOLID
  5
13A5
330
11C9
100
AcDbEntity
  8
DIMENSIONS
 62
     0
100
AcDbTrace
 10
9.955868284200189
 20
5.574206215315969
 30
0.0
 11
9.960034950866855
 21
5.574206215315969
 31
0.0
 12
9.957951617533522
 22
5.586706215315969
 32
0.0
 13
9.957951617533522
 23
5.586706215315969
 33
0.0
  0
MTEXT
  5
13A6
330
11C9
100
AcDbEntity
  8
DIMENSIONS
 62
     0
100
AcDbMText
 10
9.892743284200188
 20
5.56170621531597
 30
0.0
 40
0.0125
 41
0.0
 71
     5
 72
     1
  1
\A1;.023±.003
 73
     1
 44
1.0
  0
POINT
  5
13A7
330
11C9
100
AcDbEntity
  8
DEFPOINTS
 62
     0
100
AcDbPoint
 10
9.832371396941187
 20
5.609706215315969
 30
0.0
  0
POINT
  5
13A8
330
11C9
100
AcDbEntity
  8
DEFPOINTS
 62
     0
100
AcDbPoint
 10
9.832371396941187
 20
5.586706215315969
 30
0.0
  0
POINT
  5
13A9
330
11C9
100
AcDbEntity
  8
DEFPOINTS
 62
     0
100
AcDbPoint
 10
9.957951617533522
 20
5.586706215315969
 30
0.0
  0
ENDBLK
  5
11D6
330
11C9
100
AcDbEntity
  8
0
100
AcDbBlockEnd
  0
BLOCK
  5
12F3
330
12F2
100
AcDbEntity
  8
0
100
AcDbBlockBegin
  2
*U3
 70
     1
 10
0.0
 20
0.0
 30
0.0
  3
*U3
  1

  0
ENDBLK
  5
12F4
330
12F2
100
AcDbEntity
  8
0
100
AcDbBlockEnd
  0
BLOCK
  5
1347
330
1345
100
AcDbEntity
  8
0
100
AcDbBlockBegin
  2
GENAXEH
 70
     0
 10
0.0
 20
0.0
 30
0.0
  3
GENAXEH
  1

  0
LINE
  5
1346
330
1345
100
AcDbEntity
  8
0
100
AcDbLine
 10
-1.0
 20
0.0
 30
0.0
 11
1.0
 21
0.0
 31
0.0
  0
ENDBLK
  5
1348
330
1345
100
AcDbEntity
  8
0
100
AcDbBlockEnd
  0
ENDSEC
  0
SECTION
  2
ENTITIES
  0
LINE
  5
345
330
1F
100
AcDbEntity
  8
PRODUCT
  6
Continuous
 62
     5
100
AcDbLine
 10
9.729302218367582
 20
5.696936126720532
 30
0.0
 11
9.759302218367581
 21
5.696936126720532
 31
0.0
  0
LINE
  5
346
102
{ACAD_REACTORS
330
11E3
102
}
330
1F
100
AcDbEntity
  8
PRODUCT
  6
Continuous
 62
     5
100
AcDbLine
 10
9.656233039793974
 20
5.586706215315969
 30
0.0
 11
9.832371396941189
 21
5.586706215315969
 31
0.0
  0
ARC
  5
347
330
1F
100
AcDbEntity
  8
PRODUCT
  6
Continuous
 62
     5
100
AcDbCircle
 10
9.729302218367582
 20
5.686936126720532
 30
0.0
 40
0.01
100
AcDbArc
 50
90.0
 51
180.0
  0
ARC
  5
348
330
1F
100
AcDbEntity
  8
PRODUCT
  6
Continuous
 62
     5
100
AcDbCircle
 10
9.697876394922392
 20
5.628438946348244
 30
0.0
 40
0.021942302826463
100
AcDbArc
 50
301.3806442386465
 51
347.5440001774234
  0
LINE
  5
349
330
1F
100
AcDbEntity
  8
PRODUCT
  6
Continuous
 62
     5
100
AcDbLine
 10
9.656233039793974
 20
5.609706215315969
 30
0.0
 11
9.709302218367582
 21
5.609706215315969
 31
0.0
  0
LINE
  5
34A
330
1F
100
AcDbEntity
  8
PRODUCT
  6
Continuous
 62
     5
100
AcDbLine
 10
9.719302218367582
 20
5.62370621531597
 30
0.0
 11
9.719302218367582
 21
5.686936126720532
 31
0.0
  0
ARC
  5
34B
330
1F
100
AcDbEntity
  8
PRODUCT
  6
Continuous
 62
     5
100
AcDbCircle
 10
9.759302218367581
 20
5.686936126720532
 30
0.0
 40
0.01
100
AcDbArc
 50
360.0
 51
89.99999999999991
  0
LINE
  5
34C
330
1F
100
AcDbEntity
  8
PRODUCT
  6
Continuous
 62
     5
100
AcDbLine
 10
9.779302218367584
 20
5.609706215315969
 30
0.0
 11
9.832371396941192
 21
5.609706215315969
 31
0.0
  0
ARC
  5
34D
330
1F
100
AcDbEntity
  8
PRODUCT
  6
Continuous
 62
     5
100
AcDbCircle
 10
9.790728041812769
 20
5.628438946348244
 30
0.0
 40
0.0219423028264619
100
AcDbArc
 50
192.4559998225808
 51
238.6193557613614
  0
LINE
  5
34E
330
1F
100
AcDbEntity
  8
PRODUCT
  6
Continuous
 62
     5
100
AcDbLine
 10
9.769302218367583
 20
5.623706215315969
 30
0.0
 11
9.769302218367581
 21
5.686936126720532
 31
0.0
  0
ELLIPSE
  5
6BF
330
1F
100
AcDbEntity
  8
PRODUCT
 62
     5
100
AcDbEllipse
 10
9.744302218367582
 20
5.884130261580019
 30
0.0
 11
-0.1475000000000008
 21
0.0
 31
0.0
210
0.0
220
0.0
230
1.0
 40
0.6954301948199935
 41
3.141592653589793
 42
6.283185307179586
  0
SPLINE
  5
6E9
330
1F
100
AcDbEntity
  8
PRODUCT
 62
     5
100
AcDbSpline
210
0.0
220
0.0
230
1.0
 70
     8
 71
     3
 72
    14
 73
    10
 74
     0
 42
0.0000000001
 43
0.0000000001
 40
0.0
 40
0.0
 40
0.0
 40
0.0
 40
0.6860690594401693
 40
0.6860690594401693
 40
1.372138118880338
 40
1.372138118880338
 40
2.350441780783364
 40
2.350441780783364
 40
3.141592653589793
 40
3.141592653589793
 40
3.141592653589793
 40
3.141592653589793
 10
9.85701869153676
 20
5.880243584180321
 30
0.0
 10
9.856802218367583
 20
5.896078701766881
 30
0.0
 10
9.850999238869883
 20
5.909501653830053
 30
0.0
 10
9.820542925862079
 20
5.935370685983623
 30
0.0
 10
9.796001889904532
 20
5.946184866062028
 30
0.0
 10
9.729427380868582
 20
5.955505262512106
 30
0.0
 10
9.685858465959487
 20
5.945715541237849
 30
0.0
 10
9.639872778622324
 20
5.914101546594754
 30
0.0
 10
9.631802218367582
 20
5.897908785407088
 30
0.0
 10
9.631585745206658
 20
5.880243584185397
 30
0.0
  0
LINE
  5
B58
330
1F
100
AcDbEntity
  8
PRODUCT
 62
     5
100
AcDbLine
 10
9.719302218367582
 20
5.686936126720532
 30
0.0
 11
9.719302218367582
 21
5.699330870479316
 31
0.0
  0
LINE
  5
B5B
330
1F
100
AcDbEntity
  8
PRODUCT
 62
     5
100
AcDbLine
 10
9.596802218367582
 20
5.884130261580019
 30
0.0
 11
9.596802218367582
 21
5.883474899749694
 31
0.0
  0
ARC
  5
B5F
330
1F
100
AcDbEntity
  8
PRODUCT
 62
     5
100
AcDbCircle
 10
9.687511281245829
 20
5.884082256643004
 30
0.0
 40
0.0907110961825819
100
AcDbArc
 50
180.3836272310665
 51
243.5487089583225
  0
ARC
  5
B60
330
1F
100
AcDbEntity
  8
PRODUCT
 62
     5
100
AcDbCircle
 10
9.43464806289894
 20
5.603732149753609
 30
0.0
 40
0.3002783768937712
100
AcDbArc
 50
18.56419561352228
 51
34.40517969145915
  0
ARC
  5
B75
330
1F
100
AcDbEntity
  8
PRODUCT
 62
     5
100
AcDbCircle
 10
9.926086597057585
 20
5.672537138651781
 30
0.0
 40
0.1574441877574831
100
AcDbArc
 50
136.8546992888918
 51
174.7527079251847
  0
ARC
  5
B76
330
1F
100
AcDbEntity
  8
PRODUCT
 62
     5
100
AcDbCircle
 10
9.801093155489333
 20
5.884082256643004
 30
0.0
 40
0.0907110961825802
100
AcDbArc
 50
296.1619470830229
 51
359.6163727689334
  0
ARC
  5
B77
330
1F
100
AcDbEntity
  8
PRODUCT
 62
     5
100
AcDbCircle
 10
9.422448352280325
 20
5.610002503051763
 30
0.0
 40
0.3395977974523205
100
AcDbArc
 50
21.61862575581963
 51
35.25203081234168
  0
ARC
  5
B78
330
1F
100
AcDbEntity
  8
PRODUCT
 62
     5
100
AcDbCircle
 10
9.687982074862217
 20
5.884706617364628
 30
0.0
 40
0.0565726494321879
100
AcDbArc
 50
184.5247828959709
 51
243.1637156529822
  0
ARC
  5
B79
330
1F
100
AcDbEntity
  8
PRODUCT
 62
     5
100
AcDbCircle
 10
9.962528281847792
 20
5.659053130936588
 30
0.0
 40
0.2253101892703473
100
AcDbArc
 50
136.0127661388156
 51
160.2688535300665
  0
ARC
  5
B7A
330
1F
100
AcDbEntity
  8
PRODUCT
 62
     5
100
AcDbCircle
 10
9.805366273063125
 20
5.883056050072204
 30
0.0
 40
0.0517289309629419
100
AcDbArc
 50
296.0281127240508
 51
356.8833316581875
  0
LINE
  5
B7C
330
1F
100
AcDbEntity
  8
PRODUCT
 62
     5
100
AcDbLine
 10
9.7381577425877
 20
5.735119427990847
 30
0.0
 11
9.750446694147461
 21
5.735119427990847
 31
0.0
  0
ARC
  5
D75
330
1F
100
AcDbEntity
  8
PRODUCT
 62
     5
100
AcDbCircle
 10
9.567487673216461
 20
5.67164108576791
 30
0.0
 40
0.1534903867545572
100
AcDbArc
 50
41.52743277987784
 51
58.75400126605552
  0
ARC
  5
D76
330
1F
100
AcDbEntity
  8
PRODUCT
 62
     5
100
AcDbCircle
 10
9.582260728022802
 20
5.689355659544515
 30
0.0
 40
0.1655802429348969
100
AcDbArc
 50
44.79044498626668
 51
61.03673133469489
  0
ARC
  5
D77
330
1F
100
AcDbEntity
  8
PRODUCT
 62
     5
100
AcDbCircle
 10
9.913052281509946
 20
5.696232740969245
 30
0.0
 40
0.1640679131037181
100
AcDbArc
 50
121.1980066292881
 51
133.3540881165727
  0
ARC
  5
D78
330
1F
100
AcDbEntity
  8
PRODUCT
 62
     5
100
AcDbCircle
 10
9.885179554868473
 20
5.712909245783778
 30
0.0
 40
0.1
100
AcDbArc
 50
116.1619470830235
 51
137.703884943881
  0
LINE
  5
1163
330
1F
100
AcDbEntity
  8
DIMENSIONS
 62
     1
100
AcDbLine
 10
9.531087686304813
 20
5.507995025558012
 30
0.0
 11
9.58525435297148
 21
5.507995025558012
 31
0.0
  0
TEXT
  5
1164
330
1F
100
AcDbEntity
  8
DIMENSIONS
 62
     1
100
AcDbText
 10
9.531087686304813
 20
5.510495025558013
 30
0.0
 40
0.0125
  1
NOTE:
100
AcDbText
  0
TEXT
  5
1165
330
1F
100
AcDbEntity
  8
DIMENSIONS
 62
     1
100
AcDbText
 10
9.431087686304813
 20
5.48966169222468
 30
0.0
 40
0.0125
  1
MUST MAINTAIN 
100
AcDbText
  0
TEXT
  5
1166
330
1F
100
AcDbEntity
  8
DIMENSIONS
 62
     1
100
AcDbText
 10
9.447754352971481
 20
5.468828358891347
 30
0.0
 40
0.0125
  1
FLATNESS AT
100
AcDbText
  0
TEXT
  5
1167
330
1F
100
AcDbEntity
  8
DIMENSIONS
 62
     1
100
AcDbText
 10
9.431087686304813
 20
5.447995025558013
 30
0.0
 40
0.0125
  1
THIS LOCATION
100
AcDbText
  0
SOLID
  5
116A
330
1F
100
AcDbEntity
  8
DIMENSIONS
 62
     1
100
AcDbTrace
 10
9.732907076710894
 20
5.581161756424262
 30
0.0
 11
9.744302218367581
 21
5.586706215315969
 31
0.0
 12
9.735321233197755
 22
5.577765735286511
 32
0.0
 13
9.735321233197755
 23
5.577765735286511
 33
0.0
1001
ACAD
1000
DSTYLE
1002
{
1070
   147
1040
0.01
1070
    77
1070
     0
1002
}
  0
LWPOLYLINE
  5
116B
330
1F
100
AcDbEntity
  8
DIMENSIONS
 62
     1
100
AcDbPolyline
 90
        3
 70
     0
 43
0.0
 10
9.734114154954324
 20
5.579463745855386
 10
9.603587686304813
 20
5.486675359618812
 10
9.591087686304813
 20
5.486675359618812
1001
ACAD
1000
DSTYLE
1002
{
1070
   147
1040
0.01
1070
    77
1070
     0
1002
}
  0
LINE
  5
116C
330
1F
100
AcDbEntity
  8
DIMENSIONS
 62
     1
100
AcDbLine
 10
9.719302218367582
 20
5.696936126720532
 30
0.0
 11
9.545799695237153
 21
5.696936126720532
 31
0.0
  0
LINE
  5
116D
330
1F
100
AcDbEntity
  8
DIMENSIONS
 62
     1
100
AcDbLine
 10
9.646233039793974
 20
5.586706215315969
 30
0.0
 11
9.545799695237153
 21
5.586706215315969
 31
0.0
  0
LINE
  5
116E
330
1F
100
AcDbEntity
  8
DIMENSIONS
 62
     1
100
AcDbLine
 10
9.558299695237153
 20
5.684436126720532
 30
0.0
 11
9.558299695237153
 21
5.653116344421829
 31
0.0
  0
LINE
  5
116F
330
1F
100
AcDbEntity
  8
DIMENSIONS
 62
     1
100
AcDbLine
 10
9.558299695237153
 20
5.59920621531597
 30
0.0
 11
9.558299695237153
 21
5.620616344421828
 31
0.0
  0
SOLID
  5
1170
330
1F
100
AcDbEntity
  8
DIMENSIONS
 62
     1
100
AcDbTrace
 10
9.556216361903819
 20
5.684436126720532
 30
0.0
 11
9.560383028570486
 21
5.684436126720532
 31
0.0
 12
9.558299695237153
 22
5.696936126720532
 32
0.0
 13
9.558299695237153
 23
5.696936126720532
 33
0.0
  0
SOLID
  5
1171
330
1F
100
AcDbEntity
  8
DIMENSIONS
 62
     1
100
AcDbTrace
 10
9.556216361903819
 20
5.59920621531597
 30
0.0
 11
9.560383028570486
 21
5.59920621531597
 31
0.0
 12
9.558299695237153
 22
5.586706215315969
 32
0.0
 13
9.558299695237153
 23
5.586706215315969
 33
0.0
  0
MTEXT
  5
1172
330
1F
100
AcDbEntity
  8
DIMENSIONS
 62
     1
100
AcDbMText
 10
9.558299695237151
 20
5.63686634442183
 30
0.0
 40
0.0125
 41
0.0
 71
     5
 72
     1
  1
\A1;.110
 73
     1
 44
1.0
  0
LINE
  5
1173
330
1F
100
AcDbEntity
  8
DIMENSIONS
 62
     1
100
AcDbLine
 10
9.847802218367581
 20
5.801558870551794
 30
0.0
 11
9.993559702162043
 21
5.801558870551794
 31
0.0
  0
LINE
  5
1174
330
1F
100
AcDbEntity
  8
DIMENSIONS
 62
     1
100
AcDbLine
 10
9.842371396941189
 20
5.586706215315969
 30
0.0
 11
9.993559702162043
 21
5.586706215315969
 31
0.0
  0
LINE
  5
1175
330
1F
100
AcDbEntity
  8
DIMENSIONS
 62
     1
100
AcDbLine
 10
9.981059702162044
 20
5.789058870551794
 30
0.0
 11
9.981059702162044
 21
5.710382542933882
 31
0.0
  0
LINE
  5
1176
330
1F
100
AcDbEntity
  8
DIMENSIONS
 62
     1
100
AcDbLine
 10
9.981059702162044
 20
5.59920621531597
 30
0.0
 11
9.981059702162044
 21
5.677882542933882
 31
0.0
  0
SOLID
  5
1177
330
1F
100
AcDbEntity
  8
DIMENSIONS
 62
     1
100
AcDbTrace
 10
9.97897636882871
 20
5.789058870551794
 30
0.0
 11
9.983143035495377
 21
5.789058870551794
 31
0.0
 12
9.981059702162044
 22
5.801558870551794
 32
0.0
 13
9.981059702162044
 23
5.801558870551794
 33
0.0
  0
SOLID
  5
1178
330
1F
100
AcDbEntity
  8
DIMENSIONS
 62
     1
100
AcDbTrace
 10
9.97897636882871
 20
5.59920621531597
 30
0.0
 11
9.983143035495377
 21
5.59920621531597
 31
0.0
 12
9.981059702162044
 22
5.586706215315969
 32
0.0
 13
9.981059702162044
 23
5.586706215315969
 33
0.0
  0
MTEXT
  5
1179
330
1F
100
AcDbEntity
  8
DIMENSIONS
 62
     1
100
AcDbMText
 10
9.981059702162042
 20
5.694132542933883
 30
0.0
 40
0.0125
 41
0.0
 71
     5
 72
     1
  1
\A1;.215
 73
     1
 44
1.0
  0
LINE
  5
1181
330
1F
100
AcDbEntity
  8
DIMENSIONS
 62
     1
100
AcDbLine
 10
9.719302218367582
 20
5.696936126720531
 30
0.0
 11
9.545799695237151
 21
5.696936126720531
 31
0.0
  0
LINE
  5
1188
330
1F
100
AcDbEntity
  8
DIMENSIONS
 62
     1
100
AcDbLine
 10
9.596802218367582
 20
5.894130261580019
 30
0.0
 11
9.596802218367582
 21
6.036404186421014
 31
0.0
  0
LINE
  5
1189
330
1F
100
AcDbEntity
  8
DIMENSIONS
 62
     1
100
AcDbLine
 10
9.891802218367583
 20
5.894130261580019
 30
0.0
 11
9.891802218367583
 21
6.036404186421014
 31
0.0
  0
LINE
  5
118A
330
1F
100
AcDbEntity
  8
DIMENSIONS
 62
     1
100
AcDbLine
 10
9.609302218367581
 20
6.023904186421014
 30
0.0
 11
9.691593885034249
 21
6.023904186421014
 31
0.0
  0
LINE
  5
118B
330
1F
100
AcDbEntity
  8
DIMENSIONS
 62
     1
100
AcDbLine
 10
9.879302218367584
 20
6.023904186421014
 30
0.0
 11
9.797010551700916
 21
6.023904186421014
 31
0.0
  0
SOLID
  5
118C
330
1F
100
AcDbEntity
  8
DIMENSIONS
 62
     1
100
AcDbTrace
 10
9.609302218367581
 20
6.025987519754347
 30
0.0
 11
9.609302218367581
 21
6.021820853087681
 31
0.0
 12
9.596802218367582
 22
6.023904186421014
 32
0.0
 13
9.596802218367582
 23
6.023904186421014
 33
0.0
  0
SOLID
  5
118D
330
1F
100
AcDbEntity
  8
DIMENSIONS
 62
     1
100
AcDbTrace
 10
9.879302218367584
 20
6.025987519754347
 30
0.0
 11
9.879302218367584
 21
6.021820853087681
 31
0.0
 12
9.891802218367583
 22
6.023904186421014
 32
0.0
 13
9.891802218367583
 23
6.023904186421014
 33
0.0
  0
MTEXT
  5
118E
330
1F
100
AcDbEntity
  8
DIMENSIONS
 62
     1
100
AcDbMText
 10
9.744302218367582
 20
6.023904186421014
 30
0.0
 40
0.0125
 41
0.0
 71
     5
 72
     1
  1
\A1;.295±.015
 73
     1
 44
1.0
  0
LINE
  5
118F
330
1F
100
AcDbEntity
  8
DIMENSIONS
 62
     1
100
AcDbLine
 10
9.856802218367583
 20
5.894130261580019
 30
0.0
 11
9.856802218367583
 21
5.947707658344868
 31
0.0
  0
LINE
  5
1190
330
1F
100
AcDbEntity
  8
DIMENSIONS
 62
     1
100
AcDbLine
 10
9.891802218367583
 20
5.894130261580019
 30
0.0
 11
9.891802218367583
 21
5.947707658344868
 31
0.0
  0
LINE
  5
1191
330
1F
100
AcDbEntity
  8
DIMENSIONS
 62
     1
100
AcDbLine
 10
9.844302218367584
 20
5.935207658344868
 30
0.0
 11
9.831802218367583
 21
5.935207658344868
 31
0.0
  0
LINE
  5
1192
330
1F
100
AcDbEntity
  8
DIMENSIONS
 62
     1
100
AcDbLine
 10
9.904302218367583
 20
5.935207658344868
 30
0.0
 11
9.926177218367584
 21
5.935207658344868
 31
0.0
  0
SOLID
  5
1193
330
1F
100
AcDbEntity
  8
DIMENSIONS
 62
     1
100
AcDbTrace
 10
9.844302218367584
 20
5.937290991678201
 30
0.0
 11
9.844302218367584
 21
5.933124325011535
 31
0.0
 12
9.856802218367583
 22
5.935207658344868
 32
0.0
 13
9.856802218367583
 23
5.935207658344868
 33
0.0
  0
SOLID
  5
1194
330
1F
100
AcDbEntity
  8
DIMENSIONS
 62
     1
100
AcDbTrace
 10
9.904302218367583
 20
5.937290991678201
 30
0.0
 11
9.904302218367583
 21
5.933124325011535
 31
0.0
 12
9.891802218367583
 22
5.935207658344868
 32
0.0
 13
9.891802218367583
 23
5.935207658344868
 33
0.0
  0
MTEXT
  5
1195
330
1F
100
AcDbEntity
  8
DIMENSIONS
 62
     1
100
AcDbMText
 10
9.978885551700917
 20
5.935207658344868
 30
0.0
 40
0.0125
 41
0.0
 71
     5
 72
     1
  1
\A1;.035±.005
 73
     1
 44
1.0
  0
LINE
  5
11AC
330
1F
100
AcDbEntity
  8
DIMENSIONS
 62
     1
100
AcDbLine
 10
9.651802218367581
 20
5.586706215315969
 30
0.0
 11
9.651802218367581
 21
5.488478216529522
 31
0.0
  0
LINE
  5
11AD
330
1F
100
AcDbEntity
  8
DIMENSIONS
 62
     1
100
AcDbLine
 10
9.836802218367582
 20
5.586959969777802
 30
0.0
 11
9.836802218367582
 21
5.488478216529522
 31
0.0
  0
LINE
  5
11AE
330
1F
100
AcDbEntity
  8
DIMENSIONS
 62
     1
100
AcDbLine
 10
9.664302218367581
 20
5.500978216529522
 30
0.0
 11
9.697690239843323
 21
5.500978216529522
 31
0.0
  0
LINE
  5
11AF
330
1F
100
AcDbEntity
  8
DIMENSIONS
 62
     1
100
AcDbLine
 10
9.824302218367582
 20
5.500978216529522
 30
0.0
 11
9.801023573176655
 21
5.500978216529522
 31
0.0
  0
SOLID
  5
11B0
330
1F
100
AcDbEntity
  8
DIMENSIONS
 62
     1
100
AcDbTrace
 10
9.664302218367581
 20
5.503061549862855
 30
0.0
 11
9.664302218367581
 21
5.498894883196189
 31
0.0
 12
9.651802218367581
 22
5.500978216529522
 32
0.0
 13
9.651802218367581
 23
5.500978216529522
 33
0.0
  0
SOLID
  5
11B1
330
1F
100
AcDbEntity
  8
DIMENSIONS
 62
     1
100
AcDbTrace
 10
9.824302218367582
 20
5.503061549862855
 30
0.0
 11
9.824302218367582
 21
5.498894883196189
 31
0.0
 12
9.836802218367582
 22
5.500978216529522
 32
0.0
 13
9.836802218367582
 23
5.500978216529522
 33
0.0
  0
MTEXT
  5
11B2
330
1F
100
AcDbEntity
  8
DIMENSIONS
 62
     1
100
AcDbMText
 10
9.749356906509989
 20
5.500978216529522
 30
0.0
 40
0.0125
 41
0.0
 71
     5
 72
     1
  1
\A1;.185±.005
 73
     1
 44
1.0
  0
LINE
  5
11B3
330
1F
100
AcDbEntity
  8
DIMENSIONS
 62
     1
100
AcDbLine
 10
9.646233039793974
 20
5.586706215315969
 30
0.0
 11
9.487369886565193
 21
5.586706215315969
 31
0.0
  0
LINE
  5
11B4
330
1F
100
AcDbEntity
  8
DIMENSIONS
 62
     1
100
AcDbLine
 10
9.734302218367583
 20
5.986706215315969
 30
0.0
 11
9.487369886565193
 21
5.986706215315969
 31
0.0
  0
LINE
  5
11B5
330
1F
100
AcDbEntity
  8
DIMENSIONS
 62
     1
100
AcDbLine
 10
9.499869886565193
 20
5.59920621531597
 30
0.0
 11
9.499869886565193
 21
5.754391757731688
 31
0.0
  0
LINE
  5
11B6
330
1F
100
AcDbEntity
  8
DIMENSIONS
 62
     1
100
AcDbLine
 10
9.499869886565193
 20
5.974206215315969
 30
0.0
 11
9.499869886565193
 21
5.786891757731689
 31
0.0
  0
SOLID
  5
11B7
330
1F
100
AcDbEntity
  8
DIMENSIONS
 62
     1
100
AcDbTrace
 10
9.497786553231859
 20
5.59920621531597
 30
0.0
 11
9.501953219898526
 21
5.59920621531597
 31
0.0
 12
9.499869886565193
 22
5.586706215315969
 32
0.0
 13
9.499869886565193
 23
5.586706215315969
 33
0.0
  0
SOLID
  5
11B8
330
1F
100
AcDbEntity
  8
DIMENSIONS
 62
     1
100
AcDbTrace
 10
9.497786553231859
 20
5.974206215315969
 30
0.0
 11
9.501953219898526
 21
5.974206215315969
 31
0.0
 12
9.499869886565193
 22
5.986706215315969
 32
0.0
 13
9.499869886565193
 23
5.986706215315969
 33
0.0
  0
MTEXT
  5
11B9
330
1F
100
AcDbEntity
  8
DIMENSIONS
 62
     1
100
AcDbMText
 10
9.499869886565191
 20
5.77064175773169
 30
0.0
 40
0.0125
 41
0.0
 71
     5
 72
     1
  1
\A1;.400±.015
 73
     1
 44
1.0
  0
ARC
  5
11C6
330
1F
100
AcDbEntity
  8
PRODUCT
 62
     5
100
AcDbCircle
 10
9.669143877054686
 20
5.598206215315969
 30
0.0
 40
0.0172898733012301
100
AcDbArc
 50
138.3077601838335
 51
221.6922398161691
  0
ARC
  5
11C7
102
{ACAD_REACTORS
330
11E3
102
}
330
1F
100
AcDbEntity
  8
PRODUCT
 62
     5
100
AcDbCircle
 10
9.819410786511339
 20
5.598206215315968
 30
0.0
 40
0.0173270719602107
100
AcDbArc
 50
318.4172311726641
 51
41.58276882734373
  0
DIMENSION
  5
11C8
102
{ACAD_XDICTIONARY
360
11D7
102
}
102
{ACAD_REACTORS
330
11E3
102
}
330
1F
100
AcDbEntity
  8
DIMENSIONS
 62
     1
100
AcDbDimension
  2
*D2
 10
9.957951617533522
 20
5.586706215315969
 30
0.0
 11
9.892743284200188
 21
5.56170621531597
 31
0.0
 70
    32
 71
     5
 42
0.0229999999999997
  3
DIMSTYLE1
100
AcDbAlignedDimension
 13
9.832371396941187
 23
5.609706215315969
 33
0.0
 14
9.832371396941187
 24
5.586706215315969
 34
0.0
 50
90.0
100
AcDbRotatedDimension
1001
ACAD
1000
DSTYLE
1002
{
1070
   284
1070
     4
1070
    47
1040
0.003
1070
   147
1040
0.01
1070
    48
1040
0.003
1070
    72
1070
     0
1070
    71
1070
     1
1002
}
  0
ENDSEC
  0
SECTION
  2
OBJECTS
  0
DICTIONARY
  5
C
330
0
100
AcDbDictionary
281
     1
  3
ACAD_COLOR
350
F74
  3
ACAD_GROUP
350
D
  3
ACAD_LAYOUT
350
1A
  3
ACAD_MATERIAL
350
F73
  3
ACAD_MLINESTYLE
350
17
  3
ACAD_PLOTSETTINGS
350
19
  3
ACAD_PLOTSTYLENAME
350
E
  3
ACAD_TABLESTYLE
350
F75
  3
AcDbVariableDictionary
350
296
  3
AcmDictionary
350
12FC
  3
AMG
350
1239
  3
AMGSNAPSETTINGS
350
1371
  3
ASE_INDEX_DICTIONARY
350
1365
  3
MAPISURF_MODULE
350
12C8
  0
DICTIONARY
  5
137A
330
2
100
AcDbDictionary
280
     1
281
     1
  3
ACAD_LAYERFILTERS
360
1380
  3
ACLYDICTIONARY
360
137F
  0
DICTIONARY
  5
1168
330
1F
100
AcDbDictionary
280
     1
281
     1
  3
ACAD_INDEX
360
13AA
  3
ACAD_SORTENTS
360
1169
  0
DICTIONARY
  5
11D7
330
11C8
100
AcDbDictionary
280
     1
281
     1
  3
ACAD_DIMASSOC
360
11E3
  0
DICTIONARY
  5
F74
102
{ACAD_REACTORS
330
C
102
}
330
C
100
AcDbDictionary
281
     1
  0
DICTIONARY
  5
D
102
{ACAD_REACTORS
330
C
102
}
330
C
100
AcDbDictionary
281
     1
  0
DICTIONARY
  5
1A
102
{ACAD_REACTORS
330
C
102
}
330
C
100
AcDbDictionary
281
     1
  3
Layout1
350
1E
  3
Layout2
350
26
  3
Model
350
22
  0
DICTIONARY
  5
F73
102
{ACAD_REACTORS
330
C
102
}
330
C
100
AcDbDictionary
281
     1
  0
DICTIONARY
  5
17
102
{ACAD_REACTORS
330
C
102
}
330
C
100
AcDbDictionary
281
     1
  3
Standard
350
18
  0
DICTIONARY
  5
19
102
{ACAD_REACTORS
330
C
102
}
330
C
100
AcDbDictionary
281
     1
  0
ACDBDICTIONARYWDFLT
  5
E
102
{ACAD_REACTORS
330
C
102
}
330
C
100
AcDbDictionary
281
     1
  3
Normal
350
F
100
AcDbDictionaryWithDefault
340
F
  0
DICTIONARY
  5
F75
102
{ACAD_REACTORS
330
C
102
}
330
C
100
AcDbDictionary
281
     1
  3
Standard
350
F76
  0
DICTIONARY
  5
296
102
{ACAD_REACTORS
330
C
102
}
330
C
100
AcDbDictionary
281
     1
  3
CTABLESTYLE
350
1008
  3
DIMASSOC
350
298
  3
HIDETEXT
350
297
  0
DICTIONARY
  5
12FC
102
{ACAD_REACTORS
330
C
102
}
330
C
100
AcDbDictionary
281
     1
  3
AcmBOMDATA
350
12FD
  3
AcmStdDictionary
350
1308
  3
AMDTSECTSYM_ARROWCOLOR
350
1327
  0
DICTIONARY
  5
1239
102
{ACAD_REACTORS
330
C
102
}
330
C
100
AcDbDictionary
281
     1
  3
AcMgSettings
350
123A
  3
AMGLAYCFG
350
130A
  0
DICTIONARY
  5
1371
102
{ACAD_REACTORS
330
C
102
}
330
C
100
AcDbDictionary
281
     1
  3
DIMENSION
350
1376
  3
FEA
350
1375
  3
HATCH (1)
350
1372
  3
HATCH (2)
350
1373
  3
SIMPLE WELD
350
1377
  3
SYMBOLS
350
1374
  0
DICTIONARY
  5
1365
102
{ACAD_REACTORS
330
C
102
}
330
C
100
AcDbDictionary
281
     1
  3
ASEBlockHierarchyIndexRecord
350
1366
1001
DCO15
1040
1538459373.52
  0
DICTIONARY
  5
1380
102
{ACAD_REACTORS
330
137A
102
}
330
137A
100
AcDbDictionary
281
     1
  0
DICTIONARY
  5
137F
102
{ACAD_REACTORS
330
137A
102
}
330
137A
100
AcDbDictionary
281
     1
1001
ACAD
1000
<All
  0
DICTIONARY
  5
13AA
102
{ACAD_REACTORS
330
1168
102
}
330
1168
100
AcDbDictionary
281
     1
  3
*A1
350
13AB
  0
SORTENTSTABLE
  5
1169
102
{ACAD_REACTORS
330
1168
102
}
330
1168
100
AcDbSortentsTable
330
1F
331
1188
  5
EA3
331
34D
  5
34D
331
1190
  5
E98
331
11B0
  5
B77
331
1171
  5
116A
331
346
  5
346
331
11B8
  5
B58
331
B75
  5
1028
331
1179
  5
10F3
331
1181
  5
EAA
331
1189
  5
EA4
331
34E
  5
34E
331
1191
  5
E99
331
116A
  5
119A
331
11B1
  5
B78
331
1172
  5
116B
331
347
  5
347
331
11B9
  5
B5B
331
B76
  5
1029
331
D75
  5
116C
331
118A
  5
EA5
331
1192
  5
E9A
331
6BF
  5
EA1
331
1163
  5
119C
331
B5F
  5
1026
331
116B
  5
119B
331
11B2
  5
B79
331
1173
  5
10D1
331
B77
  5
102B
331
D76
  5
116D
331
348
  5
348
331
118B
  5
EA6
331
1193
  5
E9B
331
B58
  5
1024
331
1164
  5
119D
331
B60
  5
1027
331
116C
  5
1163
331
11B3
  5
647
331
1174
  5
10D2
331
B78
  5
102C
331
D77
  5
116E
331
349
  5
349
331
118C
  5
EA7
331
1194
  5
E9C
331
6E9
  5
EA2
331
1165
  5
119E
331
11AC
  5
B5F
331
116D
  5
1164
331
11B4
  5
649
331
1175
  5
10D3
331
B79
  5
102D
331
D78
  5
116F
331
34A
  5
34A
331
118D
  5
EA8
331
1195
  5
E9D
331
1166
  5
119F
331
11AD
  5
B60
331
116E
  5
1165
331
11B5
  5
64A
331
1176
  5
10DA
331
B7A
  5
102F
331
34B
  5
34B
331
118E
  5
EA9
331
B5B
  5
1025
331
1167
  5
11A0
331
11AE
  5
B75
331
116F
  5
1166
331
11B6
  5
6BF
331
1177
  5
10E3
331
34C
  5
34C
331
118F
  5
E97
331
11AF
  5
B76
331
1170
  5
1167
331
11B7
  5
6E9
331
345
  5
345
331
1178
  5
10E4
331
B7C
  5
10D0
  0
DIMASSOC
  5
11E3
102
{ACAD_REACTORS
330
11D7
102
}
330
11D7
100
AcDbDimAssoc
330
11C8
 90
        3
 70
     0
 71
     0
  1
AcDbOsnapPointRef
 72
     1
331
11C7
 73
     2
 91
        0
 40
7.008941535312395
 10
0.0
 20
0.0
 30
2.000000000000000E+50
 75
     0
  1
AcDbOsnapPointRef
 72
     8
331
346
 73
     2
 91
        0
 40
0.9999999999999898
 10
0.0
 20
0.0
 30
0.0
 75
     1
  1
AcDbOsnapPointRef
 72
     1
331
11C7
 73
     2
 91
        0
 40
7.008941535312395
 10
0.0
 20
0.0
 30
2.000000000000000E+50
 75
     0
  0
LAYOUT
  5
1E
102
{ACAD_REACTORS
330
1A
102
}
330
1A
100
AcDbPlotSettings
  1

  2
HP LaserJet 5000 Series PS
  4

  6

 40
0.0
 41
0.0
 42
0.0
 43
0.0
 44
0.0
 45
0.0
 46
0.0
 47
0.0
 48
0.0
 49
0.0
140
0.0
141
0.0
142
1.0
143
1.0
 70
   688
 72
     0
 73
     0
 74
     5
  7
monochrome.ctb
 75
    16
147
1.0
 76
     0
 77
     2
 78
   300
148
0.0
149
0.0
100
AcDbLayout
  1
Layout1
 70
     1
 71
     1
 10
0.0
 20
0.0
 11
12.0
 21
9.0
 12
0.0
 22
0.0
 32
0.0
 14
1.000000000000000E+20
 24
1.000000000000000E+20
 34
1.000000000000000E+20
 15
-1.000000000000000E+20
 25
-1.000000000000000E+20
 35
-1.000000000000000E+20
146
0.0
 13
0.0
 23
0.0
 33
0.0
 16
1.0
 26
0.0
 36
0.0
 17
0.0
 27
1.0
 37
0.0
 76
     0
330
1B
  0
LAYOUT
  5
26
102
{ACAD_REACTORS
330
1A
102
}
330
1A
100
AcDbPlotSettings
  1

  2
HP LaserJet 5000 Series PS
  4

  6

 40
0.0
 41
0.0
 42
0.0
 43
0.0
 44
0.0
 45
0.0
 46
0.0
 47
0.0
 48
0.0
 49
0.0
140
0.0
141
0.0
142
1.0
143
1.0
 70
   688
 72
     0
 73
     0
 74
     5
  7
monochrome.ctb
 75
    16
147
1.0
 76
     0
 77
     2
 78
   300
148
0.0
149
0.0
100
AcDbLayout
  1
Layout2
 70
     1
 71
     2
 10
0.0
 20
0.0
 11
12.0
 21
9.0
 12
0.0
 22
0.0
 32
0.0
 14
0.0
 24
0.0
 34
0.0
 15
0.0
 25
0.0
 35
0.0
146
0.0
 13
0.0
 23
0.0
 33
0.0
 16
1.0
 26
0.0
 36
0.0
 17
0.0
 27
1.0
 37
0.0
 76
     0
330
23
  0
LAYOUT
  5
22
102
{ACAD_REACTORS
330
1A
102
}
330
1A
100
AcDbPlotSettings
  1

  2
HP LaserJet 4V
  4
Letter
  6

 40
5.873749732971191
 41
10.95374488830566
 42
10.53041076660156
 43
13.49374389648437
 44
215.8999938964844
 45
279.3999938964844
 46
2.54
 47
1.778
 48
9.366555212455075
 49
5.261941094762692
140
10.13155521245507
141
6.251941094762692
142
1.0
143
0.1
 70
 11956
 72
     0
 73
     0
 74
     4
  7
monochrome.ctb
 75
    30
147
10.0
 76
     0
 77
     2
 78
   300
148
-237.9105023963589
149
-133.6533038069723
100
AcDbLayout
  1
Model
 70
     1
 71
     0
 10
0.0
 20
0.0
 11
12.0
 21
9.0
 12
0.0
 22
0.0
 32
0.0
 14
0.0
 24
0.0
 34
0.0
 15
0.0
 25
0.0
 35
0.0
146
0.0
 13
0.0
 23
0.0
 33
0.0
 16
1.0
 26
0.0
 36
0.0
 17
0.0
 27
1.0
 37
0.0
 76
     0
330
1F
  0
MLINESTYLE
  5
18
102
{ACAD_REACTORS
330
17
102
}
330
17
100
AcDbMlineStyle
  2
STANDARD
 70
     0
  3

 62
   256
 51
90.0
 52
90.0
 71
     2
 49
0.5
 62
   256
  6
BYLAYER
 49
-0.5
 62
   256
  6
BYLAYER
  0
ACDBPLACEHOLDER
  5
F
102
{ACAD_REACTORS
330
E
102
}
330
E
  0
TABLESTYLE
  5
F76
102
{ACAD_REACTORS
330
F75
102
}
330
F75
100
AcDbTableStyle
  3
Standard
 70
     0
 71
     0
 40
0.06
 41
0.06
280
     0
281
     0
  7
Standard
140
0.18
170
     2
 62
     0
 63
     7
283
     0
274
    -2
284
     1
 64
     0
275
    -2
285
     1
 65
     0
276
    -2
286
     1
 66
     0
277
    -2
287
     1
 67
     0
278
    -2
288
     1
 68
     0
279
    -2
289
     1
 69
     0
  7
Standard
140
0.25
170
     5
 62
     0
 63
     7
283
     0
274
    -2
284
     1
 64
     0
275
    -2
285
     1
 65
     0
276
    -2
286
     1
 66
     0
277
    -2
287
     1
 67
     0
278
    -2
288
     1
 68
     0
279
    -2
289
     1
 69
     0
  7
Standard
140
0.18
170
     5
 62
     0
 63
     7
283
     0
274
    -2
284
     1
 64
     0
275
    -2
285
     1
 65
     0
276
    -2
286
     1
 66
     0
277
    -2
287
     1
 67
     0
278
    -2
288
     1
 68
     0
279
    -2
289
     1
 69
     0
  0
DICTIONARYVAR
  5
1008
102
{ACAD_REACTORS
330
296
102
}
330
296
100
DictionaryVariables
280
     0
  1
STANDARD
  0
DICTIONARYVAR
  5
298
102
{ACAD_REACTORS
330
296
102
}
330
296
100
DictionaryVariables
280
     0
  1
2
  0
DICTIONARYVAR
  5
297
102
{ACAD_REACTORS
330
296
102
}
330
296
100
DictionaryVariables
280
     0
  1
1
  0
ACMDATADICTIONARY
  5
12FD
102
{ACAD_REACTORS
330
12FC
102
}
330
12FC
100
AcDbDictionary
281
     1
  3
*A1
350
12FE
100
AcmDataDictionary
  0
DICTIONARY
  5
1308
102
{ACAD_REACTORS
330
12FC
102
}
330
12FC
100
AcDbDictionary
281
     1
  3
ANSI
350
1309
  0
XRECORD
  5
1327
102
{ACAD_REACTORS
330
12FC
102
}
330
12FC
100
AcDbXrecord
280
     1
 90
-1023410169
  0
DICTIONARY
  5
123A
102
{ACAD_REACTORS
330
1239
102
}
330
1239
100
AcDbDictionary
281
     1
  3
DWGSETTINGS
350
123B
  3
TRANSSETTINGS
350
123F
  0
ACAMGFILTERDAT
  5
1376
102
{ACAD_REACTORS
330
1371
102
}
330
1371
100
AcAmgFilterDat
 70
    15
  1
DIMENSION,AMDT_*_DIM
  2
*
  3
*
  4
*
  5
*
290
     1
  0
ACAMGFILTERDAT
  5
1375
102
{ACAD_REACTORS
330
1371
102
}
330
1371
100
AcAmgFilterDat
 70
    15
  1
*
  2
AM_FEA-AM_*
  3
*
  4
*
  5
*
290
     1
  0
ACAMGFILTERDAT
  5
1372
102
{ACAD_REACTORS
330
1371
102
}
330
1371
100
AcAmgFilterDat
 70
    15
  1
HATCH
  2
*
  3
*
  4
*
  5
*
290
     1
  0
ACAMGFILTERDAT
  5
1373
102
{ACAD_REACTORS
330
1371
102
}
330
1371
100
AcAmgFilterDat
 70
    15
  1
LINE
  2
8,8N,*-8,*-8N,AM_8,AM_8N,*-AM_8,*-AM_8N
  3
*
  4
*
  5
INSERT,STDPART2D
290
     1
  0
ACAMGFILTERDAT
  5
1377
102
{ACAD_REACTORS
330
1371
102
}
330
1371
100
AcAmgFilterDat
 70
    15
  1
ARC
  2
AM_5
  3
*
  4
2
  5
INSERT
290
     0
  0
ACAMGFILTERDAT
  5
1374
102
{ACAD_REACTORS
330
1371
102
}
330
1371
100
AcAmgFilterDat
 70
    15
  1
ACMFCFRAME,ACMDATUMTARGET,ACMDATUMID,ACMWELDSYM,ACMSURFSYM,ACMFEATID,ACMPARTREF,ACMBALLOON,AMDTEDGESYM,AMGSCREWCALCTABLE
  2
*
  3
*
  4
*
  5
*
290
     1
  0
XRECORD
  5
1366
102
{ACAD_REACTORS
330
1365
102
}
330
1365
100
AcDbXrecord
280
     1
  0
LAYER_INDEX
  5
13AB
102
{ACAD_REACTORS
330
13AA
102
}
330
13AA
100
AcDbIndex
 40
2453626.433510452
100
AcDbLayerIndex
  8
0
360
13AC
 90
        0
  8
DIMENSIONS
360
13AD
 90
       51
  8
TITLE_BLOCK
360
13AE
 90
        0
  8
DEFPOINTS
360
13AF
 90
        0
  8
PRODUCT
360
13B0
 90
       29
  0
ACMDATAENTRYBLOCK
  5
12FE
102
{ACAD_REACTORS
330
12FD
102
}
330
12FD
100
AcmDataEntry
100
AcmDataEntryBlock
  0
IDBUFFER
  5
13AC
330
0
100
AcDbIdBuffer
  0
IDBUFFER
  5
13AD
330
0
100
AcDbIdBuffer
330
1194
330
1195
330
1193
330
1192
330
1191
330
1190
330
118F
330
118E
330
118D
330
118C
330
118B
330
118A
330
1189
330
1188
330
1181
330
11AC
330
11AD
330
11AE
330
11AF
330
11B0
330
11B1
330
11B2
330
11B3
330
11B4
330
11B5
330
11B6
330
11B7
330
11B8
330
11B9
330
11C8
330
1179
330
1163
330
1164
330
1165
330
1166
330
1167
330
116A
330
116B
330
116C
330
116D
330
116E
330
116F
330
1170
330
1171
330
1172
330
1173
330
1174
330
1175
330
1176
330
1177
330
1178
  0
IDBUFFER
  5
13AE
330
0
100
AcDbIdBuffer
  0
IDBUFFER
  5
13AF
330
0
100
AcDbIdBuffer
  0
IDBUFFER
  5
13B0
330
0
100
AcDbIdBuffer
330
B75
330
B76
330
B77
330
B78
330
B79
330
B7A
330
B7C
330
D75
330
D76
330
D77
330
D78
330
11C6
330
11C7
330
345
330
346
330
347
330
348
330
349
330
34A
330
34B
330
34C
330
34D
330
34E
330
6BF
330
6E9
330
B58
330
B5B
330
B5F
330
B60
  0
ENDSEC
  0
EOF
