  0
SECTION
  2
HEADER
  9
$ACADVER
  1
AC1021
  9
$ACADMAINTVER
 70
     2
  9
$DWGCODEPAGE
  3
ANSI_1252
  9
$LASTSAVEDBY
  1
CAB
  9
$INSBASE
 10
0.0
 20
0.0
 30
0.0
  9
$EXTMIN
 10
0.0
 20
0.0
 30
0.0
  9
$EXTMAX
 10
1.204989266383659
 20
1.559397874143559
 30
0.0
  9
$LIMMIN
 10
0.0
 20
0.0
  9
$LIMMAX
 10
0.0
 20
0.0
  9
$ORTHOMODE
 70
     0
  9
$REGENMODE
 70
     1
  9
$FILLMODE
 70
     1
  9
$QTEXTMODE
 70
     0
  9
$MIRRTEXT
 70
     1
  9
$LTSCALE
 40
1.0
  9
$ATTMODE
 70
     1
  9
$TEXTSIZE
 40
0.2
  9
$TRACEWID
 40
0.05
  9
$TEXTSTYLE
  7
STANDARD
  9
$CLAYER
  8
0
  9
$CELTYPE
  6
CONTINUOUS
  9
$CECOLOR
 62
     1
  9
$CELTSCALE
 40
1.0
  9
$DISPSILH
 70
     0
  9
$DIMSCALE
 40
1.0
  9
$DIMASZ
 40
0.18
  9
$DIMEXO
 40
0.0625
  9
$DIMDLI
 40
0.38
  9
$DIMRND
 40
0.0
  9
$DIMDLE
 40
0.0
  9
$DIMEXE
 40
0.25
  9
$DIMTP
 40
0.003
  9
$DIMTM
 40
-0.003
  9
$DIMTXT
 40
0.025
  9
$DIMCEN
 40
0.09
  9
$DIMTSZ
 40
0.0
  9
$DIMTOL
 70
     0
  9
$DIMLIM
 70
     0
  9
$DIMTIH
 70
     1
  9
$DIMTOH
 70
     1
  9
$DIMSE1
 70
     0
  9
$DIMSE2
 70
     0
  9
$DIMTAD
 70
     0
  9
$DIMZIN
 70
     0
  9
$DIMBLK
  1

  9
$DIMASO
 70
     1
  9
$DIMSHO
 70
     1
  9
$DIMPOST
  1

  9
$DIMAPOST
  1

  9
$DIMALT
 70
     0
  9
$DIMALTD
 70
     2
  9
$DIMALTF
 40
25.4
  9
$DIMLFAC
 40
1.0
  9
$DIMTOFL
 70
     0
  9
$DIMTVP
 40
0.0
  9
$DIMTIX
 70
     0
  9
$DIMSOXD
 70
     0
  9
$DIMSAH
 70
     0
  9
$DIMBLK1
  1

  9
$DIMBLK2
  1

  9
$DIMSTYLE
  2
STANDARD
  9
$DIMCLRD
 70
     0
  9
$DIMCLRE
 70
     0
  9
$DIMCLRT
 70
     1
  9
$DIMTFAC
 40
1.0
  9
$DIMGAP
 40
0.09
  9
$DIMJUST
 70
     0
  9
$DIMSD1
 70
     0
  9
$DIMSD2
 70
     0
  9
$DIMTOLJ
 70
     1
  9
$DIMTZIN
 70
     0
  9
$DIMALTZ
 70
     0
  9
$DIMALTTZ
 70
     0
  9
$DIMUPT
 70
     0
  9
$DIMDEC
 70
     4
  9
$DIMTDEC
 70
     4
  9
$DIMALTU
 70
     2
  9
$DIMALTTD
 70
     2
  9
$DIMTXSTY
  7
STANDARD
  9
$DIMAUNIT
 70
     0
  9
$DIMADEC
 70
     0
  9
$DIMALTRND
 40
0.0
  9
$DIMAZIN
 70
     0
  9
$DIMDSEP
 70
    46
  9
$DIMATFIT
 70
     3
  9
$DIMFRAC
 70
     0
  9
$DIMLDRBLK
  1

  9
$DIMLUNIT
 70
     2
  9
$DIMLWD
 70
    -2
  9
$DIMLWE
 70
    -2
  9
$DIMTMOVE
 70
     0
  9
$DIMFXL
 40
1.0
  9
$DIMFXLON
 70
     0
  9
$DIMJOGANG
 40
0.7853981633974483
  9
$DIMTFILL
 70
     0
  9
$DIMTFILLCLR
 70
     0
  9
$DIMARCSYM
 70
     0
  9
$DIMLTYPE
  6

  9
$DIMLTEX1
  6

  9
$DIMLTEX2
  6

  9
$LUNITS
 70
     2
  9
$LUPREC
 70
    10
  9
$SKETCHINC
 40
0.1
  9
$FILLETRAD
 40
0.0
  9
$AUNITS
 70
     0
  9
$AUPREC
 70
     0
  9
$MENU
  1
acad
  9
$ELEVATION
 40
0.0
  9
$PELEVATION
 40
0.0
  9
$THICKNESS
 40
0.0
  9
$LIMCHECK
 70
     0
  9
$CHAMFERA
 40
0.0
  9
$CHAMFERB
 40
0.0
  9
$CHAMFERC
 40
0.0
  9
$CHAMFERD
 40
0.0
  9
$SKPOLY
 70
     0
  9
$TDCREATE
 40
2444971.791666667
  9
$TDUCREATE
 40
2444972.000000000
  9
$TDUPDATE
 40
2454418.599690463
  9
$TDUUPDATE
 40
2454418.808023796
  9
$TDINDWG
 40
0.1605804745
  9
$TDUSRTIMER
 40
0.1605804745
  9
$USRTIMER
 70
     1
  9
$ANGBASE
 50
0.0
  9
$ANGDIR
 70
     0
  9
$PDMODE
 70
     2
  9
$PDSIZE
 40
0.0
  9
$PLINEWID
 40
0.0
  9
$SPLFRAME
 70
     0
  9
$SPLINETYPE
 70
     6
  9
$SPLINESEGS
 70
     8
  9
$HANDSEED
  5
1D8C
  9
$SURFTAB1
 70
     6
  9
$SURFTAB2
 70
     6
  9
$SURFTYPE
 70
     6
  9
$SURFU
 70
     6
  9
$SURFV
 70
     6
  9
$UCSBASE
  2

  9
$UCSNAME
  2

  9
$UCSORG
 10
0.0
 20
0.0
 30
0.0
  9
$UCSXDIR
 10
1.0
 20
0.0
 30
0.0
  9
$UCSYDIR
 10
0.0
 20
1.0
 30
0.0
  9
$UCSORTHOREF
  2

  9
$UCSORTHOVIEW
 70
     0
  9
$UCSORGTOP
 10
0.0
 20
0.0
 30
0.0
  9
$UCSORGBOTTOM
 10
0.0
 20
0.0
 30
0.0
  9
$UCSORGLEFT
 10
0.0
 20
0.0
 30
0.0
  9
$UCSORGRIGHT
 10
0.0
 20
0.0
 30
0.0
  9
$UCSORGFRONT
 10
0.0
 20
0.0
 30
0.0
  9
$UCSORGBACK
 10
0.0
 20
0.0
 30
0.0
  9
$PUCSBASE
  2

  9
$PUCSNAME
  2

  9
$PUCSORG
 10
0.0
 20
0.0
 30
0.0
  9
$PUCSXDIR
 10
1.0
 20
0.0
 30
0.0
  9
$PUCSYDIR
 10
0.0
 20
1.0
 30
0.0
  9
$PUCSORTHOREF
  2

  9
$PUCSORTHOVIEW
 70
     0
  9
$PUCSORGTOP
 10
0.0
 20
0.0
 30
0.0
  9
$PUCSORGBOTTOM
 10
0.0
 20
0.0
 30
0.0
  9
$PUCSORGLEFT
 10
0.0
 20
0.0
 30
0.0
  9
$PUCSORGRIGHT
 10
0.0
 20
0.0
 30
0.0
  9
$PUCSORGFRONT
 10
0.0
 20
0.0
 30
0.0
  9
$PUCSORGBACK
 10
0.0
 20
0.0
 30
0.0
  9
$USERI1
 70
     0
  9
$USERI2
 70
     0
  9
$USERI3
 70
     0
  9
$USERI4
 70
     0
  9
$USERI5
 70
     0
  9
$USERR1
 40
0.0
  9
$USERR2
 40
0.0
  9
$USERR3
 40
0.0
  9
$USERR4
 40
0.0
  9
$USERR5
 40
0.0
  9
$WORLDVIEW
 70
     1
  9
$SHADEDGE
 70
     3
  9
$SHADEDIF
 70
    70
  9
$TILEMODE
 70
     0
  9
$MAXACTVP
 70
    16
  9
$PINSBASE
 10
0.0
 20
0.0
 30
0.0
  9
$PLIMCHECK
 70
     0
  9
$PEXTMIN
 10
0.0137573790166243
 20
0.0000165982637554
 30
0.0
  9
$PEXTMAX
 10
7.986242369867099
 20
10.49998316704296
 30
0.0
  9
$PLIMMIN
 10
-0.2499999962453767
 20
-0.2499999962453767
  9
$PLIMMAX
 10
8.249999763458733
 20
10.74999976345873
  9
$UNITMODE
 70
     0
  9
$VISRETAIN
 70
     0
  9
$PLINEGEN
 70
     1
  9
$PSLTSCALE
 70
     0
  9
$TREEDEPTH
 70
  3020
  9
$CMLSTYLE
  2
STANDARD
  9
$CMLJUST
 70
     0
  9
$CMLSCALE
 40
1.0
  9
$PROXYGRAPHICS
 70
     1
  9
$MEASUREMENT
 70
     0
  9
$CELWEIGHT
370
    -1
  9
$ENDCAPS
280
     0
  9
$JOINSTYLE
280
     0
  9
$LWDISPLAY
290
     0
  9
$INSUNITS
 70
     0
  9
$HYPERLINKBASE
  1

  9
$STYLESHEET
  1

  9
$XEDIT
290
     1
  9
$CEPSNTYPE
380
     0
  9
$PSTYLEMODE
290
     1
  9
$FINGERPRINTGUID
  2
{03930EB6-8CD5-11D6-8A02-00902758FDDF}
  9
$VERSIONGUID
  2
{282FDDED-CFCE-405E-91B3-C987F68B62FD}
  9
$EXTNAMES
290
     1
  9
$PSVPSCALE
 40
0.0
  9
$OLESTARTUP
290
     0
  9
$SORTENTS
280
   127
  9
$INDEXCTL
280
     0
  9
$HIDETEXT
280
     0
  9
$XCLIPFRAME
290
     0
  9
$HALOGAP
280
     0
  9
$OBSCOLOR
 70
   257
  9
$OBSLTYPE
280
     0
  9
$INTERSECTIONDISPLAY
280
     0
  9
$INTERSECTIONCOLOR
 70
   257
  9
$DIMASSOC
280
     1
  9
$PROJECTNAME
  1

  9
$CAMERADISPLAY
290
     0
  9
$LENSLENGTH
 40
50.0
  9
$CAMERAHEIGHT
 40
0.0
  9
$STEPSPERSEC
 40
2.0
  9
$STEPSIZE
 40
6.0
  9
$3DDWFPREC
 40
2.0
  9
$PSOLWIDTH
 40
0.25
  9
$PSOLHEIGHT
 40
4.0
  9
$LOFTANG1
 40
1.570796326794896
  9
$LOFTANG2
 40
1.570796326794896
  9
$LOFTMAG1
 40
0.0
  9
$LOFTMAG2
 40
0.0
  9
$LOFTPARAM
 70
     7
  9
$LOFTNORMALS
280
     1
  9
$LATITUDE
 40
37.795
  9
$LONGITUDE
 40
-122.394
  9
$NORTHDIRECTION
 40
0.0
  9
$TIMEZONE
 70
 -8000
  9
$LIGHTGLYPHDISPLAY
280
     1
  9
$TILEMODELIGHTSYNCH
280
     1
  9
$CMATERIAL
347
1B01
  9
$SOLIDHIST
280
     1
  9
$SHOWHIST
280
     1
  9
$DWFFRAME
280
     2
  9
$DGNFRAME
280
     0
  9
$REALWORLDSCALE
290
     1
  9
$INTERFERECOLOR
 62
     1
  9
$INTERFEREOBJVS
345
1B0E
  9
$INTERFEREVPVS
346
1B0B
  9
$CSHADOW
280
     0
  9
$SHADOWPLANELOCATION
 40
0.0
  0
ENDSEC
  0
SECTION
  2
CLASSES
  0
CLASS
  1
IMAGE
  2
AcDbRasterImage
  3
ISM
 90
     2175
 91
        0
280
     0
281
     1
  0
CLASS
  1
DICTIONARYVAR
  2
AcDbDictionaryVar
  3
ObjectDBX Classes
 90
        0
 91
        2
280
     0
281
     0
  0
CLASS
  1
RASTERVARIABLES
  2
AcDbRasterVariables
  3
ISM
 90
        0
 91
        0
280
     0
281
     0
  0
CLASS
  1
IMAGEDEF
  2
AcDbRasterImageDef
  3
ISM
 90
        0
 91
        0
280
     0
281
     0
  0
CLASS
  1
IMAGEDEF_REACTOR
  2
AcDbRasterImageDefReactor
  3
ISM
 90
        1
 91
        0
280
     0
281
     0
  0
CLASS
  1
IDBUFFER
  2
AcDbIdBuffer
  3
ObjectDBX Classes
 90
        0
 91
        0
280
     0
281
     0
  0
CLASS
  1
SPATIAL_FILTER
  2
AcDbSpatialFilter
  3
ObjectDBX Classes
 90
        0
 91
        0
280
     0
281
     0
  0
CLASS
  1
SORTENTSTABLE
  2
AcDbSortentsTable
  3
ObjectDBX Classes
 90
        0
 91
        1
280
     0
281
     0
  0
CLASS
  1
LAYER_INDEX
  2
AcDbLayerIndex
  3
ObjectDBX Classes
 90
        0
 91
        0
280
     0
281
     0
  0
CLASS
  1
SPATIAL_INDEX
  2
AcDbSpatialIndex
  3
ObjectDBX Classes
 90
        0
 91
        0
280
     0
281
     0
  0
CLASS
  1
OBJECT_PTR
  2
CAseDLPNTableRecord
  3
ASE-LPNTableRecord
 90
        1
 91
        0
280
     0
281
     0
  0
CLASS
  1
ACDBDICTIONARYWDFLT
  2
AcDbDictionaryWithDefault
  3
ObjectDBX Classes
 90
        0
 91
        1
280
     0
281
     0
  0
CLASS
  1
TABLESTYLE
  2
AcDbTableStyle
  3
ObjectDBX Classes
 90
     4095
 91
        1
280
     0
281
     0
  0
CLASS
  1
VAACXREFPANELOBJECT
  2
VaAcXREFPanelObject
  3
VAAC_ADDIN
 90
        0
 91
        0
280
     0
281
     0
  0
CLASS
  1
VAACIMAGEINVENTORY
  2
VaAcImageInventory
  3
VAAC_ADDIN
 90
        0
 91
        0
280
     0
281
     0
  0
CLASS
  1
MATERIAL
  2
AcDbMaterial
  3
ObjectDBX Classes
 90
     1153
 91
        3
280
     0
281
     0
  0
CLASS
  1
VISUALSTYLE
  2
AcDbVisualStyle
  3
ObjectDBX Classes
 90
     4095
 91
       16
280
     0
281
     0
  0
CLASS
  1
EXACXREFPANELOBJECT
  2
ExAcXREFPanelObject
  3
EXAC_ESW
 90
     1025
 91
        1
280
     0
281
     0
  0
CLASS
  1
NPOCOLLECTION
  2
AcDbImpNonPersistentObjectsCollection
  3
ObjectDBX Classes
 90
     1153
 91
        1
280
     0
281
     0
  0
ENDSEC
  0
SECTION
  2
TABLES
  0
TABLE
  2
VPORT
  5
7
330
0
100
AcDbSymbolTable
 70
     1
  0
VPORT
  5
1AFF
330
7
100
AcDbSymbolTableRecord
100
AcDbViewportTableRecord
  2
*Active
 70
     0
 10
0.0
 20
0.0
 11
1.0
 21
1.0
 12
0.6024946359974138
 22
0.779698940702536
 13
0.0
 23
0.0
 14
1.0
 24
1.0
 15
0.0
 25
0.0
 16
0.0
 26
0.0
 36
1.0
 17
0.0
 27
0.0
 37
0.0
 40
1.57675681296244
 41
1.739371534195933
 42
50.0
 43
0.0
 44
0.0
 50
0.0
 51
0.0
 71
     0
 72
   100
 73
     1
 74
     1
 75
     0
 76
     0
 77
     0
 78
     0
281
     0
 65
     1
110
0.0
120
0.0
130
0.0
111
1.0
121
0.0
131
0.0
112
0.0
122
1.0
132
0.0
 79
     0
146
0.0
348
1B0A
 60
     3
 61
     5
292
     1
282
     1
141
0.0
142
0.0
 63
   250
421
  3355443
  0
ENDTAB
  0
TABLE
  2
LTYPE
  5
4
330
0
100
AcDbSymbolTable
 70
     4
  0
LTYPE
  5
11
330
4
100
AcDbSymbolTableRecord
100
AcDbLinetypeTableRecord
  2
BYBLOCK
 70
     0
  3

 72
    65
 73
     0
 40
0.0
  0
LTYPE
  5
12
330
4
100
AcDbSymbolTableRecord
100
AcDbLinetypeTableRecord
  2
BYLAYER
 70
     0
  3

 72
    65
 73
     0
 40
0.0
  0
LTYPE
  5
13
330
4
100
AcDbSymbolTableRecord
100
AcDbLinetypeTableRecord
  2
CONTINUOUS
 70
     0
  3
Solid line
 72
    65
 73
     0
 40
0.0
  0
LTYPE
  5
1D
330
4
100
AcDbSymbolTableRecord
100
AcDbLinetypeTableRecord
  2
DASHED
 70
     0
  3
_ _ _ _ _ _ _ _ _ _ _ _ _ _ _ _
 72
    65
 73
     2
 40
0.2
 49
0.1
 74
     0
 49
-0.1
 74
     0
  0
LTYPE
  5
1E
330
4
100
AcDbSymbolTableRecord
100
AcDbLinetypeTableRecord
  2
CENTER
 70
     0
  3
___ _ ___ _ ___ _ ___ _ ___ _ ___ _ ___ _ ___ _
 72
    65
 73
     4
 40
0.95
 49
0.625
 74
     0
 49
-0.125
 74
     0
 49
0.075
 74
     0
 49
-0.125
 74
     0
  0
LTYPE
  5
1F
330
4
100
AcDbSymbolTableRecord
100
AcDbLinetypeTableRecord
  2
PHANTOM
 70
     0
  3
______  __  __  ______  __  __  ______  __  __  
 72
    65
 73
     6
 40
1.024999999999999
 49
0.625
 74
     0
 49
-0.125
 74
     0
 49
0.075
 74
     0
 49
-0.125
 74
     0
 49
0.075
 74
     0
 49
-0.125
 74
     0
  0
ENDTAB
  0
TABLE
  2
LAYER
  5
2
102
{ACAD_XDICTIONARY
360
1B2F
102
}
330
0
100
AcDbSymbolTable
 70
    11
  0
LAYER
  5
14
330
2
100
AcDbSymbolTableRecord
100
AcDbLayerTableRecord
  2
0
 70
     0
 62
     7
  6
CONTINUOUS
370
    -3
390
160
347
1B03
  0
LAYER
  5
21
330
2
100
AcDbSymbolTableRecord
100
AcDbLayerTableRecord
  2
NOTE
 70
     0
 62
     7
  6
CONTINUOUS
370
    -3
390
160
347
1B03
  0
LAYER
  5
22
330
2
100
AcDbSymbolTableRecord
100
AcDbLayerTableRecord
  2
RIGID
 70
     0
 62
     7
  6
CONTINUOUS
370
    -3
390
160
347
1B03
  0
LAYER
  5
23
330
2
100
AcDbSymbolTableRecord
100
AcDbLayerTableRecord
  2
FLEXIBLE
 70
     0
 62
     7
  6
CONTINUOUS
370
    -3
390
160
347
1B03
  0
LAYER
  5
24
330
2
100
AcDbSymbolTableRecord
100
AcDbLayerTableRecord
  2
AREA
 70
     0
 62
     7
  6
CONTINUOUS
370
    -3
390
160
347
1B03
  0
LAYER
  5
25
330
2
100
AcDbSymbolTableRecord
100
AcDbLayerTableRecord
  2
DIMENSIONS
 70
     0
 62
     7
  6
CONTINUOUS
370
    -3
390
160
347
1B03
  0
LAYER
  5
26
330
2
100
AcDbSymbolTableRecord
100
AcDbLayerTableRecord
  2
TITLE_BLOCK
 70
     0
 62
     7
  6
CONTINUOUS
370
    -3
390
160
347
1B03
  0
LAYER
  5
2C
330
2
100
AcDbSymbolTableRecord
100
AcDbLayerTableRecord
  2
DEFPOINTS
 70
     0
 62
    -7
  6
CONTINUOUS
290
     0
370
    -3
390
160
347
1B03
  0
LAYER
  5
D65
330
2
100
AcDbSymbolTableRecord
100
AcDbLayerTableRecord
  2
DIM
 70
     0
 62
     3
  6
CONTINUOUS
370
    -3
390
160
347
1B03
  0
LAYER
  5
D66
330
2
100
AcDbSymbolTableRecord
100
AcDbLayerTableRecord
  2
REVISION
 70
     0
 62
     1
  6
CONTINUOUS
370
    -3
390
160
347
1B03
  0
LAYER
  5
D67
330
2
100
AcDbSymbolTableRecord
100
AcDbLayerTableRecord
  2
TEXT
 70
     0
 62
     1
  6
CONTINUOUS
370
    -3
390
160
347
1B03
  0
ENDTAB
  0
TABLE
  2
STYLE
  5
3
330
0
100
AcDbSymbolTable
 70
     3
  0
STYLE
  5
17
330
3
100
AcDbSymbolTableRecord
100
AcDbTextStyleTableRecord
  2
STANDARD
 70
     0
 40
0.0
 41
1.0
 50
0.0
 71
     0
 42
0.2
  3
txt
  4

  0
STYLE
  5
D68
330
3
100
AcDbSymbolTableRecord
100
AcDbTextStyleTableRecord
  2
STAND
 70
     0
 40
0.009375
 41
0.9
 50
0.0
 71
     0
 42
0.009375
  3
SIMPLEX
  4

  0
STYLE
  5
D69
330
3
100
AcDbSymbolTableRecord
100
AcDbTextStyleTableRecord
  2
ROMAND
 70
     0
 40
0.0
 41
1.0
 50
0.0
 71
     0
 42
0.0383274619173462
  3
romand
  4

  0
ENDTAB
  0
TABLE
  2
VIEW
  5
5
330
0
100
AcDbSymbolTable
 70
     0
  0
ENDTAB
  0
TABLE
  2
UCS
  5
6
330
0
100
AcDbSymbolTable
 70
     1
  0
UCS
  5
20
330
6
100
AcDbSymbolTableRecord
100
AcDbUCSTableRecord
  2
CK_VIEW_1
 70
     0
 10
0.0
 20
0.0
 30
1.0
 11
1.0
 21
0.0
 31
0.0
 12
0.0
 22
1.0
 32
0.0
 79
     0
146
0.0
  0
ENDTAB
  0
TABLE
  2
APPID
  5
8
330
0
100
AcDbSymbolTable
 70
     3
  0
APPID
  5
16
330
8
100
AcDbSymbolTableRecord
100
AcDbRegAppTableRecord
  2
ACAD
 70
     0
  0
APPID
  5
1A6
330
8
100
AcDbSymbolTableRecord
100
AcDbRegAppTableRecord
  2
DCO15
 70
     0
  0
APPID
  5
1B1F
330
8
100
AcDbSymbolTableRecord
100
AcDbRegAppTableRecord
  2
ACAD_PSEXT
 70
     0
  0
ENDTAB
  0
TABLE
  2
DIMSTYLE
  5
9
330
0
100
AcDbSymbolTable
 70
    15
100
AcDbDimStyleTable
 71
     5
340
18
340
140
340
28
340
122
340
4B
  0
DIMSTYLE
105
18
102
{ACAD_REACTORS
330
1859
330
18C3
102
}
330
9
100
AcDbSymbolTableRecord
100
AcDbDimStyleTableRecord
  2
STANDARD
 70
     0
289
     0
340
17
  0
DIMSTYLE
105
28
330
9
100
AcDbSymbolTableRecord
100
AcDbDimStyleTableRecord
  2
DIMSTYLE1
 70
     0
 41
0.025
 44
0.025
140
0.025
289
     0
340
17
  0
DIMSTYLE
105
3C
330
9
100
AcDbSymbolTableRecord
100
AcDbDimStyleTableRecord
  2
DIMSTYLE2
 70
     0
 41
0.025
 44
0.025
140
0.025
289
     0
340
17
  0
DIMSTYLE
105
4B
330
9
100
AcDbSymbolTableRecord
100
AcDbDimStyleTableRecord
  2
DIMSTYLE3
 70
     0
 41
0.025
 44
0.025
140
0.025
289
     0
340
17
  0
DIMSTYLE
105
5B
330
9
100
AcDbSymbolTableRecord
100
AcDbDimStyleTableRecord
  2
DIMSTYLE4
 70
     0
 41
0.025
 44
0.025
140
0.025
289
     0
340
17
  0
DIMSTYLE
105
6C
330
9
100
AcDbSymbolTableRecord
100
AcDbDimStyleTableRecord
  2
DIMSTYLE5
 70
     0
 41
0.025
 44
0.025
140
0.025
289
     0
340
17
  0
DIMSTYLE
105
7B
330
9
100
AcDbSymbolTableRecord
100
AcDbDimStyleTableRecord
  2
DIMSTYLE6
 70
     0
 41
0.025
 44
0.025
140
0.025
289
     0
340
17
  0
DIMSTYLE
105
D1
330
9
100
AcDbSymbolTableRecord
100
AcDbDimStyleTableRecord
  2
DIMSTYLE7
 70
     0
 41
0.025
 44
0.025
140
0.025
289
     0
340
17
  0
DIMSTYLE
105
E2
330
9
100
AcDbSymbolTableRecord
100
AcDbDimStyleTableRecord
  2
DIMSTYLE8
 70
     0
 41
0.025
 44
0.025
140
0.025
289
     0
340
17
  0
DIMSTYLE
105
104
330
9
100
AcDbSymbolTableRecord
100
AcDbDimStyleTableRecord
  2
DIMSTYLE9
 70
     0
 41
0.025
 44
0.025
140
0.025
289
     0
340
17
  0
DIMSTYLE
105
113
330
9
100
AcDbSymbolTableRecord
100
AcDbDimStyleTableRecord
  2
DIMSTYLE10
 70
     0
 41
0.025
 44
0.025
140
0.025
289
     0
340
17
  0
DIMSTYLE
105
122
330
9
100
AcDbSymbolTableRecord
100
AcDbDimStyleTableRecord
  2
DIMSTYLE11
 70
     0
 41
0.025
 44
0.025
140
0.025
289
     0
340
17
  0
DIMSTYLE
105
131
330
9
100
AcDbSymbolTableRecord
100
AcDbDimStyleTableRecord
  2
DIMSTYLE12
 70
     0
 41
0.025
 44
0.025
140
0.025
289
     0
340
17
  0
DIMSTYLE
105
140
102
{ACAD_REACTORS
330
138E
330
1541
330
158D
330
15BA
330
16E8
330
15F0
330
1612
330
1489
330
14A3
330
140B
330
131B
330
13CA
330
163C
330
120F
330
18C5
102
}
330
9
100
AcDbSymbolTableRecord
100
AcDbDimStyleTableRecord
  2
DIMSTYLE13
 70
     0
 41
0.025
 44
0.025
140
0.025
289
     0
340
17
  0
DIMSTYLE
105
D6A
330
9
100
AcDbSymbolTableRecord
100
AcDbDimStyleTableRecord
  2
STAND
 70
     0
 40
0.1
 41
0.094
 42
0.063
 43
0.375
 44
0.063
 77
     1
 78
     4
140
0.094
141
0.094
146
0.6702127659574469
147
0.094
176
   256
177
   256
178
   256
271
     3
272
     3
279
     2
284
     4
285
     4
286
     4
340
D68
  0
ENDTAB
  0
TABLE
  2
BLOCK_RECORD
  5
1
330
0
100
AcDbSymbolTable
 70
    17
  0
BLOCK_RECORD
  5
A
102
{ACAD_XDICTIONARY
360
11EF
102
}
330
1
100
AcDbSymbolTableRecord
100
AcDbBlockTableRecord
  2
*MODEL_SPACE
340
163
 70
     0
280
     1
281
     0
  0
BLOCK_RECORD
  5
B
330
1
100
AcDbSymbolTableRecord
100
AcDbBlockTableRecord
  2
*PAPER_SPACE
340
164
 70
     0
280
     1
281
     0
  0
BLOCK_RECORD
  5
C9E
330
1
100
AcDbSymbolTableRecord
100
AcDbBlockTableRecord
  2
REVMK
340
0
 70
     0
280
     1
281
     0
  0
BLOCK_RECORD
  5
1210
330
1
100
AcDbSymbolTableRecord
100
AcDbBlockTableRecord
  2
*D1
340
0
 70
     0
280
     1
281
     0
  0
BLOCK_RECORD
  5
131C
330
1
100
AcDbSymbolTableRecord
100
AcDbBlockTableRecord
  2
*D2
340
0
 70
     0
280
     1
281
     0
  0
BLOCK_RECORD
  5
138F
330
1
100
AcDbSymbolTableRecord
100
AcDbBlockTableRecord
  2
*D3
340
0
 70
     0
280
     1
281
     0
  0
BLOCK_RECORD
  5
13CB
330
1
100
AcDbSymbolTableRecord
100
AcDbBlockTableRecord
  2
*D4
340
0
 70
     0
280
     1
281
     0
  0
BLOCK_RECORD
  5
140C
330
1
100
AcDbSymbolTableRecord
100
AcDbBlockTableRecord
  2
*D5
340
0
 70
     0
280
     1
281
     0
  0
BLOCK_RECORD
  5
148A
330
1
100
AcDbSymbolTableRecord
100
AcDbBlockTableRecord
  2
*D6
340
0
 70
     0
280
     1
281
     0
  0
BLOCK_RECORD
  5
14A4
330
1
100
AcDbSymbolTableRecord
100
AcDbBlockTableRecord
  2
*D7
340
0
 70
     0
280
     1
281
     0
  0
BLOCK_RECORD
  5
1542
330
1
100
AcDbSymbolTableRecord
100
AcDbBlockTableRecord
  2
*D8
340
0
 70
     0
280
     1
281
     0
  0
BLOCK_RECORD
  5
158E
330
1
100
AcDbSymbolTableRecord
100
AcDbBlockTableRecord
  2
*D9
340
0
 70
     0
280
     1
281
     0
  0
BLOCK_RECORD
  5
15BB
330
1
100
AcDbSymbolTableRecord
100
AcDbBlockTableRecord
  2
*D10
340
0
 70
     0
280
     1
281
     0
  0
BLOCK_RECORD
  5
15F1
330
1
100
AcDbSymbolTableRecord
100
AcDbBlockTableRecord
  2
*D11
340
0
 70
     0
280
     1
281
     0
  0
BLOCK_RECORD
  5
1613
330
1
100
AcDbSymbolTableRecord
100
AcDbBlockTableRecord
  2
*D12
340
0
 70
     0
280
     1
281
     0
  0
BLOCK_RECORD
  5
163D
330
1
100
AcDbSymbolTableRecord
100
AcDbBlockTableRecord
  2
*D13
340
0
 70
     0
280
     1
281
     0
  0
BLOCK_RECORD
  5
16E9
330
1
100
AcDbSymbolTableRecord
100
AcDbBlockTableRecord
  2
*D14
340
0
 70
     0
280
     1
281
     0
  0
BLOCK_RECORD
  5
185A
330
1
100
AcDbSymbolTableRecord
100
AcDbBlockTableRecord
  2
*D15
340
0
 70
     0
280
     1
281
     0
  0
BLOCK_RECORD
  5
18C6
330
1
100
AcDbSymbolTableRecord
100
AcDbBlockTableRecord
  2
*D16
340
0
 70
     0
280
     1
281
     0
  0
ENDTAB
  0
ENDSEC
  0
SECTION
  2
BLOCKS
  0
BLOCK
  5
D
330
A
100
AcDbEntity
  8
0
100
AcDbBlockBegin
  2
*MODEL_SPACE
 70
     0
 10
0.0
 20
0.0
 30
0.0
  3
*MODEL_SPACE
  1

  0
ENDBLK
  5
E
330
A
100
AcDbEntity
  8
0
100
AcDbBlockEnd
  0
BLOCK
  5
F
330
B
100
AcDbEntity
 67
     1
  8
0
100
AcDbBlockBegin
  2
*PAPER_SPACE
 70
     0
 10
0.0
 20
0.0
 30
0.0
  3
*PAPER_SPACE
  1

  0
ENDBLK
  5
10
330
B
100
AcDbEntity
 67
     1
  8
0
100
AcDbBlockEnd
  0
BLOCK
  5
C9F
330
C9E
100
AcDbEntity
  8
0
100
AcDbBlockBegin
  2
REVMK
 70
     2
 10
0.0
 20
0.0
 30
0.0
  3
REVMK
  1

  0
ATTDEF
  5
CA0
330
C9E
100
AcDbEntity
  8
REVISION
100
AcDbText
 10
0.0
 20
0.0
 30
0.0
 40
0.09375
  1

 41
0.9
  7
STAND
 72
     4
 11
0.0
 21
0.0
 31
0.0
100
AcDbAttributeDefinition
  3
Enter revision number
  2
REVMARK
 70
     0
280
     0
  0
LWPOLYLINE
  5
CA1
330
C9E
100
AcDbEntity
  8
REVISION
100
AcDbPolyline
 90
        3
 70
     1
 43
0.0
 10
0.1362739636092909
 20
-0.0786778095733614
 10
0.0
 20
0.1573556191467227
 10
-0.1362739636092909
 20
-0.0786778095733611
  0
ENDBLK
  5
CA2
330
C9E
100
AcDbEntity
  8
0
100
AcDbBlockEnd
  0
BLOCK
  5
121B
330
1210
100
AcDbEntity
  8
0
 62
     1
100
AcDbBlockBegin
  2
*D1
 70
     1
 10
0.0
 20
0.0
 30
0.0
  3
*D1
  1

  0
LINE
  5
1D01
330
1210
100
AcDbEntity
  8
RIGID
  6
Continuous
 62
     1
370
    -2
100
AcDbLine
 10
0.4882052031388815
 20
0.8344801942381881
 30
0.0
 11
0.4882052031388815
 21
0.6894007562125163
 31
0.0
  0
LINE
  5
1D02
330
1210
100
AcDbEntity
  8
RIGID
  6
Continuous
 62
     1
370
    -2
100
AcDbLine
 10
0.7032052031388814
 20
0.8344801942381881
 30
0.0
 11
0.7032052031388814
 21
0.6894007562125163
 31
0.0
  0
LINE
  5
1D03
330
1210
100
AcDbEntity
  8
RIGID
  6
Continuous
 62
     1
370
    -2
100
AcDbLine
 10
0.5007052031388815
 20
0.7044007562125163
 30
0.0
 11
0.5440385364722148
 21
0.7044007562125163
 31
0.0
  0
LINE
  5
1D04
330
1210
100
AcDbEntity
  8
RIGID
  6
Continuous
 62
     1
370
    -2
100
AcDbLine
 10
0.6907052031388814
 20
0.7044007562125163
 30
0.0
 11
0.6473718698055481
 21
0.7044007562125163
 31
0.0
  0
SOLID
  5
1D05
330
1210
100
AcDbEntity
  8
RIGID
  6
Continuous
 62
     1
100
AcDbTrace
 10
0.5007052031388815
 20
0.7064840895458496
 30
0.0
 11
0.5007052031388815
 21
0.702317422879183
 31
0.0
 12
0.4882052031388815
 22
0.7044007562125163
 32
0.0
 13
0.4882052031388815
 23
0.7044007562125163
 33
0.0
  0
SOLID
  5
1D06
330
1210
100
AcDbEntity
  8
RIGID
  6
Continuous
 62
     1
100
AcDbTrace
 10
0.6907052031388814
 20
0.7064840895458496
 30
0.0
 11
0.6907052031388814
 21
0.702317422879183
 31
0.0
 12
0.7032052031388814
 22
0.7044007562125163
 32
0.0
 13
0.7032052031388814
 23
0.7044007562125163
 33
0.0
  0
MTEXT
  5
1D07
330
1210
100
AcDbEntity
  8
RIGID
  6
Continuous
 62
     0
100
AcDbMText
 10
0.5957052031388815
 20
0.7044007562125163
 30
0.0
 40
0.0125
 41
0.0
 46
0.0
 71
     5
 72
     1
  1
\A1;.215±.004
 73
     1
 44
1.0
  0
POINT
  5
1D08
330
1210
100
AcDbEntity
  8
DEFPOINTS
  6
Continuous
 62
     0
100
AcDbPoint
 10
0.4882052031388815
 20
0.8469801942381881
 30
0.0
  0
POINT
  5
1D09
330
1210
100
AcDbEntity
  8
DEFPOINTS
  6
Continuous
 62
     0
100
AcDbPoint
 10
0.7032052031388814
 20
0.8469801942381881
 30
0.0
  0
POINT
  5
1D0A
330
1210
100
AcDbEntity
  8
DEFPOINTS
  6
Continuous
 62
     0
100
AcDbPoint
 10
0.7032052031388814
 20
0.7044007562125163
 30
0.0
  0
ENDBLK
  5
121C
330
1210
100
AcDbEntity
  8
0
 62
     1
100
AcDbBlockEnd
  0
BLOCK
  5
1327
330
131C
100
AcDbEntity
  8
0
 62
     1
100
AcDbBlockBegin
  2
*D2
 70
     1
 10
0.0
 20
0.0
 30
0.0
  3
*D2
  1

  0
LINE
  5
1D29
330
131C
100
AcDbEntity
  8
RIGID
  6
Continuous
 62
     1
370
    -2
100
AcDbLine
 10
0.7032052031388814
 20
0.8344801942381881
 30
0.0
 11
0.7032052031388814
 21
0.7461680215777588
 31
0.0
  0
LINE
  5
1D2A
330
131C
100
AcDbEntity
  8
RIGID
  6
Continuous
 62
     1
370
    -2
100
AcDbLine
 10
0.6822052031388815
 20
0.822480194238188
 30
0.0
 11
0.6822052031388815
 21
0.7461680215777588
 31
0.0
  0
LINE
  5
1D2B
330
131C
100
AcDbEntity
  8
RIGID
  6
Continuous
 62
     1
370
    -2
100
AcDbLine
 10
0.7157052031388814
 20
0.7611680215777588
 30
0.0
 11
0.7282052031388814
 21
0.7611680215777588
 31
0.0
  0
LINE
  5
1D2C
330
131C
100
AcDbEntity
  8
RIGID
  6
Continuous
 62
     1
370
    -2
100
AcDbLine
 10
0.6697052031388815
 20
0.7611680215777588
 30
0.0
 11
0.6572052031388815
 21
0.7611680215777588
 31
0.0
  0
MTEXT
  5
1D2D
330
131C
100
AcDbEntity
  8
RIGID
  6
Continuous
 62
     0
100
AcDbMText
 10
0.7619552031388814
 20
0.7611680215777588
 30
0.0
 40
0.0125
 41
0.0
 46
0.0
 71
     5
 72
     1
  1
\A1;.021
 73
     1
 44
1.0
  0
SOLID
  5
1D2E
330
131C
100
AcDbEntity
  8
RIGID
  6
Continuous
 62
     1
100
AcDbTrace
 10
0.7157052031388814
 20
0.7632513549110921
 30
0.0
 11
0.7157052031388814
 21
0.7590846882444255
 31
0.0
 12
0.7032052031388814
 22
0.7611680215777588
 32
0.0
 13
0.7032052031388814
 23
0.7611680215777588
 33
0.0
  0
SOLID
  5
1D2F
330
131C
100
AcDbEntity
  8
RIGID
  6
Continuous
 62
     1
100
AcDbTrace
 10
0.6697052031388815
 20
0.7632513549110921
 30
0.0
 11
0.6697052031388815
 21
0.7590846882444255
 31
0.0
 12
0.6822052031388815
 22
0.7611680215777588
 32
0.0
 13
0.6822052031388815
 23
0.7611680215777588
 33
0.0
  0
POINT
  5
1D30
330
131C
100
AcDbEntity
  8
DEFPOINTS
  6
Continuous
 62
     0
100
AcDbPoint
 10
0.7032052031388814
 20
0.8469801942381881
 30
0.0
  0
POINT
  5
1D31
330
131C
100
AcDbEntity
  8
DEFPOINTS
  6
Continuous
 62
     0
100
AcDbPoint
 10
0.6822052031388815
 20
0.834980194238188
 30
0.0
  0
POINT
  5
1D32
330
131C
100
AcDbEntity
  8
DEFPOINTS
  6
Continuous
 62
     0
100
AcDbPoint
 10
0.6822052031388815
 20
0.7611680215777588
 30
0.0
  0
ENDBLK
  5
1328
330
131C
100
AcDbEntity
  8
0
 62
     1
100
AcDbBlockEnd
  0
BLOCK
  5
139B
330
138F
100
AcDbEntity
  8
0
 62
     1
100
AcDbBlockBegin
  2
*D3
 70
     1
 10
0.0
 20
0.0
 30
0.0
  3
*D3
  1

  0
LINE
  5
1CD8
330
138F
100
AcDbEntity
  8
RIGID
  6
Continuous
 62
     1
370
    -2
100
AcDbLine
 10
0.4967052031388814
 20
0.866980194238188
 30
0.0
 11
0.3276233608382271
 21
0.866980194238188
 31
0.0
  0
LINE
  5
1CD9
330
138F
100
AcDbEntity
  8
RIGID
  6
Continuous
 62
     1
370
    -2
100
AcDbLine
 10
0.4967052031388814
 20
0.834980194238188
 30
0.0
 11
0.3276233608382271
 21
0.834980194238188
 31
0.0
  0
LINE
  5
1CDA
330
138F
100
AcDbEntity
  8
RIGID
  6
Continuous
 62
     1
370
    -2
100
AcDbLine
 10
0.3426233608382272
 20
0.879480194238188
 30
0.0
 11
0.3426233608382272
 21
0.891980194238188
 31
0.0
  0
LINE
  5
1CDB
330
138F
100
AcDbEntity
  8
RIGID
  6
Continuous
 62
     1
370
    -2
100
AcDbLine
 10
0.3426233608382271
 20
0.822480194238188
 30
0.0
 11
0.3426233608382271
 21
0.801970272055059
 31
0.0
  0
LINE
  5
1CDC
330
138F
100
AcDbEntity
  8
RIGID
  6
Continuous
 62
     1
370
    -2
100
AcDbLine
 10
0.3426233608382271
 20
0.801970272055059
 30
0.0
 11
0.3301233608382271
 21
0.801970272055059
 31
0.0
  0
SOLID
  5
1CDD
330
138F
100
AcDbEntity
  8
RIGID
  6
Continuous
 62
     1
100
AcDbTrace
 10
0.3405400275048938
 20
0.879480194238188
 30
0.0
 11
0.3447066941715605
 21
0.879480194238188
 31
0.0
 12
0.3426233608382271
 22
0.866980194238188
 32
0.0
 13
0.3426233608382271
 23
0.866980194238188
 33
0.0
  0
SOLID
  5
1CDE
330
138F
100
AcDbEntity
  8
RIGID
  6
Continuous
 62
     1
100
AcDbTrace
 10
0.3405400275048938
 20
0.822480194238188
 30
0.0
 11
0.3447066941715605
 21
0.822480194238188
 31
0.0
 12
0.3426233608382271
 22
0.834980194238188
 32
0.0
 13
0.3426233608382271
 23
0.834980194238188
 33
0.0
  0
MTEXT
  5
1CDF
330
138F
100
AcDbEntity
  8
RIGID
  6
Continuous
 62
     0
100
AcDbMText
 10
0.2774150275048937
 20
0.8019702720550592
 30
0.0
 40
0.0125
 41
0.0
 46
0.0
 71
     5
 72
     1
  1
\A1;.032±.004
 73
     1
 44
1.0
  0
POINT
  5
1CE0
330
138F
100
AcDbEntity
  8
DEFPOINTS
  6
Continuous
 62
     0
100
AcDbPoint
 10
0.5092052031388814
 20
0.866980194238188
 30
0.0
  0
POINT
  5
1CE1
330
138F
100
AcDbEntity
  8
DEFPOINTS
  6
Continuous
 62
     0
100
AcDbPoint
 10
0.5092052031388814
 20
0.834980194238188
 30
0.0
  0
POINT
  5
1CE2
330
138F
100
AcDbEntity
  8
DEFPOINTS
  6
Continuous
 62
     0
100
AcDbPoint
 10
0.3426233608382271
 20
0.834980194238188
 30
0.0
  0
ENDBLK
  5
139C
330
138F
100
AcDbEntity
  8
0
 62
     1
100
AcDbBlockEnd
  0
BLOCK
  5
13D6
330
13CB
100
AcDbEntity
  8
0
 62
     1
100
AcDbBlockBegin
  2
*D4
 70
     1
 10
0.0
 20
0.0
 30
0.0
  3
*D4
  1

  0
LINE
  5
1D15
330
13CB
100
AcDbEntity
  8
RIGID
  6
Continuous
 62
     1
370
    -2
100
AcDbLine
 10
0.5608534491631028
 20
0.854480194238188
 30
0.0
 11
0.5608534491631028
 21
0.7309171161466491
 31
0.0
  0
LINE
  5
1D16
330
13CB
100
AcDbEntity
  8
RIGID
  6
Continuous
 62
     1
370
    -2
100
AcDbLine
 10
0.6305569571146599
 20
0.854480194238188
 30
0.0
 11
0.6305569571146599
 21
0.7309171161466491
 31
0.0
  0
LINE
  5
1D17
330
13CB
100
AcDbEntity
  8
RIGID
  6
Continuous
 62
     1
370
    -2
100
AcDbLine
 10
0.5483534491631028
 20
0.7459171161466492
 30
0.0
 11
0.5358534491631028
 21
0.7459171161466492
 31
0.0
  0
LINE
  5
1D18
330
13CB
100
AcDbEntity
  8
RIGID
  6
Continuous
 62
     1
370
    -2
100
AcDbLine
 10
0.6430569571146599
 20
0.7459171161466492
 30
0.0
 11
0.6555569571146599
 21
0.7459171161466492
 31
0.0
  0
MTEXT
  5
1D19
330
13CB
100
AcDbEntity
  8
RIGID
  6
Continuous
 62
     0
100
AcDbMText
 10
0.5961967464617182
 20
0.7459171161466492
 30
0.0
 40
0.0125
 41
0.0
 46
0.0
 71
     5
 72
     1
  1
\A1;.070
 73
     1
 44
1.0
  0
SOLID
  5
1D1A
330
13CB
100
AcDbEntity
  8
RIGID
  6
Continuous
 62
     1
100
AcDbTrace
 10
0.5483534491631028
 20
0.7480004494799825
 30
0.0
 11
0.5483534491631028
 21
0.7438337828133159
 31
0.0
 12
0.5608534491631028
 22
0.7459171161466492
 32
0.0
 13
0.5608534491631028
 23
0.7459171161466492
 33
0.0
  0
SOLID
  5
1D1B
330
13CB
100
AcDbEntity
  8
RIGID
  6
Continuous
 62
     1
100
AcDbTrace
 10
0.6430569571146599
 20
0.7480004494799825
 30
0.0
 11
0.6430569571146599
 21
0.7438337828133159
 31
0.0
 12
0.6305569571146599
 22
0.7459171161466492
 32
0.0
 13
0.6305569571146599
 23
0.7459171161466492
 33
0.0
  0
POINT
  5
1D1C
330
13CB
100
AcDbEntity
  8
DEFPOINTS
  6
Continuous
 62
     0
100
AcDbPoint
 10
0.5608534491631028
 20
0.866980194238188
 30
0.0
  0
POINT
  5
1D1D
330
13CB
100
AcDbEntity
  8
DEFPOINTS
  6
Continuous
 62
     0
100
AcDbPoint
 10
0.6305569571146599
 20
0.866980194238188
 30
0.0
  0
POINT
  5
1D1E
330
13CB
100
AcDbEntity
  8
DEFPOINTS
  6
Continuous
 62
     0
100
AcDbPoint
 10
0.6305569571146599
 20
0.7459171161466492
 30
0.0
  0
ENDBLK
  5
13D7
330
13CB
100
AcDbEntity
  8
0
 62
     1
100
AcDbBlockEnd
  0
BLOCK
  5
1418
330
140C
100
AcDbEntity
  8
0
 62
     1
100
AcDbBlockBegin
  2
*D5
 70
     1
 10
0.0
 20
0.0
 30
0.0
  3
*D5
  1

  0
LINE
  5
1D53
330
140C
100
AcDbEntity
  8
RIGID
  6
Continuous
 62
     1
370
    -2
100
AcDbLine
 10
0.6947052031388815
 20
0.834980194238188
 30
0.0
 11
0.8215780376224758
 21
0.8349801942381878
 31
0.0
  0
LINE
  5
1D54
330
140C
100
AcDbEntity
  8
RIGID
  6
Continuous
 62
     1
370
    -2
100
AcDbLine
 10
0.7157052031388814
 20
0.8469801942381881
 30
0.0
 11
0.8215780376224758
 21
0.8469801942381879
 31
0.0
  0
LINE
  5
1D55
330
140C
100
AcDbEntity
  8
RIGID
  6
Continuous
 62
     1
370
    -2
100
AcDbLine
 10
0.8065780376224758
 20
0.822480194238188
 30
0.0
 11
0.8065780376224758
 21
0.8099801942381878
 31
0.0
  0
LINE
  5
1D56
330
140C
100
AcDbEntity
  8
RIGID
  6
Continuous
 62
     1
370
    -2
100
AcDbLine
 10
0.8065780376224758
 20
0.8594801942381879
 30
0.0
 11
0.8065780376224758
 21
0.8719801942381879
 31
0.0
  0
MTEXT
  5
1D57
330
140C
100
AcDbEntity
  8
RIGID
  6
Continuous
 62
     0
100
AcDbMText
 10
0.8060633692542147
 20
0.7998053099941567
 30
0.0
 40
0.0125
 41
0.0
 46
0.0
 71
     5
 72
     1
  1
\A1;.012
 73
     1
 44
1.0
  0
SOLID
  5
1D58
330
140C
100
AcDbEntity
  8
RIGID
  6
Continuous
 62
     1
100
AcDbTrace
 10
0.8044947042891424
 20
0.822480194238188
 30
0.0
 11
0.8086613709558092
 21
0.822480194238188
 31
0.0
 12
0.8065780376224758
 22
0.8349801942381878
 32
0.0
 13
0.8065780376224758
 23
0.8349801942381878
 33
0.0
  0
SOLID
  5
1D59
330
140C
100
AcDbEntity
  8
RIGID
  6
Continuous
 62
     1
100
AcDbTrace
 10
0.8044947042891424
 20
0.8594801942381879
 30
0.0
 11
0.8086613709558092
 21
0.8594801942381879
 31
0.0
 12
0.8065780376224758
 22
0.8469801942381879
 32
0.0
 13
0.8065780376224758
 23
0.8469801942381879
 33
0.0
  0
POINT
  5
1D5A
330
140C
100
AcDbEntity
  8
DEFPOINTS
  6
Continuous
 62
     0
100
AcDbPoint
 10
0.6822052031388815
 20
0.834980194238188
 30
0.0
  0
POINT
  5
1D5B
330
140C
100
AcDbEntity
  8
DEFPOINTS
  6
Continuous
 62
     0
100
AcDbPoint
 10
0.7032052031388814
 20
0.8469801942381881
 30
0.0
  0
POINT
  5
1D5C
330
140C
100
AcDbEntity
  8
DEFPOINTS
  6
Continuous
 62
     0
100
AcDbPoint
 10
0.8065780376224758
 20
0.8469801942381879
 30
0.0
  0
ENDBLK
  5
1419
330
140C
100
AcDbEntity
  8
0
 62
     1
100
AcDbBlockEnd
  0
BLOCK
  5
1496
330
148A
100
AcDbEntity
  8
0
 62
     1
100
AcDbBlockBegin
  2
*D6
 70
     1
 10
0.0
 20
0.0
 30
0.0
  3
*D6
  1

  0
LINE
  5
1C5F
330
148A
100
AcDbEntity
  8
TEXT
 62
     1
370
    -2
100
AcDbLine
 10
0.6074290291522003
 20
1.008811586796487
 30
0.0
 11
0.8382546725454764
 21
1.008811586796487
 31
0.0
  0
LINE
  5
1C60
330
148A
100
AcDbEntity
  8
TEXT
 62
     1
370
    -2
100
AcDbLine
 10
0.6947052031388815
 20
0.866980194238188
 30
0.0
 11
0.8382546725454764
 21
0.8669801942381878
 31
0.0
  0
LINE
  5
1C61
330
148A
100
AcDbEntity
  8
TEXT
 62
     1
370
    -2
100
AcDbLine
 10
0.8232546725454763
 20
0.9963115867964873
 30
0.0
 11
0.8232546725454763
 21
0.9541458905173371
 31
0.0
  0
LINE
  5
1C62
330
148A
100
AcDbEntity
  8
TEXT
 62
     1
370
    -2
100
AcDbLine
 10
0.8232546725454763
 20
0.8794801942381878
 30
0.0
 11
0.8232546725454763
 21
0.9216458905173372
 31
0.0
  0
MTEXT
  5
1C63
330
148A
100
AcDbEntity
  8
TEXT
 62
     0
100
AcDbMText
 10
0.823254672545476
 20
0.9378958905173373
 30
0.0
 40
0.0125
 41
0.0
 46
0.0
 71
     5
 72
     1
  1
\A1;.142
 73
     1
 44
1.0
  0
SOLID
  5
1C64
330
148A
100
AcDbEntity
  8
TEXT
 62
     1
100
AcDbTrace
 10
0.821171339212143
 20
0.9963115867964873
 30
0.0
 11
0.8253380058788096
 21
0.9963115867964873
 31
0.0
 12
0.8232546725454763
 22
1.008811586796487
 32
0.0
 13
0.8232546725454763
 23
1.008811586796487
 33
0.0
  0
SOLID
  5
1C65
330
148A
100
AcDbEntity
  8
TEXT
 62
     1
100
AcDbTrace
 10
0.821171339212143
 20
0.8794801942381878
 30
0.0
 11
0.8253380058788096
 21
0.8794801942381878
 31
0.0
 12
0.8232546725454763
 22
0.8669801942381878
 32
0.0
 13
0.8232546725454763
 23
0.8669801942381878
 33
0.0
  0
POINT
  5
1C66
330
148A
100
AcDbEntity
  8
DEFPOINTS
 62
     0
100
AcDbPoint
 10
0.5949290291522003
 20
1.008811586796487
 30
0.0
  0
POINT
  5
1C67
330
148A
100
AcDbEntity
  8
DEFPOINTS
 62
     0
100
AcDbPoint
 10
0.6822052031388815
 20
0.866980194238188
 30
0.0
  0
POINT
  5
1C68
330
148A
100
AcDbEntity
  8
DEFPOINTS
 62
     0
100
AcDbPoint
 10
0.8232546725454763
 20
0.8669801942381878
 30
0.0
  0
ENDBLK
  5
1497
330
148A
100
AcDbEntity
  8
0
 62
     1
100
AcDbBlockEnd
  0
BLOCK
  5
14B0
330
14A4
100
AcDbEntity
  8
0
 62
     1
100
AcDbBlockBegin
  2
*D7
 70
     1
 10
0.0
 20
0.0
 30
0.0
  3
*D7
  1

  0
LINE
  5
1D3E
330
14A4
100
AcDbEntity
  8
RIGID
  6
Continuous
 62
     1
370
    -2
100
AcDbLine
 10
0.6628625661161538
 20
0.9170115282228735
 30
0.0
 11
0.7934360792176948
 21
0.9170115282228733
 31
0.0
  0
LINE
  5
1D3F
330
14A4
100
AcDbEntity
  8
RIGID
  6
Continuous
 62
     1
370
    -2
100
AcDbLine
 10
0.6947052031388815
 20
0.866980194238188
 30
0.0
 11
0.7934360792176948
 21
0.8669801942381878
 31
0.0
  0
LINE
  5
1D40
330
14A4
100
AcDbEntity
  8
RIGID
  6
Continuous
 62
     1
370
    -2
100
AcDbLine
 10
0.7784360792176948
 20
0.9295115282228733
 30
0.0
 11
0.7784360792176948
 21
0.9420115282228733
 31
0.0
  0
LINE
  5
1D41
330
14A4
100
AcDbEntity
  8
RIGID
  6
Continuous
 62
     1
370
    -2
100
AcDbLine
 10
0.7784360792176948
 20
0.854480194238188
 30
0.0
 11
0.7784360792176948
 21
0.8419801942381878
 31
0.0
  0
MTEXT
  5
1D42
330
14A4
100
AcDbEntity
  8
RIGID
  6
Continuous
 62
     0
100
AcDbMText
 10
0.7777570528434481
 20
0.8930933554575775
 30
0.0
 40
0.0125
 41
0.0
 46
0.0
 71
     5
 72
     1
  1
\A1;.050
 73
     1
 44
1.0
  0
LINE
  5
1D43
330
14A4
100
AcDbEntity
  8
RIGID
  6
Continuous
 62
     1
370
    -2
100
AcDbLine
 10
0.7784360792176948
 20
0.9170115282228733
 30
0.0
 11
0.7784360792176948
 21
0.8669801942381878
 31
0.0
  0
SOLID
  5
1D44
330
14A4
100
AcDbEntity
  8
RIGID
  6
Continuous
 62
     1
100
AcDbTrace
 10
0.7763527458843615
 20
0.9295115282228733
 30
0.0
 11
0.7805194125510281
 21
0.9295115282228733
 31
0.0
 12
0.7784360792176948
 22
0.9170115282228733
 32
0.0
 13
0.7784360792176948
 23
0.9170115282228733
 33
0.0
  0
SOLID
  5
1D45
330
14A4
100
AcDbEntity
  8
RIGID
  6
Continuous
 62
     1
100
AcDbTrace
 10
0.7763527458843615
 20
0.854480194238188
 30
0.0
 11
0.7805194125510281
 21
0.854480194238188
 31
0.0
 12
0.7784360792176948
 22
0.8669801942381878
 32
0.0
 13
0.7784360792176948
 23
0.8669801942381878
 33
0.0
  0
POINT
  5
1D46
330
14A4
100
AcDbEntity
  8
DEFPOINTS
  6
Continuous
 62
     0
100
AcDbPoint
 10
0.6503625661161539
 20
0.9170115282228735
 30
0.0
  0
POINT
  5
1D47
330
14A4
100
AcDbEntity
  8
DEFPOINTS
  6
Continuous
 62
     0
100
AcDbPoint
 10
0.6822052031388815
 20
0.866980194238188
 30
0.0
  0
POINT
  5
1D48
330
14A4
100
AcDbEntity
  8
DEFPOINTS
  6
Continuous
 62
     0
100
AcDbPoint
 10
0.7784360792176948
 20
0.8669801942381878
 30
0.0
  0
ENDBLK
  5
14B1
330
14A4
100
AcDbEntity
  8
0
 62
     1
100
AcDbBlockEnd
  0
BLOCK
  5
154E
330
1542
100
AcDbEntity
  8
0
 62
     1
100
AcDbBlockBegin
  2
*D8
 70
     1
 10
0.0
 20
0.0
 30
0.0
  3
*D8
  1

  0
LINE
  5
1CC3
330
1542
100
AcDbEntity
  8
RIGID
  6
Continuous
 62
     1
370
    -2
100
AcDbLine
 10
0.5640983766890303
 20
0.8868366287775462
 30
0.0
 11
0.3860233942571287
 21
0.8868366287775462
 31
0.0
  0
LINE
  5
1CC4
330
1542
100
AcDbEntity
  8
RIGID
  6
Continuous
 62
     1
370
    -2
100
AcDbLine
 10
0.4967052031388814
 20
0.866980194238188
 30
0.0
 11
0.3860233942571286
 21
0.866980194238188
 31
0.0
  0
LINE
  5
1CC5
330
1542
100
AcDbEntity
  8
RIGID
  6
Continuous
 62
     1
370
    -2
100
AcDbLine
 10
0.4010233942571288
 20
0.8993366287775462
 30
0.0
 11
0.4010233942571288
 21
0.9118366287775462
 31
0.0
  0
LINE
  5
1CC6
330
1542
100
AcDbEntity
  8
RIGID
  6
Continuous
 62
     1
370
    -2
100
AcDbLine
 10
0.4010233942571287
 20
0.854480194238188
 30
0.0
 11
0.4010233942571287
 21
0.841980194238188
 31
0.0
  0
MTEXT
  5
1CC7
330
1542
100
AcDbEntity
  8
RIGID
  6
Continuous
 62
     0
100
AcDbMText
 10
0.4021577226523672
 20
0.934014753002879
 30
0.0
 40
0.0125
 41
0.0
 46
0.0
 71
     5
 72
     1
  1
\A1;.020
 73
     1
 44
1.0
  0
SOLID
  5
1CC8
330
1542
100
AcDbEntity
  8
RIGID
  6
Continuous
 62
     1
100
AcDbTrace
 10
0.3989400609237954
 20
0.8993366287775462
 30
0.0
 11
0.4031067275904621
 21
0.8993366287775462
 31
0.0
 12
0.4010233942571288
 22
0.8868366287775462
 32
0.0
 13
0.4010233942571288
 23
0.8868366287775462
 33
0.0
  0
SOLID
  5
1CC9
330
1542
100
AcDbEntity
  8
RIGID
  6
Continuous
 62
     1
100
AcDbTrace
 10
0.3989400609237953
 20
0.854480194238188
 30
0.0
 11
0.403106727590462
 21
0.854480194238188
 31
0.0
 12
0.4010233942571287
 22
0.866980194238188
 32
0.0
 13
0.4010233942571287
 23
0.866980194238188
 33
0.0
  0
POINT
  5
1CCA
330
1542
100
AcDbEntity
  8
DEFPOINTS
  6
Continuous
 62
     0
100
AcDbPoint
 10
0.5765983766890303
 20
0.8868366287775462
 30
0.0
  0
POINT
  5
1CCB
330
1542
100
AcDbEntity
  8
DEFPOINTS
  6
Continuous
 62
     0
100
AcDbPoint
 10
0.5092052031388814
 20
0.866980194238188
 30
0.0
  0
POINT
  5
1CCC
330
1542
100
AcDbEntity
  8
DEFPOINTS
  6
Continuous
 62
     0
100
AcDbPoint
 10
0.4010233942571287
 20
0.866980194238188
 30
0.0
  0
ENDBLK
  5
154F
330
1542
100
AcDbEntity
  8
0
 62
     1
100
AcDbBlockEnd
  0
BLOCK
  5
159A
330
158E
100
AcDbEntity
  8
0
 62
     1
100
AcDbBlockBegin
  2
*D9
 70
     1
 10
0.0
 20
0.0
 30
0.0
  3
*D9
  1

  0
LINE
  5
1CAF
330
158E
100
AcDbEntity
  8
RIGID
  6
Continuous
 62
     1
370
    -2
100
AcDbLine
 10
0.5364580233620944
 20
0.9259070960229268
 30
0.0
 11
0.5193673574419191
 21
0.9505629095038283
 31
0.0
  0
LINE
  5
1CB0
330
158E
100
AcDbEntity
  8
RIGID
  6
Continuous
 62
     1
370
    -2
100
AcDbLine
 10
0.5293009854898151
 20
0.9209460533322072
 30
0.0
 11
0.5122103195696397
 21
0.945601866813109
 31
0.0
  0
LINE
  5
1CB1
330
158E
100
AcDbEntity
  8
RIGID
  6
Continuous
 62
     1
370
    -2
100
AcDbLine
 10
0.5381859460190484
 20
0.9453561135634506
 30
0.0
 11
0.5484592016360905
 21
0.9524772243635236
 31
0.0
  0
LINE
  5
1CB2
330
158E
100
AcDbEntity
  8
RIGID
  6
Continuous
 62
     1
370
    -2
100
AcDbLine
 10
0.5104823969126853
 20
0.9261528492725856
 30
0.0
 11
0.5002091412956431
 21
0.9190317384725128
 31
0.0
  0
MTEXT
  5
1CB3
330
158E
100
AcDbEntity
  8
RIGID
  6
Continuous
 62
     0
100
AcDbMText
 10
0.5058192833856774
 20
0.9624649460223276
 30
0.0
 40
0.0125
 41
0.0
 46
0.0
 71
     5
 72
     1
  1
\A1;.009
 73
     1
 44
1.0
  0
SOLID
  5
1CB4
330
158E
100
AcDbEntity
  8
RIGID
  6
Continuous
 62
     1
100
AcDbTrace
 10
0.5369990942190363
 20
0.9470683228329576
 30
0.0
 11
0.5393727978190606
 21
0.9436439042939436
 31
0.0
 12
0.5279126904020064
 22
0.9382350027633778
 32
0.0
 13
0.5279126904020064
 23
0.9382350027633778
 33
0.0
  0
SOLID
  5
1CB5
330
158E
100
AcDbEntity
  8
RIGID
  6
Continuous
 62
     1
100
AcDbTrace
 10
0.5092955451126731
 20
0.9278650585420926
 30
0.0
 11
0.5116692487126974
 21
0.9244406400030786
 31
0.0
 12
0.5207556525297273
 22
0.9332739600726585
 32
0.0
 13
0.5207556525297273
 23
0.9332739600726585
 33
0.0
  0
POINT
  5
1CB6
330
158E
100
AcDbEntity
  8
DEFPOINTS
  6
Continuous
 62
     0
100
AcDbPoint
 10
0.5435791341621672
 20
0.9156338404058846
 30
0.0
  0
POINT
  5
1CB7
330
158E
100
AcDbEntity
  8
DEFPOINTS
  6
Continuous
 62
     0
100
AcDbPoint
 10
0.5364220962898881
 20
0.9106727977151653
 30
0.0
  0
POINT
  5
1CB8
330
158E
100
AcDbEntity
  8
DEFPOINTS
  6
Continuous
 62
     0
100
AcDbPoint
 10
0.5207556525297273
 20
0.9332739600726585
 30
0.0
  0
ENDBLK
  5
159B
330
158E
100
AcDbEntity
  8
0
 62
     1
100
AcDbBlockEnd
  0
BLOCK
  5
15C6
330
15BB
100
AcDbEntity
  8
0
 62
     1
100
AcDbBlockBegin
  2
*D10
 70
     1
 10
0.0
 20
0.0
 30
0.0
  3
*D10
  1

  0
LINE
  5
1C9B
330
15BB
100
AcDbEntity
  8
RIGID
  6
Continuous
 62
     1
370
    -2
100
AcDbLine
 10
0.5869705114773947
 20
1.014125218420631
 30
0.0
 11
0.5869705114773947
 21
1.086216278970019
 31
0.0
  0
LINE
  5
1C9C
330
15BB
100
AcDbEntity
  8
RIGID
  6
Continuous
 62
     1
370
    -2
100
AcDbLine
 10
0.6044398948003683
 20
1.013311586796487
 30
0.0
 11
0.6044398948003683
 21
1.086216278970019
 31
0.0
  0
LINE
  5
1C9D
330
15BB
100
AcDbEntity
  8
RIGID
  6
Continuous
 62
     1
370
    -2
100
AcDbLine
 10
0.5744705114773947
 20
1.071216278970019
 30
0.0
 11
0.5619705114773947
 21
1.071216278970019
 31
0.0
  0
LINE
  5
1C9E
330
15BB
100
AcDbEntity
  8
RIGID
  6
Continuous
 62
     1
370
    -2
100
AcDbLine
 10
0.6169398948003683
 20
1.071216278970019
 30
0.0
 11
0.6294398948003684
 21
1.071216278970019
 31
0.0
  0
MTEXT
  5
1C9F
330
15BB
100
AcDbEntity
  8
RIGID
  6
Continuous
 62
     0
100
AcDbMText
 10
0.5969097495171685
 20
1.097647942319376
 30
0.0
 40
0.0125
 41
0.0
 46
0.0
 71
     5
 72
     1
  1
\A1;.017
 73
     1
 44
1.0
  0
SOLID
  5
1CA0
330
15BB
100
AcDbEntity
  8
RIGID
  6
Continuous
 62
     1
100
AcDbTrace
 10
0.5744705114773947
 20
1.073299612303352
 30
0.0
 11
0.5744705114773947
 21
1.069132945636685
 31
0.0
 12
0.5869705114773947
 22
1.071216278970019
 32
0.0
 13
0.5869705114773947
 23
1.071216278970019
 33
0.0
  0
SOLID
  5
1CA1
330
15BB
100
AcDbEntity
  8
RIGID
  6
Continuous
 62
     1
100
AcDbTrace
 10
0.6169398948003683
 20
1.073299612303352
 30
0.0
 11
0.6169398948003683
 21
1.069132945636685
 31
0.0
 12
0.6044398948003683
 22
1.071216278970019
 32
0.0
 13
0.6044398948003683
 23
1.071216278970019
 33
0.0
  0
POINT
  5
1CA2
330
15BB
100
AcDbEntity
  8
DEFPOINTS
  6
Continuous
 62
     0
100
AcDbPoint
 10
0.5869705114773947
 20
1.001625218420631
 30
0.0
  0
POINT
  5
1CA3
330
15BB
100
AcDbEntity
  8
DEFPOINTS
  6
Continuous
 62
     0
100
AcDbPoint
 10
0.6044398948003683
 20
1.000811586796487
 30
0.0
  0
POINT
  5
1CA4
330
15BB
100
AcDbEntity
  8
DEFPOINTS
  6
Continuous
 62
     0
100
AcDbPoint
 10
0.6044398948003683
 20
1.071216278970019
 30
0.0
  0
ENDBLK
  5
15C7
330
15BB
100
AcDbEntity
  8
0
 62
     1
100
AcDbBlockEnd
  0
BLOCK
  5
15FC
330
15F1
100
AcDbEntity
  8
0
 62
     1
100
AcDbBlockBegin
  2
*D11
 70
     1
 10
0.0
 20
0.0
 30
0.0
  3
*D11
  1

  0
LINE
  5
1C73
330
15F1
100
AcDbEntity
  8
RIGID
  6
Continuous
 62
     1
370
    -2
100
AcDbLine
 10
0.536422096289888
 20
0.9231727977151651
 30
0.0
 11
0.536422096289888
 21
1.146931891879196
 31
0.0
  0
LINE
  5
1C74
330
15F1
100
AcDbEntity
  8
RIGID
  6
Continuous
 62
     1
370
    -2
100
AcDbLine
 10
0.6549883099878175
 20
0.9231727977150622
 30
0.0
 11
0.6549883099878175
 21
1.146931891879196
 31
0.0
  0
LINE
  5
1C75
330
15F1
100
AcDbEntity
  8
RIGID
  6
Continuous
 62
     1
370
    -2
100
AcDbLine
 10
0.5489220962898879
 20
1.131931891879196
 30
0.0
 11
0.5711218698055194
 21
1.131931891879196
 31
0.0
  0
LINE
  5
1C76
330
15F1
100
AcDbEntity
  8
RIGID
  6
Continuous
 62
     1
370
    -2
100
AcDbLine
 10
0.6424883099878175
 20
1.131931891879196
 30
0.0
 11
0.620288536472186
 21
1.131931891879196
 31
0.0
  0
SOLID
  5
1C77
330
15F1
100
AcDbEntity
  8
RIGID
  6
Continuous
 62
     1
100
AcDbTrace
 10
0.5489220962898879
 20
1.134015225212529
 30
0.0
 11
0.5489220962898879
 21
1.129848558545862
 31
0.0
 12
0.536422096289888
 22
1.131931891879196
 32
0.0
 13
0.536422096289888
 23
1.131931891879196
 33
0.0
  0
SOLID
  5
1C78
330
15F1
100
AcDbEntity
  8
RIGID
  6
Continuous
 62
     1
100
AcDbTrace
 10
0.6424883099878175
 20
1.134015225212529
 30
0.0
 11
0.6424883099878175
 21
1.129848558545862
 31
0.0
 12
0.6549883099878175
 22
1.131931891879196
 32
0.0
 13
0.6549883099878175
 23
1.131931891879196
 33
0.0
  0
MTEXT
  5
1C79
330
15F1
100
AcDbEntity
  8
RIGID
  6
Continuous
 62
     0
100
AcDbMText
 10
0.5957052031388527
 20
1.131931891879196
 30
0.0
 40
0.0125
 41
0.0
 46
0.0
 71
     5
 72
     1
  1
\A1;.119
 73
     1
 44
1.0
  0
POINT
  5
1C7A
330
15F1
100
AcDbEntity
  8
DEFPOINTS
  6
Continuous
 62
     0
100
AcDbPoint
 10
0.536422096289888
 20
0.9106727977151651
 30
0.0
  0
POINT
  5
1C7B
330
15F1
100
AcDbEntity
  8
DEFPOINTS
  6
Continuous
 62
     0
100
AcDbPoint
 10
0.6549883099878175
 20
0.9106727977150622
 30
0.0
  0
POINT
  5
1C7C
330
15F1
100
AcDbEntity
  8
DEFPOINTS
  6
Continuous
 62
     0
100
AcDbPoint
 10
0.6549883099878175
 20
1.131931891879196
 30
0.0
  0
ENDBLK
  5
15FD
330
15F1
100
AcDbEntity
  8
0
 62
     1
100
AcDbBlockEnd
  0
BLOCK
  5
1622
330
1613
100
AcDbEntity
  8
0
 62
     1
100
AcDbBlockBegin
  2
*D12
 70
     1
 10
0.0
 20
0.0
 30
0.0
  3
*D12
  1

  0
LINE
  5
1D69
330
1613
100
AcDbEntity
  8
RIGID
  6
Continuous
 62
     1
370
    -2
100
AcDbLine
 10
0.6947052031388817
 20
0.8669801942381882
 30
0.0
 11
0.7575656950454968
 21
0.8669801942381882
 31
0.0
  0
LINE
  5
1D6A
330
1613
100
AcDbEntity
  8
RIGID
  6
Continuous
 62
     1
370
    -2
100
AcDbLine
 10
0.6610889115699905
 20
0.921583006711026
 30
0.0
 11
0.6925433337203108
 21
0.9778355442493014
 31
0.0
  0
ARC
  5
1D6B
330
1613
100
AcDbEntity
  8
RIGID
  6
Continuous
 62
     1
370
    -2
100
AcDbCircle
 10
0.6305569571146597
 20
0.866980194238188
 30
0.0
 40
0.112008737930837
100
AcDbArc
 50
6.397442126594838
 51
22.81008034190991
  0
ARC
  5
1D6C
330
1613
100
AcDbEntity
  8
RIGID
  6
Continuous
 62
     1
370
    -2
100
AcDbCircle
 10
0.6305569571146597
 20
0.866980194238188
 30
0.0
 40
0.112008737930837
100
AcDbArc
 50
42.67459199428958
 51
54.39018673451156
  0
SOLID
  5
1D6D
330
1613
100
AcDbEntity
  8
RIGID
  6
Continuous
 62
     1
100
AcDbTrace
 10
0.7439482923396552
 20
0.8795769677338082
 30
0.0
 11
0.7397881172981482
 21
0.87934447099161
 31
0.0
 12
0.7425656950454967
 22
0.866980194238188
 32
0.0
 13
0.7425656950454967
 23
0.866980194238188
 33
0.0
  0
SOLID
  5
1D6E
330
1613
100
AcDbEntity
  8
RIGID
  6
Continuous
 62
     1
100
AcDbTrace
 10
0.6946587676827974
 20
0.9562846150501091
 30
0.0
 11
0.6968920603618853
 21
0.9598022157836552
 31
0.0
 12
0.6852226118217032
 22
0.9647432934541457
 32
0.0
 13
0.6852226118217032
 23
0.9647432934541457
 33
0.0
  0
MTEXT
  5
1D6F
330
1613
100
AcDbEntity
  8
RIGID
  6
Continuous
 62
     0
100
AcDbMText
 10
0.7253464867492135
 20
0.9266534918219406
 30
0.0
 40
0.0125
 41
0.0
 46
0.0
 71
     5
 72
     1
  1
\A1;61\U+00B0
 73
     1
 44
1.0
  0
POINT
  5
1D70
330
1613
100
AcDbEntity
  8
DEFPOINTS
  6
Continuous
 62
     0
100
AcDbPoint
 10
0.7356340951121987
 20
0.9057713329570383
 30
0.0
  0
POINT
  5
1D71
330
1613
100
AcDbEntity
  8
DEFPOINTS
  6
Continuous
 62
     0
100
AcDbPoint
 10
0.5092052031388814
 20
0.866980194238188
 30
0.0
  0
POINT
  5
1D72
330
1613
100
AcDbEntity
  8
DEFPOINTS
  6
Continuous
 62
     0
100
AcDbPoint
 10
0.6549883099878176
 20
0.9106727977150629
 30
0.0
  0
POINT
  5
1D73
330
1613
100
AcDbEntity
  8
DEFPOINTS
  6
Continuous
 62
     0
100
AcDbPoint
 10
0.6305569571146599
 20
0.866980194238188
 30
0.0
  0
POINT
  5
1D74
330
1613
100
AcDbEntity
  8
DEFPOINTS
  6
Continuous
 62
     0
100
AcDbPoint
 10
0.6822052031388816
 20
0.8669801942381882
 30
0.0
  0
ENDBLK
  5
1623
330
1613
100
AcDbEntity
  8
0
 62
     1
100
AcDbBlockEnd
  0
BLOCK
  5
1649
330
163D
100
AcDbEntity
  8
0
 62
     1
100
AcDbBlockBegin
  2
*D13
 70
     1
 10
0.0
 20
0.0
 30
0.0
  3
*D13
  1

  0
LINE
  5
1CED
330
163D
100
AcDbEntity
  8
RIGID
  6
Continuous
 62
     1
370
    -2
100
AcDbLine
 10
0.4757052031388815
 20
0.8549801942381879
 30
0.0
 11
0.4428297693431992
 21
0.8549801942381879
 31
0.0
  0
LINE
  5
1CEE
330
163D
100
AcDbEntity
  8
RIGID
  6
Continuous
 62
     1
370
    -2
100
AcDbLine
 10
0.4757052031388815
 20
0.8469801942381881
 30
0.0
 11
0.4428297693431992
 21
0.8469801942381881
 31
0.0
  0
LINE
  5
1CEF
330
163D
100
AcDbEntity
  8
RIGID
  6
Continuous
 62
     1
370
    -2
100
AcDbLine
 10
0.4578297693431992
 20
0.8674801942381879
 30
0.0
 11
0.4578297693431993
 21
0.8799801942381881
 31
0.0
  0
LINE
  5
1CF0
330
163D
100
AcDbEntity
  8
RIGID
  6
Continuous
 62
     1
370
    -2
100
AcDbLine
 10
0.4578297693431992
 20
0.8344801942381881
 30
0.0
 11
0.4578297693431992
 21
0.8219801942381879
 31
0.0
  0
MTEXT
  5
1CF1
330
163D
100
AcDbEntity
  8
RIGID
  6
Continuous
 62
     0
100
AcDbMText
 10
0.443274941729305
 20
0.8036210764216509
 30
0.0
 40
0.0125
 41
0.0
 46
0.0
 71
     5
 72
     1
  1
\A1;.008
 73
     1
 44
1.0
  0
SOLID
  5
1CF2
330
163D
100
AcDbEntity
  8
RIGID
  6
Continuous
 62
     1
100
AcDbTrace
 10
0.4557464360098659
 20
0.8674801942381879
 30
0.0
 11
0.4599131026765325
 21
0.8674801942381879
 31
0.0
 12
0.4578297693431992
 22
0.8549801942381879
 32
0.0
 13
0.4578297693431992
 23
0.8549801942381879
 33
0.0
  0
SOLID
  5
1CF3
330
163D
100
AcDbEntity
  8
RIGID
  6
Continuous
 62
     1
100
AcDbTrace
 10
0.4557464360098659
 20
0.8344801942381881
 30
0.0
 11
0.4599131026765325
 21
0.8344801942381881
 31
0.0
 12
0.4578297693431992
 22
0.8469801942381881
 32
0.0
 13
0.4578297693431992
 23
0.8469801942381881
 33
0.0
  0
POINT
  5
1CF4
330
163D
100
AcDbEntity
  8
DEFPOINTS
  6
Continuous
 62
     0
100
AcDbPoint
 10
0.4882052031388815
 20
0.8549801942381879
 30
0.0
  0
POINT
  5
1CF5
330
163D
100
AcDbEntity
  8
DEFPOINTS
  6
Continuous
 62
     0
100
AcDbPoint
 10
0.4882052031388815
 20
0.8469801942381881
 30
0.0
  0
POINT
  5
1CF6
330
163D
100
AcDbEntity
  8
DEFPOINTS
  6
Continuous
 62
     0
100
AcDbPoint
 10
0.4578297693431992
 20
0.8469801942381881
 30
0.0
  0
ENDBLK
  5
164A
330
163D
100
AcDbEntity
  8
0
 62
     1
100
AcDbBlockEnd
  0
BLOCK
  5
16F4
330
16E9
100
AcDbEntity
  8
0
 62
     1
100
AcDbBlockBegin
  2
*D14
 70
     1
 10
0.0
 20
0.0
 30
0.0
  3
*D14
  1

  0
LINE
  5
1C87
330
16E9
100
AcDbEntity
  8
RIGID
  6
Continuous
 62
     1
370
    -2
100
AcDbLine
 10
0.5818705613229933
 20
0.9064818463407522
 30
0.0
 11
0.5818705613229933
 21
1.051696065808555
 31
0.0
  0
LINE
  5
1C88
330
16E9
100
AcDbEntity
  8
RIGID
  6
Continuous
 62
     1
370
    -2
100
AcDbLine
 10
0.6095398449547693
 20
0.9064818463407531
 30
0.0
 11
0.6095398449547693
 21
1.051696065808555
 31
0.0
  0
LINE
  5
1C89
330
16E9
100
AcDbEntity
  8
RIGID
  6
Continuous
 62
     1
370
    -2
100
AcDbLine
 10
0.5693705613229933
 20
1.036696065808555
 30
0.0
 11
0.5568705613229933
 21
1.036696065808555
 31
0.0
  0
LINE
  5
1C8A
330
16E9
100
AcDbEntity
  8
RIGID
  6
Continuous
 62
     1
370
    -2
100
AcDbLine
 10
0.6220398449547693
 20
1.036696065808555
 30
0.0
 11
0.6345398449547694
 21
1.036696065808555
 31
0.0
  0
MTEXT
  5
1C8B
330
16E9
100
AcDbEntity
  8
RIGID
  6
Continuous
 62
     0
100
AcDbMText
 10
0.6761079531772225
 20
1.03713558766557
 30
0.0
 40
0.0125
 41
0.0
 46
0.0
 71
     5
 72
     1
  1
\A1;.028
 73
     1
 44
1.0
  0
SOLID
  5
1C8C
330
16E9
100
AcDbEntity
  8
RIGID
  6
Continuous
 62
     1
100
AcDbTrace
 10
0.5693705613229933
 20
1.038779399141888
 30
0.0
 11
0.5693705613229933
 21
1.034612732475221
 31
0.0
 12
0.5818705613229933
 22
1.036696065808555
 32
0.0
 13
0.5818705613229933
 23
1.036696065808555
 33
0.0
  0
SOLID
  5
1C8D
330
16E9
100
AcDbEntity
  8
RIGID
  6
Continuous
 62
     1
100
AcDbTrace
 10
0.6220398449547693
 20
1.038779399141888
 30
0.0
 11
0.6220398449547693
 21
1.034612732475221
 31
0.0
 12
0.6095398449547693
 22
1.036696065808555
 32
0.0
 13
0.6095398449547693
 23
1.036696065808555
 33
0.0
  0
POINT
  5
1C8E
330
16E9
100
AcDbEntity
  8
DEFPOINTS
  6
Continuous
 62
     0
100
AcDbPoint
 10
0.5818705613229933
 20
0.8939818463407522
 30
0.0
  0
POINT
  5
1C8F
330
16E9
100
AcDbEntity
  8
DEFPOINTS
  6
Continuous
 62
     0
100
AcDbPoint
 10
0.6095398449547693
 20
0.8939818463407531
 30
0.0
  0
POINT
  5
1C90
330
16E9
100
AcDbEntity
  8
DEFPOINTS
  6
Continuous
 62
     0
100
AcDbPoint
 10
0.6095398449547693
 20
1.036696065808555
 30
0.0
  0
ENDBLK
  5
16F5
330
16E9
100
AcDbEntity
  8
0
 62
     1
100
AcDbBlockEnd
  0
BLOCK
  5
1861
330
185A
100
AcDbEntity
  8
0
 62
     1
100
AcDbBlockBegin
  2
*D15
 70
     1
 10
0.0
 20
0.0
 30
0.0
  3
*D15
  1

  0
LINE
  5
1AD6
330
185A
100
AcDbEntity
  8
0
  6
Continuous
 62
     0
370
    -2
100
AcDbLine
 10
0.5109826410216949
 20
1.014983449938328
 30
0.0
 11
0.5234826410216949
 21
1.014983449938328
 31
0.0
  0
LINE
  5
1AD7
330
185A
100
AcDbEntity
  8
0
  6
Continuous
 62
     0
370
    -2
100
AcDbLine
 10
0.5234826410216949
 20
1.014983449938328
 30
0.0
 11
0.5659765677771302
 21
0.9132758713751833
 31
0.0
  0
MTEXT
  5
1AD8
330
185A
100
AcDbEntity
  8
0
  6
Continuous
 62
     1
100
AcDbMText
 10
0.4738993076883615
 20
1.014983449938328
 30
0.0
 40
0.0125
 41
0.0
 46
0.0
 71
     5
 72
     1
  1
\A1;R .010
 73
     1
 44
1.0
  0
SOLID
  5
1AD9
330
185A
100
AcDbEntity
  8
0
  6
Continuous
 62
     0
100
AcDbTrace
 10
0.5678988669689944
 20
0.9140790174358322
 30
0.0
 11
0.5640542685852659
 21
0.9124727253145346
 31
0.0
 12
0.5707954441410227
 22
0.9017420762239975
 32
0.0
 13
0.5707954441410227
 23
0.9017420762239975
 33
0.0
  0
POINT
  5
1ADA
330
185A
100
AcDbEntity
  8
DEFPOINTS
  6
Continuous
 62
     0
100
AcDbPoint
 10
0.5707954441410227
 20
0.9017420762239975
 30
0.0
  0
POINT
  5
1ADB
330
185A
100
AcDbEntity
  8
DEFPOINTS
  6
Continuous
 62
     0
100
AcDbPoint
 10
0.5738795250139133
 20
0.8943604473272401
 30
0.0
  0
ENDBLK
  5
1862
330
185A
100
AcDbEntity
  8
0
 62
     1
100
AcDbBlockEnd
  0
BLOCK
  5
18D2
330
18C6
100
AcDbEntity
  8
0
 62
     1
100
AcDbBlockBegin
  2
*D16
 70
     1
 10
0.0
 20
0.0
 30
0.0
  3
*D16
  1

  0
LINE
  5
1C4B
330
18C6
100
AcDbEntity
  8
RIGID
  6
Continuous
 62
     1
370
    -2
100
AcDbLine
 10
0.6089813771255626
 20
1.008811586796487
 30
0.0
 11
0.9503714497481912
 21
1.008811586796487
 31
0.0
  0
LINE
  5
1C4C
330
18C6
100
AcDbEntity
  8
RIGID
  6
Continuous
 62
     1
370
    -2
100
AcDbLine
 10
0.6947052031388815
 20
0.834980194238188
 30
0.0
 11
0.9503714497481912
 21
0.8349801942381878
 31
0.0
  0
LINE
  5
1C4D
330
18C6
100
AcDbEntity
  8
RIGID
  6
Continuous
 62
     1
370
    -2
100
AcDbLine
 10
0.9353714497481911
 20
0.9963115867964873
 30
0.0
 11
0.9353714497481911
 21
0.9381458905173374
 31
0.0
  0
LINE
  5
1C4E
330
18C6
100
AcDbEntity
  8
RIGID
  6
Continuous
 62
     1
370
    -2
100
AcDbLine
 10
0.9353714497481911
 20
0.8474801942381878
 30
0.0
 11
0.9353714497481911
 21
0.9056458905173375
 31
0.0
  0
SOLID
  5
1C4F
330
18C6
100
AcDbEntity
  8
RIGID
  6
Continuous
 62
     1
100
AcDbTrace
 10
0.9332881164148577
 20
0.9963115867964873
 30
0.0
 11
0.9374547830815245
 21
0.9963115867964873
 31
0.0
 12
0.9353714497481911
 22
1.008811586796487
 32
0.0
 13
0.9353714497481911
 23
1.008811586796487
 33
0.0
  0
SOLID
  5
1C50
330
18C6
100
AcDbEntity
  8
RIGID
  6
Continuous
 62
     1
100
AcDbTrace
 10
0.9332881164148577
 20
0.8474801942381878
 30
0.0
 11
0.9374547830815245
 21
0.8474801942381878
 31
0.0
 12
0.9353714497481911
 22
0.8349801942381878
 32
0.0
 13
0.9353714497481911
 23
0.8349801942381878
 33
0.0
  0
MTEXT
  5
1C51
330
18C6
100
AcDbEntity
  8
RIGID
  6
Continuous
 62
     0
100
AcDbMText
 10
0.9353714497481909
 20
0.9218958905173375
 30
0.0
 40
0.0125
 41
0.0
 46
0.0
 71
     5
 72
     1
  1
\A1;.174±.008
 73
     1
 44
1.0
  0
POINT
  5
1C52
330
18C6
100
AcDbEntity
  8
DEFPOINTS
  6
Continuous
 62
     0
100
AcDbPoint
 10
0.5964813771255626
 20
1.008811586796487
 30
0.0
  0
POINT
  5
1C53
330
18C6
100
AcDbEntity
  8
DEFPOINTS
  6
Continuous
 62
     0
100
AcDbPoint
 10
0.6822052031388815
 20
0.834980194238188
 30
0.0
  0
POINT
  5
1C54
330
18C6
100
AcDbEntity
  8
DEFPOINTS
  6
Continuous
 62
     0
100
AcDbPoint
 10
0.9353714497481911
 20
0.8349801942381878
 30
0.0
  0
ENDBLK
  5
18D3
330
18C6
100
AcDbEntity
  8
0
 62
     1
100
AcDbBlockEnd
  0
ENDSEC
  0
SECTION
  2
ENTITIES
  0
LINE
  5
8C
330
A
100
AcDbEntity
  8
TITLE_BLOCK
  6
Continuous
 62
     7
100
AcDbLine
 10
0.6024946331918296
 20
0.159483873491955
 30
0.0
 11
0.7442580762957896
 21
0.159483873491955
 31
0.0
  0
TEXT
  5
8D
330
A
100
AcDbEntity
  8
TITLE_BLOCK
  6
Continuous
 62
     7
100
AcDbText
 10
0.6113548483858274
 20
0.24808602543193
 30
0.0
 40
0.0088602151939975
  1
COLOR:
 41
0.5
100
AcDbText
  0
TEXT
  5
8E
330
A
100
AcDbEntity
  8
TITLE_BLOCK
  6
Continuous
 62
     7
100
AcDbText
 10
0.4695914052818672
 20
0.2480860254319299
 30
0.0
 40
0.0088602151939975
  1
MATERIAL:
 41
0.5
100
AcDbText
  0
TEXT
  5
8F
330
A
100
AcDbEntity
  8
TITLE_BLOCK
  6
Continuous
 62
     7
100
AcDbText
 10
0.4751290397781155
 20
0.226644304662456
 30
0.0
 40
0.0132903227909963
  1
RIGID & FLEX. PVC
 41
0.5
100
AcDbText
  0
TEXT
  5
90
330
A
100
AcDbEntity
  8
TITLE_BLOCK
  6
Continuous
 62
     7
100
AcDbText
 10
0.6168924828820757
 20
0.2266443046624561
 30
0.0
 40
0.0132903227909963
  1
ANY STANDARD COLOR
 41
0.5
100
AcDbText
  0
TEXT
  5
93
330
A
100
AcDbEntity
  8
TITLE_BLOCK
  6
Continuous
 62
     7
100
AcDbText
 10
0.8295874678709111
 20
0.0948180482186806
 30
0.0
 40
0.0265806455819925
  1
PART DRAWING
 41
0.5
100
AcDbText
  0
LINE
  5
94
330
A
100
AcDbEntity
  8
TITLE_BLOCK
  6
Continuous
 62
     7
100
AcDbLine
 10
1.204989266383659
 20
0.0
 30
0.0
 11
1.204989266383659
 21
1.559397874143559
 31
0.0
  0
TEXT
  5
95
330
A
100
AcDbEntity
  8
TITLE_BLOCK
  6
Continuous
 62
     7
100
AcDbText
 10
0.8372903358327629
 20
0.0487311835669863
 30
0.0
 40
0.0265806455819925
  1
E272
 41
0.5
100
AcDbText
  0
TEXT
  5
9A
330
A
100
AcDbEntity
  8
TITLE_BLOCK
  6
Continuous
 62
     7
100
AcDbText
 10
0.372129038147895
 20
0.1683440886859523
 30
0.0
 40
0.017720430387995
  1
1 of 1
 41
0.5
100
AcDbText
  0
TEXT
  5
9B
330
A
100
AcDbEntity
  8
TITLE_BLOCK
  6
Continuous
 62
     7
100
AcDbText
 10
0.3721290381478949
 20
0.2037849494619425
 30
0.0
 40
0.017720430387995
  1
A
 41
0.5
100
AcDbText
  0
TEXT
  5
9C
330
A
100
AcDbEntity
  8
TITLE_BLOCK
  6
Continuous
 62
     7
100
AcDbText
 10
0.3721290381478948
 20
0.2392258102379323
 30
0.0
 40
0.017720430387995
  1
5:1
 41
0.5
100
AcDbText
  0
TEXT
  5
9D
330
A
100
AcDbEntity
  8
TITLE_BLOCK
  6
Continuous
 62
     7
100
AcDbText
 10
0.3278279621779071
 20
0.24808602543193
 30
0.0
 40
0.0088602151939975
  1
SCALE:
 41
0.5
100
AcDbText
  0
LINE
  5
A0
330
A
100
AcDbEntity
  8
TITLE_BLOCK
  6
Continuous
 62
     7
100
AcDbLine
 10
0.3189677469839098
 20
0.2658064558199249
 30
0.0
 11
0.3189677469839098
 21
0.0354408607759899
 31
0.0
  0
LINE
  5
A1
330
A
100
AcDbEntity
  8
TITLE_BLOCK
  6
Continuous
 62
     7
100
AcDbLine
 10
0.7442580762957897
 20
0.2658064558199249
 30
0.0
 11
0.7442580762957897
 21
0.0354408607759899
 31
0.0
  0
TEXT
  5
AC
330
A
100
AcDbEntity
  8
TITLE_BLOCK
  6
Continuous
 62
     7
100
AcDbText
 10
0.3278279621779072
 20
0.1772043038799499
 30
0.0
 40
0.0088602151939975
  1
SHEET:
 41
0.5
100
AcDbText
  0
LINE
  5
AD
330
A
100
AcDbEntity
  8
TITLE_BLOCK
  6
Continuous
 62
     7
100
AcDbLine
 10
0.053161291163985
 20
0.1063225823279699
 30
0.0
 11
0.3012473165959148
 21
0.1063225823279699
 31
0.0
  0
TEXT
  5
AE
330
A
100
AcDbEntity
  8
TITLE_BLOCK
  6
Continuous
 62
     7
100
AcDbText
 10
0.0443010759699875
 20
0.159483873491955
 30
0.0
 40
0.014176344310396
  1
DATE: 9/16/05
 41
0.5
100
AcDbText
  0
LINE
  5
AF
330
A
100
AcDbEntity
  8
TITLE_BLOCK
  6
Continuous
 62
     7
100
AcDbLine
 10
0.053161291163985
 20
0.1860645190739475
 30
0.0
 11
0.3012473165959148
 21
0.1860645190739475
 31
0.0
  0
TEXT
  5
B0
330
A
100
AcDbEntity
  8
TITLE_BLOCK
  6
Continuous
 62
     7
100
AcDbText
 10
0.0443010759699877
 20
0.2392258102379323
 30
0.0
 40
0.014176344310396
  1
CUSTOMER APPROVAL:
 41
0.5
100
AcDbText
  0
TEXT
  5
B2
330
A
100
AcDbEntity
  8
TITLE_BLOCK
  6
Continuous
 62
     7
100
AcDbText
 10
0.3278279621779071
 20
0.2126451646559398
 30
0.0
 40
0.0088602151939975
  1
SIZE:
 41
0.5
100
AcDbText
  0
LINE
  5
B3
330
A
100
AcDbEntity
  8
TITLE_BLOCK
  6
Continuous
 62
     7
100
AcDbLine
 10
0.6024946331918297
 20
0.159483873491955
 30
0.0
 11
0.7442580762957897
 21
0.159483873491955
 31
0.0
  0
LINE
  5
B4
330
A
100
AcDbEntity
  8
TITLE_BLOCK
  6
Continuous
 62
     7
100
AcDbLine
 10
0.3189677469839098
 20
0.1949247342679448
 30
0.0
 11
0.4607311900878698
 21
0.1949247342679448
 31
0.0
  0
LINE
  5
B5
330
A
100
AcDbEntity
  8
TITLE_BLOCK
  6
Continuous
 62
     7
100
AcDbLine
 10
0.3189677469839098
 20
0.230365595043935
 30
0.0
 11
0.4607311900878698
 21
0.230365595043935
 31
0.0
  0
TEXT
  5
B9
330
A
100
AcDbEntity
  8
TITLE_BLOCK
  6
Continuous
 62
     7
100
AcDbText
 10
1.036645177697707
 20
0.0620215063579824
 30
0.0
 40
0.014176344310396
  1
REV.:
 41
0.5
100
AcDbText
  0
TEXT
  5
BA
330
A
100
AcDbEntity
  8
TITLE_BLOCK
  6
Continuous
 62
     7
100
AcDbText
 10
0.7531182914897871
 20
0.0620215063579824
 30
0.0
 40
0.014176344310396
  1
PART NO.:
 41
0.5
100
AcDbText
  0
TEXT
  5
BB
330
A
100
AcDbEntity
  8
TITLE_BLOCK
  6
Continuous
 62
     7
100
AcDbText
 10
0.7531182914897868
 20
0.1860645190739469
 30
0.0
 40
0.014176344310396
  1
TITLE:
 41
0.5
100
AcDbText
  0
TEXT
  5
BC
330
A
100
AcDbEntity
  8
TITLE_BLOCK
  6
Continuous
 62
     7
100
AcDbText
 10
0.9517265185691863
 20
0.2331590473538603
 30
0.0
 40
0.014176344310396
  1
Extruded Components Division
 41
0.5
100
AcDbText
  0
TEXT
  5
BD
330
A
100
AcDbEntity
  8
TITLE_BLOCK
  6
Continuous
 62
     7
100
AcDbText
 10
0.9337988360229443
 20
0.2183820000297047
 30
0.0
 40
0.0265806455819925
  1
INC
 50
90.00000000000005
 41
0.5
100
AcDbText
  0
TEXT
  5
BE
330
A
100
AcDbEntity
  8
TITLE_BLOCK
  6
Continuous
 62
     7
100
AcDbText
 10
0.7619785066837846
 20
0.2215053798499374
 30
0.0
 40
0.03544086077599
  1
ULTRAFAB
 41
0.5
100
AcDbText
  0
LINE
  5
C0
330
A
100
AcDbEntity
  8
TITLE_BLOCK
  6
Continuous
 62
     7
100
AcDbLine
 10
0.3189677469839098
 20
0.159483873491955
 30
0.0
 11
0.6024946331918297
 21
0.159483873491955
 31
0.0
  0
LINE
  5
C1
330
A
100
AcDbEntity
  8
TITLE_BLOCK
  6
Continuous
 62
     7
100
AcDbLine
 10
0.4607311900878698
 20
0.2658064558199249
 30
0.0
 11
0.4607311900878698
 21
0.159483873491955
 31
0.0
  0
LINE
  5
C3
330
A
100
AcDbEntity
  8
TITLE_BLOCK
  6
Continuous
 62
     7
100
AcDbLine
 10
1.027784962503709
 20
0.088602151939975
 30
0.0
 11
1.027784962503709
 21
0.0354408607759899
 31
0.0
  0
LINE
  5
C4
330
A
100
AcDbEntity
  8
TITLE_BLOCK
  6
Continuous
 62
     7
100
AcDbLine
 10
0.7442580762957897
 20
0.088602151939975
 30
0.0
 11
1.169548405607669
 21
0.088602151939975
 31
0.0
  0
LINE
  5
C5
330
A
100
AcDbEntity
  8
TITLE_BLOCK
  6
Continuous
 62
     7
100
AcDbLine
 10
0.6024946331918297
 20
0.2658064558199249
 30
0.0
 11
0.6024946331918298
 21
0.159483873491955
 31
0.0
  0
LINE
  5
C6
330
A
100
AcDbEntity
  8
TITLE_BLOCK
  6
Continuous
 62
     7
100
AcDbLine
 10
0.7442580762957897
 20
0.2126451646559398
 30
0.0
 11
1.169548405607669
 21
0.2126451646559398
 31
0.0
  0
LINE
  5
C7
330
A
100
AcDbEntity
  8
TITLE_BLOCK
  6
Continuous
 62
     7
100
AcDbLine
 10
0.03544086077599
 20
0.2658064558199249
 30
0.0
 11
1.169548405607669
 21
0.2658064558199249
 31
0.0
  0
LINE
  5
C8
330
A
100
AcDbEntity
  8
TITLE_BLOCK
  6
Continuous
 62
     7
100
AcDbLine
 10
0.03544086077599
 20
0.0354408607759899
 30
0.0
 11
0.03544086077599
 21
1.523957013367569
 31
0.0
  0
LINE
  5
C9
330
A
100
AcDbEntity
  8
TITLE_BLOCK
  6
Continuous
 62
     7
100
AcDbLine
 10
1.169548405607669
 20
0.0354408607759899
 30
0.0
 11
0.03544086077599
 21
0.0354408607759899
 31
0.0
  0
LINE
  5
CA
330
A
100
AcDbEntity
  8
TITLE_BLOCK
  6
Continuous
 62
     7
100
AcDbLine
 10
1.169548405607669
 20
1.523957013367569
 30
0.0
 11
1.169548405607669
 21
0.0354408607759899
 31
0.0
  0
LINE
  5
CB
330
A
100
AcDbEntity
  8
TITLE_BLOCK
  6
Continuous
 62
     7
100
AcDbLine
 10
0.03544086077599
 20
1.523957013367569
 30
0.0
 11
1.169548405607669
 21
1.523957013367569
 31
0.0
  0
LINE
  5
CC
330
A
100
AcDbEntity
  8
TITLE_BLOCK
  6
Continuous
 62
     7
100
AcDbLine
 10
0.0
 20
0.0
 30
0.0
 11
0.0
 21
1.559397874143559
 31
0.0
  0
LINE
  5
CD
330
A
100
AcDbEntity
  8
TITLE_BLOCK
  6
Continuous
 62
     7
100
AcDbLine
 10
1.204989266383659
 20
1.559397874143559
 30
0.0
 11
0.0
 21
1.559397874143559
 31
0.0
  0
LINE
  5
CE
330
A
100
AcDbEntity
  8
TITLE_BLOCK
  6
Continuous
 62
     7
100
AcDbLine
 10
1.204989266383659
 20
0.0
 30
0.0
 11
0.0
 21
0.0
 31
0.0
  0
LINE
  5
CF
330
A
100
AcDbEntity
  8
TITLE_BLOCK
  6
Continuous
 62
     7
100
AcDbLine
 10
1.204989266383659
 20
1.559397874143559
 30
0.0
 11
0.0
 21
1.559397874143559
 31
0.0
  0
LINE
  5
D0
330
A
100
AcDbEntity
  8
TITLE_BLOCK
  6
Continuous
 62
     7
100
AcDbLine
 10
1.204989266383659
 20
0.0
 30
0.0
 11
1.204989266383659
 21
1.559397874143559
 31
0.0
  0
LINE
  5
1B2
330
A
100
AcDbEntity
  8
TITLE_BLOCK
  6
Continuous
 62
     7
100
AcDbLine
 10
0.3189677469839098
 20
0.088602151939975
 30
0.0
 11
0.03544086077599
 21
0.088602151939975
 31
0.0
  0
MTEXT
  5
1B9
330
A
100
AcDbEntity
  8
0
  6
Continuous
 62
     2
100
AcDbMText
 10
0.3213829260252145
 20
0.153509751406912
 30
0.0
 40
0.0088602151939975
 41
0.419570527231845
 46
0.0
 71
     1
 72
     5
  3
{\Fisocp.shx;\C7;NOTICE OF CONFIDENTIAL INFORMATION:  INFORMATION CONTAINED HEREIN IS CONFIDENTIAL AND PROPRIETARY IN NATURE AND SHALL AT ALL TIMES REMAIN THE PROPERTY OF ULTRAFAB, INC. 1050 HOOK ROAD FARMINGTON NY 14425.  BY REVIEWING THE CONTENTS O
  1
F THIS DOCUMENT, YOU HEREBY AGREE TO ALL THE TERMS AND CONDITIONS SET FORTH ABOVE.}
 73
     1
 44
1.0
  0
LINE
  5
11EE
330
A
100
AcDbEntity
  8
0
  6
Continuous
 62
     6
100
AcDbLine
 10
0.5092052031388814
 20
0.866980194238188
 30
0.0
 11
0.6822052031388815
 21
0.866980194238188
 31
0.0
  0
LINE
  5
11F1
330
A
100
AcDbEntity
  8
0
  6
Continuous
 62
     6
100
AcDbLine
 10
0.5092052031388814
 20
0.834980194238188
 30
0.0
 11
0.6822052031388815
 21
0.834980194238188
 31
0.0
  0
LINE
  5
11F2
330
A
100
AcDbEntity
  8
0
  6
Continuous
 62
     6
100
AcDbLine
 10
0.4882052031388815
 20
0.8549801942381879
 30
0.0
 11
0.4882052031388815
 21
0.8469801942381881
 31
0.0
  0
LINE
  5
11F3
330
A
100
AcDbEntity
  8
0
  6
Continuous
 62
     6
100
AcDbLine
 10
0.7032052031388814
 20
0.8549801942381879
 30
0.0
 11
0.7032052031388814
 21
0.8469801942381881
 31
0.0
  0
LINE
  5
11F9
330
A
100
AcDbEntity
  8
0
  6
Continuous
 62
     6
100
AcDbLine
 10
0.6822052031388815
 20
0.866980194238188
 30
0.0
 11
0.7032052031388814
 21
0.8549801942381879
 31
0.0
  0
LINE
  5
11FA
330
A
100
AcDbEntity
  8
0
  6
Continuous
 62
     6
100
AcDbLine
 10
0.7032052031388814
 20
0.8469801942381881
 30
0.0
 11
0.6822052031388815
 21
0.834980194238188
 31
0.0
  0
LINE
  5
11FB
330
A
100
AcDbEntity
  8
0
  6
Continuous
 62
     6
100
AcDbLine
 10
0.5092052031388814
 20
0.866980194238188
 30
0.0
 11
0.4882052031388815
 21
0.8549801942381879
 31
0.0
  0
LINE
  5
11FC
330
A
100
AcDbEntity
  8
0
  6
Continuous
 62
     6
100
AcDbLine
 10
0.4882052031388815
 20
0.8469801942381881
 30
0.0
 11
0.5092052031388814
 21
0.834980194238188
 31
0.0
  0
LINE
  5
11FD
330
A
100
AcDbEntity
  8
TEXT
 62
     5
100
AcDbLine
 10
0.5364220962899451
 20
0.9106727977150628
 30
0.0
 11
0.5608534491631028
 21
0.866980194238188
 31
0.0
  0
LINE
  5
11FE
330
A
100
AcDbEntity
  8
TEXT
 62
     5
100
AcDbLine
 10
0.6549883099878176
 20
0.9106727977150628
 30
0.0
 11
0.6305569571146599
 21
0.866980194238188
 31
0.0
  0
LINE
  5
11FF
330
A
100
AcDbEntity
  8
TEXT
 62
     5
100
AcDbLine
 10
0.6478312721155955
 20
0.9156338404058846
 30
0.0
 11
0.6234339272050966
 21
0.8889609984094789
 31
0.0
  0
LINE
  5
1200
330
A
100
AcDbEntity
  8
TEXT
 62
     5
100
AcDbLine
 10
0.5818705613229933
 20
0.8939818463407522
 30
0.0
 11
0.5869705114773956
 21
1.001625218420649
 31
0.0
  0
LINE
  5
1201
330
A
100
AcDbEntity
  8
TEXT
 62
     5
100
AcDbLine
 10
0.6095398449547693
 20
0.8939818463407531
 30
0.0
 11
0.6044398948003673
 21
1.001625218420652
 31
0.0
  0
LINE
  5
1202
330
A
100
AcDbEntity
  8
TEXT
 62
     5
100
AcDbLine
 10
0.5435791341621672
 20
0.9156338404058846
 30
0.0
 11
0.567976479072666
 21
0.8889609984094782
 31
0.0
  0
ARC
  5
1203
330
A
100
AcDbEntity
  8
TEXT
 62
     5
100
AcDbCircle
 10
0.5738795250139135
 20
0.8943604473272399
 30
0.0
 40
0.008
100
AcDbArc
 50
222.4488010956564
 51
357.2874569937688
  0
ARC
  5
1204
330
A
100
AcDbEntity
  8
TEXT
 62
     5
100
AcDbCircle
 10
0.617530881263849
 20
0.8943604473272408
 30
0.0
 40
0.008
100
AcDbArc
 50
182.7125430062311
 51
317.5511989043428
  0
ARC
  5
1205
330
A
100
AcDbEntity
  8
TEXT
 62
     5
100
AcDbCircle
 10
0.5964813771255626
 20
1.000811586796487
 30
0.0
 40
0.008
100
AcDbArc
 50
5.837300125858435
 51
90.0
  0
ARC
  5
1206
330
A
100
AcDbEntity
  8
TEXT
 62
     5
100
AcDbCircle
 10
0.5949290291522003
 20
1.000811586796487
 30
0.0
 40
0.008
100
AcDbArc
 50
90.0
 51
174.1626998741415
  0
ARC
  5
1207
330
A
100
AcDbEntity
  8
TEXT
 62
     5
100
AcDbCircle
 10
0.6508807139246784
 20
0.9130452298416972
 30
0.0
 40
0.004
100
AcDbArc
 50
55.21293638763998
 51
139.6727343714098
  0
ARC
  5
1208
330
A
100
AcDbEntity
  8
TEXT
 62
     5
100
AcDbCircle
 10
0.6514938603284806
 20
0.912619287267657
 30
0.0
 40
0.004
100
AcDbArc
 50
330.8811783498197
 51
55.21293638763998
  0
ARC
  5
1209
330
A
100
AcDbEntity
  8
TEXT
 62
     5
100
AcDbCircle
 10
0.5399165459492821
 20
0.912619287267657
 30
0.0
 40
0.004
100
AcDbArc
 50
124.78706361236
 51
209.1188216501803
  0
ARC
  5
120A
330
A
100
AcDbEntity
  8
TEXT
 62
     5
100
AcDbCircle
 10
0.5405296923530841
 20
0.9130452298416976
 30
0.0
 40
0.004
100
AcDbArc
 50
40.32726562859024
 51
124.78706361236
  0
LINE
  5
120C
330
A
100
AcDbEntity
  8
0
  6
Continuous
 62
     5
100
AcDbLine
 10
0.5382475797452021
 20
0.9163303420231832
 30
0.0
 11
0.5376344333414
 21
0.9159043994491426
 31
0.0
  0
LINE
  5
120D
330
A
100
AcDbEntity
  8
TEXT
 62
     5
100
AcDbLine
 10
0.6531628265325607
 20
0.916330342023183
 30
0.0
 11
0.6537759729363626
 21
0.9159043994491426
 31
0.0
  0
LINE
  5
120E
330
A
100
AcDbEntity
  8
TEXT
 62
     5
100
AcDbLine
 10
0.5949290291522003
 20
1.008811586796487
 30
0.0
 11
0.5964813771255626
 21
1.008811586796487
 31
0.0
  0
DIMENSION
  5
120F
330
A
100
AcDbEntity
  8
RIGID
  6
Continuous
 62
     1
100
AcDbDimension
  2
*D1
 10
0.7032052031388814
 20
0.7044007562125163
 30
0.0
 11
0.5957052031388815
 21
0.7044007562125163
 31
0.0
 70
   160
 71
     5
 42
0.2149999999999999
 73
     0
 74
     0
 75
     0
  3
DIMSTYLE13
100
AcDbAlignedDimension
 13
0.4882052031388815
 23
0.8469801942381881
 33
0.0
 14
0.7032052031388814
 24
0.8469801942381881
 34
0.0
100
AcDbRotatedDimension
1001
ACAD
1000
DSTYLE
1002
{
1070
    41
1040
0.0125
1070
    42
1040
0.0125
1070
    44
1040
0.015
1070
    47
1040
0.004
1070
    48
1040
0.004
1070
    71
1070
     1
1070
    78
1070
     4
1070
   140
1040
0.0125
1070
   147
1040
0.01
1070
   176
1070
     1
1070
   177
1070
     1
1070
   271
1070
     3
1070
   272
1070
     3
1070
   284
1070
     4
1002
}
  0
DIMENSION
  5
131B
330
A
100
AcDbEntity
  8
RIGID
  6
Continuous
 62
     1
100
AcDbDimension
  2
*D2
 10
0.6822052031388815
 20
0.7611680215777588
 30
0.0
 11
0.7619552031388814
 21
0.7611680215777588
 31
0.0
 70
   160
 71
     5
 42
0.0209999999999999
 73
     0
 74
     0
 75
     0
  3
DIMSTYLE13
100
AcDbAlignedDimension
 13
0.7032052031388814
 23
0.8469801942381881
 33
0.0
 14
0.6822052031388815
 24
0.834980194238188
 34
0.0
100
AcDbRotatedDimension
1001
ACAD
1000
DSTYLE
1002
{
1070
    41
1040
0.0125
1070
    42
1040
0.0125
1070
    44
1040
0.015
1070
    47
1040
0.02
1070
    48
1040
0.02
1070
    78
1070
     4
1070
   140
1040
0.0125
1070
   147
1040
0.01
1070
   176
1070
     1
1070
   177
1070
     1
1070
   271
1070
     3
1070
   272
1070
     3
1070
   279
1070
     2
1070
   284
1070
     4
1002
}
  0
DIMENSION
  5
138E
330
A
100
AcDbEntity
  8
RIGID
  6
Continuous
 62
     1
100
AcDbDimension
  2
*D3
 10
0.3426233608382271
 20
0.834980194238188
 30
0.0
 11
0.2774150275048937
 21
0.8019702720550592
 31
0.0
 70
   160
 71
     5
 42
0.032
 73
     0
 74
     0
 75
     0
  3
DIMSTYLE13
100
AcDbAlignedDimension
 13
0.5092052031388814
 23
0.866980194238188
 33
0.0
 14
0.5092052031388814
 24
0.834980194238188
 34
0.0
 50
90.0
100
AcDbRotatedDimension
1001
ACAD
1000
DSTYLE
1002
{
1070
    41
1040
0.0125
1070
    42
1040
0.0125
1070
    44
1040
0.015
1070
    47
1040
0.004
1070
    48
1040
0.004
1070
    71
1070
     1
1070
    78
1070
     4
1070
   140
1040
0.0125
1070
   147
1040
0.01
1070
   176
1070
     1
1070
   177
1070
     1
1070
   271
1070
     3
1070
   272
1070
     3
1070
   284
1070
     4
1002
}
  0
DIMENSION
  5
13CA
330
A
100
AcDbEntity
  8
RIGID
  6
Continuous
 62
     1
100
AcDbDimension
  2
*D4
 10
0.6305569571146599
 20
0.7459171161466492
 30
0.0
 11
0.5961967464617182
 21
0.7459171161466492
 31
0.0
 70
   160
 71
     5
 42
0.0697035079515571
 73
     0
 74
     0
 75
     0
  3
DIMSTYLE13
100
AcDbAlignedDimension
 13
0.5608534491631028
 23
0.866980194238188
 33
0.0
 14
0.6305569571146599
 24
0.866980194238188
 34
0.0
100
AcDbRotatedDimension
1001
ACAD
1000
DSTYLE
1002
{
1070
    41
1040
0.0125
1070
    42
1040
0.0125
1070
    44
1040
0.015
1070
    47
1040
0.02
1070
    48
1040
0.02
1070
    78
1070
     4
1070
   140
1040
0.0125
1070
   147
1040
0.01
1070
   176
1070
     1
1070
   177
1070
     1
1070
   271
1070
     3
1070
   272
1070
     3
1070
   279
1070
     2
1070
   284
1070
     4
1002
}
  0
DIMENSION
  5
140B
330
A
100
AcDbEntity
  8
RIGID
  6
Continuous
 62
     1
100
AcDbDimension
  2
*D5
 10
0.8065780376224758
 20
0.8469801942381879
 30
0.0
 11
0.8060633692542147
 21
0.7998053099941567
 31
0.0
 70
   160
 71
     5
 42
0.012
 73
     0
 74
     0
 75
     0
  3
DIMSTYLE13
100
AcDbAlignedDimension
 13
0.6822052031388815
 23
0.834980194238188
 33
0.0
 14
0.7032052031388814
 24
0.8469801942381881
 34
0.0
 50
90.0
100
AcDbRotatedDimension
1001
ACAD
1000
DSTYLE
1002
{
1070
    41
1040
0.0125
1070
    42
1040
0.0125
1070
    44
1040
0.015
1070
    47
1040
0.02
1070
    48
1040
0.02
1070
    78
1070
     4
1070
   140
1040
0.0125
1070
   147
1040
0.01
1070
   176
1070
     1
1070
   177
1070
     1
1070
   271
1070
     3
1070
   272
1070
     3
1070
   279
1070
     2
1070
   284
1070
     4
1002
}
  0
DIMENSION
  5
1489
330
A
100
AcDbEntity
  8
TEXT
 62
     1
100
AcDbDimension
  2
*D6
 10
0.8232546725454763
 20
0.8669801942381878
 30
0.0
 11
0.823254672545476
 21
0.9378958905173373
 31
0.0
 70
   160
 71
     5
 42
0.1418313925582993
 73
     0
 74
     0
 75
     0
  3
DIMSTYLE13
100
AcDbAlignedDimension
 13
0.5949290291522003
 23
1.008811586796487
 33
0.0
 14
0.6822052031388815
 24
0.866980194238188
 34
0.0
 50
90.0
100
AcDbRotatedDimension
1001
ACAD
1000
DSTYLE
1002
{
1070
    41
1040
0.0125
1070
    42
1040
0.0125
1070
    44
1040
0.015
1070
    47
1040
0.02
1070
    48
1040
0.02
1070
    78
1070
     4
1070
   140
1040
0.0125
1070
   147
1040
0.01
1070
   176
1070
     1
1070
   177
1070
     1
1070
   271
1070
     3
1070
   272
1070
     3
1070
   279
1070
     2
1070
   284
1070
     4
1002
}
  0
DIMENSION
  5
14A3
330
A
100
AcDbEntity
  8
RIGID
  6
Continuous
 62
     1
100
AcDbDimension
  2
*D7
 10
0.7784360792176948
 20
0.8669801942381878
 30
0.0
 11
0.7777570528434481
 21
0.8930933554575775
 31
0.0
 70
   160
 71
     5
 42
0.0500313339846854
 73
     0
 74
     0
 75
     0
  3
DIMSTYLE13
100
AcDbAlignedDimension
 13
0.6503625661161539
 23
0.9170115282228735
 33
0.0
 14
0.6822052031388815
 24
0.866980194238188
 34
0.0
 50
90.0
100
AcDbRotatedDimension
1001
ACAD
1000
DSTYLE
1002
{
1070
    41
1040
0.0125
1070
    42
1040
0.0125
1070
    44
1040
0.015
1070
    47
1040
0.02
1070
    48
1040
0.02
1070
    78
1070
     4
1070
   140
1040
0.0125
1070
   147
1040
0.01
1070
   176
1070
     1
1070
   177
1070
     1
1070
   271
1070
     3
1070
   272
1070
     3
1070
   279
1070
     1
1070
   284
1070
     4
1002
}
  0
DIMENSION
  5
1541
330
A
100
AcDbEntity
  8
RIGID
  6
Continuous
 62
     1
100
AcDbDimension
  2
*D8
 10
0.4010233942571287
 20
0.866980194238188
 30
0.0
 11
0.4021577226523672
 21
0.934014753002879
 31
0.0
 70
   160
 71
     5
 42
0.0198564345393582
 73
     0
 74
     0
 75
     0
  3
DIMSTYLE13
100
AcDbAlignedDimension
 13
0.5765983766890303
 23
0.8868366287775462
 33
0.0
 14
0.5092052031388814
 24
0.866980194238188
 34
0.0
 50
90.0
100
AcDbRotatedDimension
1001
ACAD
1000
DSTYLE
1002
{
1070
    41
1040
0.0125
1070
    42
1040
0.0125
1070
    44
1040
0.015
1070
    47
1040
0.02
1070
    48
1040
0.02
1070
    78
1070
     4
1070
   140
1040
0.0125
1070
   147
1040
0.01
1070
   176
1070
     1
1070
   177
1070
     1
1070
   271
1070
     3
1070
   272
1070
     3
1070
   279
1070
     2
1070
   284
1070
     4
1002
}
  0
DIMENSION
  5
158D
330
A
100
AcDbEntity
  8
RIGID
  6
Continuous
 62
     1
100
AcDbDimension
  2
*D9
 10
0.5207556525297273
 20
0.9332739600726585
 30
0.0
 11
0.5058192833856774
 21
0.9624649460223276
 31
0.0
 70
    33
 71
     5
 42
0.0087083371365824
 73
     0
 74
     0
 75
     0
  3
DIMSTYLE13
100
AcDbAlignedDimension
 13
0.5435791341621672
 23
0.9156338404058846
 33
0.0
 14
0.536422096289888
 24
0.9106727977151651
 34
0.0
1001
ACAD
1000
DSTYLE
1002
{
1070
    41
1040
0.0125
1070
    42
1040
0.0125
1070
    44
1040
0.015
1070
    47
1040
0.02
1070
    48
1040
0.02
1070
    78
1070
     4
1070
   140
1040
0.0125
1070
   147
1040
0.01
1070
   176
1070
     1
1070
   177
1070
     1
1070
   271
1070
     3
1070
   272
1070
     3
1070
   279
1070
     2
1070
   284
1070
     4
1002
}
  0
DIMENSION
  5
15BA
330
A
100
AcDbEntity
  8
RIGID
  6
Continuous
 62
     1
100
AcDbDimension
  2
*D10
 10
0.6044398948003683
 20
1.071216278970019
 30
0.0
 11
0.5969097495171685
 21
1.097647942319376
 31
0.0
 70
   160
 71
     5
 42
0.0174693833229737
 73
     0
 74
     0
 75
     0
  3
DIMSTYLE13
100
AcDbAlignedDimension
 13
0.5869705114773947
 23
1.001625218420631
 33
0.0
 14
0.6044398948003683
 24
1.000811586796487
 34
0.0
100
AcDbRotatedDimension
1001
ACAD
1000
DSTYLE
1002
{
1070
    41
1040
0.0125
1070
    42
1040
0.0125
1070
    44
1040
0.015
1070
    47
1040
0.02
1070
    48
1040
0.02
1070
    78
1070
     4
1070
   140
1040
0.0125
1070
   147
1040
0.01
1070
   176
1070
     1
1070
   177
1070
     1
1070
   271
1070
     3
1070
   272
1070
     3
1070
   279
1070
     2
1070
   284
1070
     4
1002
}
  0
DIMENSION
  5
15F0
330
A
100
AcDbEntity
  8
RIGID
  6
Continuous
 62
     1
100
AcDbDimension
  2
*D11
 10
0.6549883099878175
 20
1.131931891879196
 30
0.0
 11
0.5957052031388527
 21
1.131931891879196
 31
0.0
 70
    32
 71
     5
 42
0.1185662136979295
 73
     0
 74
     0
 75
     0
  3
DIMSTYLE13
100
AcDbAlignedDimension
 13
0.536422096289888
 23
0.9106727977151651
 33
0.0
 14
0.6549883099878175
 24
0.9106727977150622
 34
0.0
100
AcDbRotatedDimension
1001
ACAD
1000
DSTYLE
1002
{
1070
    41
1040
0.0125
1070
    42
1040
0.0125
1070
    44
1040
0.015
1070
    47
1040
0.02
1070
    48
1040
0.02
1070
    78
1070
     4
1070
   140
1040
0.0125
1070
   147
1040
0.01
1070
   176
1070
     1
1070
   177
1070
     1
1070
   271
1070
     3
1070
   272
1070
     3
1070
   279
1070
     2
1070
   284
1070
     4
1002
}
  0
DIMENSION
  5
1612
330
A
100
AcDbEntity
  8
RIGID
  6
Continuous
 62
     1
100
AcDbDimension
  2
*D12
 10
0.6822052031388815
 20
0.866980194238188
 30
0.0
 11
0.7253464867492135
 21
0.9266534918219406
 31
0.0
 70
   162
 71
     5
 42
1.060944268106637
 73
     0
 74
     0
 75
     0
  3
DIMSTYLE13
100
AcDb2LineAngularDimension
 13
0.6549883099878176
 23
0.9106727977150628
 33
0.0
 14
0.6305569571146599
 24
0.866980194238188
 34
0.0
 15
0.5092052031388814
 25
0.866980194238188
 35
0.0
 16
0.7356340951121987
 26
0.9057713329570383
 36
0.0
1001
ACAD
1000
DSTYLE
1002
{
1070
    41
1040
0.0125
1070
    42
1040
0.0125
1070
    44
1040
0.015
1070
    47
1040
0.02
1070
    48
1040
0.02
1070
    78
1070
     4
1070
   140
1040
0.0125
1070
   147
1040
0.01
1070
   176
1070
     1
1070
   177
1070
     1
1070
   271
1070
     3
1070
   272
1070
     3
1070
   279
1070
     2
1070
   284
1070
     4
1002
}
  0
DIMENSION
  5
163C
330
A
100
AcDbEntity
  8
RIGID
  6
Continuous
 62
     1
100
AcDbDimension
  2
*D13
 10
0.4578297693431992
 20
0.8469801942381881
 30
0.0
 11
0.443274941729305
 21
0.8036210764216509
 31
0.0
 70
   160
 71
     5
 42
0.008
 73
     0
 74
     0
 75
     0
  3
DIMSTYLE13
100
AcDbAlignedDimension
 13
0.4882052031388815
 23
0.8549801942381879
 33
0.0
 14
0.4882052031388815
 24
0.8469801942381881
 34
0.0
 50
90.0
100
AcDbRotatedDimension
1001
ACAD
1000
DSTYLE
1002
{
1070
    41
1040
0.0125
1070
    42
1040
0.0125
1070
    44
1040
0.015
1070
    47
1040
0.02
1070
    48
1040
0.02
1070
    78
1070
     4
1070
   140
1040
0.0125
1070
   147
1040
0.01
1070
   176
1070
     1
1070
   177
1070
     1
1070
   271
1070
     3
1070
   272
1070
     3
1070
   279
1070
     2
1070
   284
1070
     4
1002
}
  0
DIMENSION
  5
16E8
330
A
100
AcDbEntity
  8
RIGID
  6
Continuous
 62
     1
100
AcDbDimension
  2
*D14
 10
0.6095398449547693
 20
1.036696065808555
 30
0.0
 11
0.6761079531772225
 21
1.03713558766557
 31
0.0
 70
   160
 71
     5
 42
0.0276692836317761
 73
     0
 74
     0
 75
     0
  3
DIMSTYLE13
100
AcDbAlignedDimension
 13
0.5818705613229933
 23
0.8939818463407522
 33
0.0
 14
0.6095398449547693
 24
0.8939818463407531
 34
0.0
100
AcDbRotatedDimension
1001
ACAD
1000
DSTYLE
1002
{
1070
    41
1040
0.0125
1070
    42
1040
0.0125
1070
    44
1040
0.015
1070
    47
1040
0.02
1070
    48
1040
0.02
1070
    78
1070
     4
1070
   140
1040
0.0125
1070
   147
1040
0.01
1070
   176
1070
     1
1070
   177
1070
     1
1070
   271
1070
     3
1070
   272
1070
     3
1070
   279
1070
     2
1070
   284
1070
     4
1002
}
  0
DIMENSION
  5
1859
330
A
100
AcDbEntity
  8
0
  6
Continuous
 62
     1
100
AcDbDimension
  2
*D15
 10
0.5738795250139133
 20
0.8943604473272401
 30
0.0
 11
0.5234826410216949
 21
1.014983449938328
 31
0.0
 70
   164
  1
R .010
 71
     5
 42
0.0079999999999986
 73
     0
 74
     0
 75
     0
  3
STANDARD
100
AcDbRadialDimension
 15
0.5707954441410227
 25
0.9017420762239975
 35
0.0
 40
0.0
1001
ACAD
1000
DSTYLE
1002
{
1070
   147
1040
0.01
1070
   141
1040
0.0
1070
    41
1040
0.0125
1070
    44
1040
0.25
1070
    47
1040
0.003
1070
    48
1040
-0.003
1070
   140
1040
0.0125
1070
   178
1070
     1
1070
   279
1070
     1
1070
   288
1070
     1
1070
   289
1070
     3
1002
}
  0
LEADER
  5
18C1
330
A
100
AcDbEntity
  8
0
  6
Continuous
 62
     1
100
AcDbLeader
  3
STANDARD
 73
     0
 75
     1
 40
0.0166666666666667
 41
0.1854166666666667
 76
     3
 10
0.5402414226926738
 20
0.8350984755690742
 30
0.0
 10
0.444440271874506
 20
0.7550270132015556
 30
0.0
 10
0.431940271874506
 20
0.7550270132015556
 30
0.0
340
18C2
213
-0.0015564618346267
223
0.0108459867027673
233
0.0
1001
ACAD
1000
DSTYLE
1002
{
1070
    41
1040
0.0125
1070
   147
1040
0.01
1070
    77
1070
     0
1070
    44
1040
0.25
1070
    47
1040
0.003
1070
    48
1040
-0.003
1070
   140
1040
0.025
1070
   178
1070
     1
1070
   289
1070
     3
1002
}
  0
MTEXT
  5
18C2
102
{ACAD_REACTORS
330
18C1
102
}
330
A
100
AcDbEntity
  8
0
  6
Continuous
 62
     1
100
AcDbMText
 10
0.4234967337091327
 20
0.7441810264987883
 30
0.0
 40
0.0125
 41
0.0
 46
0.0
 71
     9
 72
     1
  1
Black Ridged PVC
 73
     1
 44
1.0
  0
LEADER
  5
18C3
330
A
100
AcDbEntity
  8
0
  6
Continuous
 62
     1
100
AcDbLeader
  3
STANDARD
 73
     0
 75
     1
 40
0.0375
 41
0.2395833333333334
 76
     3
 10
0.5434068311487881
 20
0.8963811854605303
 30
0.0
 10
0.4115278270852719
 20
0.9694188923204183
 30
0.0
 10
0.3990278270852718
 20
0.9694188923204183
 30
0.0
340
18C4
213
0.0
223
0.0125
233
0.0
1001
ACAD
1000
DSTYLE
1002
{
1070
    41
1040
0.0125
1070
    44
1040
0.25
1070
    47
1040
0.003
1070
    48
1040
-0.003
1070
   140
1040
0.025
1070
   147
1040
0.01
1070
   178
1070
     1
1070
   289
1070
     3
1002
}
  0
MTEXT
  5
18C4
102
{ACAD_REACTORS
330
18C3
102
}
330
A
100
AcDbEntity
  8
0
  6
Continuous
 62
     1
100
AcDbMText
 10
0.3890278270852718
 20
0.9569188923204183
 30
0.0
 40
0.0125
 41
0.0
 46
0.0
 71
     9
 72
     1
  1
3055 Natural \PAlcryn w/ Black Color
 73
     1
 44
1.0
  0
DIMENSION
  5
18C5
330
A
100
AcDbEntity
  8
RIGID
  6
Continuous
 62
     1
100
AcDbDimension
  2
*D16
 10
0.9353714497481911
 20
0.8349801942381878
 30
0.0
 11
0.9353714497481909
 21
0.9218958905173375
 31
0.0
 70
   160
 71
     5
 42
0.1738313925582994
 73
     0
 74
     0
 75
     0
  3
DIMSTYLE13
100
AcDbAlignedDimension
 13
0.5964813771255626
 23
1.008811586796487
 33
0.0
 14
0.6822052031388815
 24
0.834980194238188
 34
0.0
 50
90.0
100
AcDbRotatedDimension
1001
ACAD
1000
DSTYLE
1002
{
1070
    41
1040
0.0125
1070
    42
1040
0.0125
1070
    44
1040
0.015
1070
    47
1040
0.008
1070
    48
1040
0.008
1070
    71
1070
     1
1070
    78
1070
     4
1070
   140
1040
0.0125
1070
   147
1040
0.01
1070
   176
1070
     1
1070
   177
1070
     1
1070
   271
1070
     3
1070
   272
1070
     3
1070
   284
1070
     4
1002
}
  0
VIEWPORT
  5
1B1E
330
B
100
AcDbEntity
 67
     1
  8
0
  6
Continuous
 62
     1
100
AcDbViewport
 10
3.999999883606678
 20
5.249999883606678
 30
0.0
 40
20.24280547276654
 41
11.63799974576695
 68
     1
 69
     1
 12
3.999999883606678
 22
5.249999883606678
 13
0.0
 23
0.0
 14
0.5
 24
0.5
 15
0.5
 25
0.5
 16
0.0
 26
0.0
 36
1.0
 17
0.0
 27
0.0
 37
0.0
 42
50.0
 43
0.0
 44
0.0
 45
11.63799974576695
 50
0.0
 51
0.0
 72
   100
 90
   819232
  1

281
     0
 71
     1
 74
     0
110
0.0
120
0.0
130
0.0
111
1.0
121
0.0
131
0.0
112
0.0
122
1.0
132
0.0
 79
     0
146
0.0
170
     0
 61
     5
348
1B0A
292
     1
282
     1
141
0.0
142
0.0
 63
   250
421
  3355443
  0
VIEWPORT
  5
1B2B
330
B
100
AcDbEntity
 67
     1
  8
0
  6
Continuous
 62
     1
100
AcDbViewport
 10
3.999999874441861
 20
5.249999882653359
 30
0.0
 40
7.972484990850475
 41
10.49996656877921
 68
     2
 69
     2
 12
0.6024946331918297
 22
0.7796989370717798
 13
0.0
 23
0.0
 14
1.0
 24
1.0
 15
0.0
 25
0.0
 16
0.0
 26
0.0
 36
1.0
 17
0.0
 27
0.0
 37
0.0
 42
50.0
 43
0.0
 44
0.0
 45
1.612736834540748
 50
0.0
 51
0.0
 72
   100
 90
   819232
  1

281
     0
 71
     1
 74
     0
110
0.0
120
0.0
130
0.0
111
1.0
121
0.0
131
0.0
112
0.0
122
1.0
132
0.0
 79
     0
146
0.0
170
     0
 61
     5
348
1B0A
292
     1
282
     1
141
0.0
142
0.0
 63
   250
421
  3355443
  0
ENDSEC
  0
SECTION
  2
OBJECTS
  0
DICTIONARY
  5
19
330
0
100
AcDbDictionary
281
     1
  3
ACAD_COLOR
350
1CD
  3
ACAD_GROUP
350
1A
  3
ACAD_LAYOUT
350
161
  3
ACAD_MATERIAL
350
1CC
  3
ACAD_MLINESTYLE
350
1B
  3
ACAD_PLOTSETTINGS
350
162
  3
ACAD_PLOTSTYLENAME
350
15F
  3
ACAD_TABLESTYLE
350
1CE
  3
ACAD_VISUALSTYLE
350
1B04
  3
AcDbVariableDictionary
350
1BB
  3
ASE_INDEX_DICTIONARY
350
1D8A
  0
DICTIONARY
  5
1B2F
330
2
100
AcDbDictionary
280
     1
281
     1
  3
ACAD_LAYERSTATES
360
1B30
  0
DICTIONARY
  5
11EF
330
A
100
AcDbDictionary
280
     1
281
     1
  3
ACAD_SORTENTS
360
11F0
  0
DICTIONARY
  5
1CD
102
{ACAD_REACTORS
330
19
102
}
330
19
100
AcDbDictionary
281
     1
  0
DICTIONARY
  5
1A
102
{ACAD_REACTORS
330
19
102
}
330
19
100
AcDbDictionary
281
     1
  0
DICTIONARY
  5
161
102
{ACAD_REACTORS
330
19
102
}
330
19
100
AcDbDictionary
281
     1
  3
Layout1
350
164
  3
Model
350
163
  0
DICTIONARY
  5
1CC
102
{ACAD_REACTORS
330
19
102
}
330
19
100
AcDbDictionary
281
     1
  3
ByBlock
350
1B02
  3
ByLayer
350
1B01
  3
Global
350
1B03
  0
DICTIONARY
  5
1B
102
{ACAD_REACTORS
330
19
102
}
330
19
100
AcDbDictionary
281
     1
  3
STANDARD
350
1C
  0
DICTIONARY
  5
162
102
{ACAD_REACTORS
330
19
102
}
330
19
100
AcDbDictionary
281
     1
  0
ACDBDICTIONARYWDFLT
  5
15F
102
{ACAD_REACTORS
330
19
102
}
330
19
100
AcDbDictionary
281
     1
  3
Normal
350
160
100
AcDbDictionaryWithDefault
340
160
  0
DICTIONARY
  5
1CE
102
{ACAD_REACTORS
330
19
102
}
330
19
100
AcDbDictionary
281
     1
  3
Standard
350
1CF
  0
DICTIONARY
  5
1B04
102
{ACAD_REACTORS
330
19
102
}
330
19
100
AcDbDictionary
281
     1
  3
2dWireframe
350
1B0A
  3
3D Hidden
350
1B0C
  3
3dWireframe
350
1B0B
  3
Basic
350
1B09
  3
Brighten
350
1B10
  3
ColorChange
350
1B14
  3
Conceptual
350
1B0D
  3
Dim
350
1B0F
  3
Facepattern
350
1B13
  3
Flat
350
1B05
  3
FlatWithEdges
350
1B06
  3
Gouraud
350
1B07
  3
GouraudWithEdges
350
1B08
  3
Linepattern
350
1B12
  3
Realistic
350
1B0E
  3
Thicken
350
1B11
  0
DICTIONARY
  5
1BB
102
{ACAD_REACTORS
330
19
102
}
330
19
100
AcDbDictionary
281
     1
  3
CTABLESTYLE
350
2EF
  3
DIMASSOC
350
1BC
  0
DICTIONARY
  5
1D8A
102
{ACAD_REACTORS
330
19
102
}
330
19
100
AcDbDictionary
281
     1
  3
ASEBlockHierarchyIndexRecord
350
1D8B
1001
DCO15
1040
1608369509.256
  0
DICTIONARY
  5
1B30
102
{ACAD_REACTORS
330
1B2F
102
}
330
1B2F
100
AcDbDictionary
281
     1
  0
SORTENTSTABLE
  5
11F0
102
{ACAD_REACTORS
330
11EF
102
}
330
11EF
100
AcDbSortentsTable
330
A
331
9D
  5
9D
331
D0
  5
D0
331
BD
  5
BD
331
11EE
  5
11F1
331
CA
  5
CA
331
1B2
  5
1B2
331
C4
  5
C4
331
BE
  5
BE
331
CB
  5
CB
331
1B9
  5
1B9
331
C5
  5
C5
331
B2
  5
B2
331
8C
  5
8C
331
AC
  5
AC
331
CC
  5
CC
331
B9
  5
B9
331
C6
  5
C6
331
93
  5
93
331
B3
  5
B3
331
A0
  5
A0
331
C0
  5
C0
331
8D
  5
8D
331
11F1
  5
11EE
331
AD
  5
AD
331
CD
  5
CD
331
9A
  5
9A
331
BA
  5
BA
331
C7
  5
C7
331
94
  5
94
331
B4
  5
B4
331
A1
  5
A1
331
C1
  5
C1
331
8E
  5
8E
331
11F2
  5
11F2
331
AE
  5
AE
331
CE
  5
CE
331
9B
  5
9B
331
BB
  5
BB
331
C8
  5
C8
331
95
  5
95
331
B5
  5
B5
331
8F
  5
8F
331
11F3
  5
11F5
331
AF
  5
AF
331
9C
  5
9C
331
CF
  5
CF
331
BC
  5
BC
331
C9
  5
C9
331
90
  5
90
331
C3
  5
C3
331
B0
  5
B0
  0
LAYOUT
  5
164
102
{ACAD_XDICTIONARY
360
1B32
102
}
102
{ACAD_REACTORS
330
161
102
}
330
161
100
AcDbPlotSettings
  1

  2
none_device
  4
Letter_(8.50_x_11.00_Inches)
  6

 40
6.349999904632568
 41
6.349999904632568
 42
6.350006103515625
 43
6.350006103515625
 44
215.8999938964844
 45
279.3999938964844
 46
0.0
 47
0.0
 48
0.0
 49
0.0
140
0.0
141
0.0
142
1.0
143
1.0
 70
   688
 72
     0
 73
     0
 74
     5
  7

 75
    16
147
1.0
 76
     0
 77
     2
 78
   300
148
0.0
149
0.0
100
AcDbLayout
  1
Layout1
 70
     0
 71
     1
 10
-0.2499999962453767
 20
-0.2499999962453767
 11
8.249999763458733
 21
10.74999976345873
 12
0.0
 22
0.0
 32
0.0
 14
0.0137573790166243
 24
0.0000165982637554
 34
0.0
 15
7.986242369867099
 25
10.49998316704296
 35
0.0
146
0.0
 13
0.0
 23
0.0
 33
0.0
 16
1.0
 26
0.0
 36
0.0
 17
0.0
 27
1.0
 37
0.0
 76
     0
330
B
331
1B1E
1001
ACAD_PSEXT
1000
None
1000
None
1000
Not applicable
1000
The layout will not be plotted unless a new plotter configuration name is selected.
1070
     0
  0
LAYOUT
  5
163
102
{ACAD_REACTORS
330
161
102
}
330
161
100
AcDbPlotSettings
  1

  2
HP LaserJet 4V
  4
Letter
  6

 40
5.873749732971191
 41
10.95374488830566
 42
10.53041076660156
 43
13.49374389648437
 44
215.8999938964844
 45
279.3999938964844
 46
1.27
 47
0.0
 48
0.0
 49
0.0
140
0.0
141
0.0
142
1.0
143
0.2191914553655895
 70
 11956
 72
     0
 73
     0
 74
     1
  7

 75
     0
147
4.56222163556558
 76
     0
 77
     2
 78
   300
148
0.0013176484886974
149
0.0017051921618556
100
AcDbLayout
  1
Model
 70
     1
 71
     0
 10
0.0
 20
0.0
 11
12.0
 21
9.0
 12
0.0
 22
0.0
 32
0.0
 14
0.0
 24
0.0
 34
0.0
 15
0.0
 25
0.0
 35
0.0
146
0.0
 13
0.0
 23
0.0
 33
0.0
 16
1.0
 26
0.0
 36
0.0
 17
0.0
 27
1.0
 37
0.0
 76
     0
330
A
  0
MATERIAL
  5
1B02
102
{ACAD_REACTORS
330
1CC
102
}
330
1CC
100
AcDbMaterial
  1
ByBlock
  0
MATERIAL
  5
1B01
102
{ACAD_REACTORS
330
1CC
102
}
330
1CC
100
AcDbMaterial
  1
ByLayer
  0
MATERIAL
  5
1B03
102
{ACAD_REACTORS
330
1CC
102
}
330
1CC
100
AcDbMaterial
  1
Global
  0
MLINESTYLE
  5
1C
102
{ACAD_REACTORS
330
1B
102
}
330
1B
100
AcDbMlineStyle
  2
STANDARD
 70
     0
  3

 62
     0
 51
90.00000000000019
 52
90.00000000000019
 71
     2
 49
0.5
 62
   256
  6
BYLAYER
 49
-0.5
 62
   256
  6
BYLAYER
  0
ACDBPLACEHOLDER
  5
160
102
{ACAD_REACTORS
330
15F
102
}
330
15F
  0
TABLESTYLE
  5
1CF
102
{ACAD_REACTORS
330
1CE
102
}
330
1CE
100
AcDbTableStyle
  3
Standard
 70
     0
 71
     0
 40
0.06
 41
0.06
280
     0
281
     0
  7
STANDARD
140
0.18
170
     2
 62
     0
 63
     7
283
     0
 90
        4
 91
        0
  1

274
    -2
284
     1
 64
     0
275
    -2
285
     1
 65
     0
276
    -2
286
     1
 66
     0
277
    -2
287
     1
 67
     0
278
    -2
288
     1
 68
     0
279
    -2
289
     1
 69
     0
  7
STANDARD
140
0.25
170
     5
 62
     0
 63
     7
283
     0
 90
        4
 91
        0
  1

274
    -2
284
     1
 64
     0
275
    -2
285
     1
 65
     0
276
    -2
286
     1
 66
     0
277
    -2
287
     1
 67
     0
278
    -2
288
     1
 68
     0
279
    -2
289
     1
 69
     0
  7
STANDARD
140
0.18
170
     5
 62
     0
 63
     7
283
     0
 90
        4
 91
        0
  1

274
    -2
284
     1
 64
     0
275
    -2
285
     1
 65
     0
276
    -2
286
     1
 66
     0
277
    -2
287
     1
 67
     0
278
    -2
288
     1
 68
     0
279
    -2
289
     1
 69
     0
  0
VISUALSTYLE
  5
1B0A
102
{ACAD_REACTORS
330
1B04
102
}
330
1B04
100
AcDbVisualStyle
  2
2dWireframe
 70
     4
 71
     0
 72
     2
 73
     0
 90
        0
 40
-0.6
 41
-30.0
 62
     5
 63
     7
421
 16777215
 74
     1
 91
        4
 64
     7
 65
   257
 75
     1
175
     1
 42
1.0
 92
        0
 66
   257
 43
1.0
 76
     1
 77
     6
 78
     2
 67
     7
 79
     5
170
     0
171
     0
290
     0
174
     0
 93
        1
 44
0.0
173
     0
291
     0
 45
0.0
  0
VISUALSTYLE
  5
1B0C
102
{ACAD_REACTORS
330
1B04
102
}
330
1B04
100
AcDbVisualStyle
  2
3D Hidden
 70
     6
 71
     1
 72
     2
 73
     2
 90
        0
 40
-0.6
 41
-30.0
 62
     5
 63
     7
421
 16777215
 74
     2
 91
        2
 64
     7
 65
   257
 75
     2
175
     1
 42
40.0
 92
        0
 66
   257
 43
1.0
 76
     1
 77
     6
 78
     2
 67
     7
 79
     3
170
     0
171
     0
290
     0
174
     0
 93
        1
 44
0.0
173
     0
291
     0
 45
0.0
  0
VISUALSTYLE
  5
1B0B
102
{ACAD_REACTORS
330
1B04
102
}
330
1B04
100
AcDbVisualStyle
  2
3dWireframe
 70
     5
 71
     0
 72
     2
 73
     0
 90
        0
 40
-0.6
 41
-30.0
 62
     5
 63
     7
421
 16777215
 74
     1
 91
        4
 64
     7
 65
   257
 75
     1
175
     1
 42
1.0
 92
        0
 66
   257
 43
1.0
 76
     1
 77
     6
 78
     2
 67
     7
 79
     5
170
     0
171
     0
290
     0
174
     0
 93
        1
 44
0.0
173
     0
291
     0
 45
0.0
  0
VISUALSTYLE
  5
1B09
102
{ACAD_REACTORS
330
1B04
102
}
330
1B04
100
AcDbVisualStyle
  2
Basic
 70
     7
 71
     1
 72
     0
 73
     1
 90
        0
 40
-0.6
 41
-30.0
 62
     5
 63
     7
421
 16777215
 74
     0
 91
        4
 64
     7
 65
   257
 75
     1
175
     1
 42
1.0
 92
        8
 66
     7
 43
1.0
 76
     1
 77
     6
 78
     2
 67
     7
 79
     5
170
     0
171
     0
290
     0
174
     0
 93
        1
 44
0.0
173
     0
291
     1
 45
0.0
  0
VISUALSTYLE
  5
1B10
102
{ACAD_REACTORS
330
1B04
102
}
330
1B04
100
AcDbVisualStyle
  2
Brighten
 70
    12
 71
     2
 72
     2
 73
     0
 90
        0
 40
-0.6
 41
-30.0
 62
     5
 63
     7
421
 16777215
 74
     1
 91
        4
 64
     7
 65
   257
 75
     1
175
     1
 42
1.0
 92
        8
 66
     7
 43
1.0
 76
     1
 77
     6
 78
     2
 67
     7
 79
     5
170
     0
171
     0
290
     0
174
     0
 93
        1
 44
50.0
173
     0
291
     1
 45
0.0
  0
VISUALSTYLE
  5
1B14
102
{ACAD_REACTORS
330
1B04
102
}
330
1B04
100
AcDbVisualStyle
  2
ColorChange
 70
    16
 71
     2
 72
     2
 73
     3
 90
        0
 40
-0.6
 41
-30.0
 62
     5
 63
     8
421
  8421504
 74
     1
 91
        4
 64
     7
 65
   257
 75
     1
175
     1
 42
1.0
 92
        8
 66
     8
424
  8421504
 43
1.0
 76
     1
 77
     6
 78
     2
 67
     7
 79
     5
170
     0
171
     0
290
     0
174
     0
 93
        1
 44
0.0
173
     0
291
     1
 45
0.0
  0
VISUALSTYLE
  5
1B0D
102
{ACAD_REACTORS
330
1B04
102
}
330
1B04
100
AcDbVisualStyle
  2
Conceptual
 70
     9
 71
     3
 72
     2
 73
     0
 90
        0
 40
-0.6
 41
-30.0
 62
     5
 63
     7
421
 16777215
 74
     2
 91
        2
 64
     7
 65
   257
 75
     1
175
     1
 42
40.0
 92
        8
 66
     7
 43
1.0
 76
     1
 77
     6
 78
     2
 67
     7
 79
     3
170
     0
171
     0
290
     0
174
     0
 93
        1
 44
0.0
173
     0
291
     0
 45
0.0
  0
VISUALSTYLE
  5
1B0F
102
{ACAD_REACTORS
330
1B04
102
}
330
1B04
100
AcDbVisualStyle
  2
Dim
 70
    11
 71
     2
 72
     2
 73
     0
 90
        0
 40
-0.6
 41
-30.0
 62
     5
 63
     7
421
 16777215
 74
     1
 91
        4
 64
     7
 65
   257
 75
     1
175
     1
 42
1.0
 92
        8
 66
     7
 43
1.0
 76
     1
 77
     6
 78
     2
 67
     7
 79
     5
170
     0
171
     0
290
     0
174
     0
 93
        1
 44
-50.0
173
     0
291
     1
 45
0.0
  0
VISUALSTYLE
  5
1B13
102
{ACAD_REACTORS
330
1B04
102
}
330
1B04
100
AcDbVisualStyle
  2
Facepattern
 70
    15
 71
     2
 72
     2
 73
     0
 90
        0
 40
-0.6
 41
-30.0
 62
     5
 63
     7
421
 16777215
 74
     1
 91
        4
 64
     7
 65
   257
 75
     1
175
     1
 42
1.0
 92
        8
 66
     7
 43
1.0
 76
     1
 77
     6
 78
     2
 67
     7
 79
     5
170
     0
171
     0
290
     0
174
     0
 93
        1
 44
0.0
173
     0
291
     1
 45
0.0
  0
VISUALSTYLE
  5
1B05
102
{ACAD_REACTORS
330
1B04
102
}
330
1B04
100
AcDbVisualStyle
  2
Flat
 70
     0
 71
     2
 72
     1
 73
     1
 90
        2
 40
-0.6
 41
30.0
 62
     5
 63
     7
421
 16777215
 74
     0
 91
        4
 64
     7
 65
   257
 75
     1
175
     1
 42
1.0
 92
        8
 66
     7
 43
1.0
 76
     1
 77
     6
 78
     2
 67
     7
 79
     5
170
     0
171
     0
290
     0
174
     0
 93
       13
 44
0.0
173
     0
291
     1
 45
0.0
  0
VISUALSTYLE
  5
1B06
102
{ACAD_REACTORS
330
1B04
102
}
330
1B04
100
AcDbVisualStyle
  2
FlatWithEdges
 70
     1
 71
     2
 72
     1
 73
     1
 90
        2
 40
-0.6
 41
30.0
 62
     5
 63
     7
421
 16777215
 74
     1
 91
        4
 64
     7
 65
   257
 75
     1
175
     1
 42
1.0
 92
        0
 66
   257
 43
1.0
 76
     1
 77
     6
 78
     2
 67
     7
 79
     5
170
     0
171
     0
290
     0
174
     0
 93
       13
 44
0.0
173
     0
291
     1
 45
0.0
  0
VISUALSTYLE
  5
1B07
102
{ACAD_REACTORS
330
1B04
102
}
330
1B04
100
AcDbVisualStyle
  2
Gouraud
 70
     2
 71
     2
 72
     2
 73
     1
 90
        2
 40
-0.6
 41
30.0
 62
     5
 63
     7
421
 16777215
 74
     0
 91
        4
 64
     7
 65
   257
 75
     1
175
     1
 42
1.0
 92
        0
 66
     7
 43
1.0
 76
     1
 77
     6
 78
     2
 67
     7
 79
     5
170
     0
171
     0
290
     0
174
     0
 93
       13
 44
0.0
173
     0
291
     1
 45
0.0
  0
VISUALSTYLE
  5
1B08
102
{ACAD_REACTORS
330
1B04
102
}
330
1B04
100
AcDbVisualStyle
  2
GouraudWithEdges
 70
     3
 71
     2
 72
     2
 73
     1
 90
        2
 40
-0.6
 41
30.0
 62
     5
 63
     7
421
 16777215
 74
     1
 91
        4
 64
     7
 65
   257
 75
     1
175
     1
 42
1.0
 92
        0
 66
   257
 43
1.0
 76
     1
 77
     6
 78
     2
 67
     7
 79
     5
170
     0
171
     0
290
     0
174
     0
 93
       13
 44
0.0
173
     0
291
     1
 45
0.0
  0
VISUALSTYLE
  5
1B12
102
{ACAD_REACTORS
330
1B04
102
}
330
1B04
100
AcDbVisualStyle
  2
Linepattern
 70
    14
 71
     2
 72
     2
 73
     0
 90
        0
 40
-0.6
 41
-30.0
 62
     5
 63
     7
421
 16777215
 74
     1
 91
        4
 64
     7
 65
   257
 75
     7
175
     7
 42
1.0
 92
        8
 66
     7
 43
1.0
 76
     1
 77
     6
 78
     2
 67
     7
 79
     5
170
     0
171
     0
290
     0
174
     0
 93
        1
 44
0.0
173
     0
291
     1
 45
0.0
  0
VISUALSTYLE
  5
1B0E
102
{ACAD_REACTORS
330
1B04
102
}
330
1B04
100
AcDbVisualStyle
  2
Realistic
 70
     8
 71
     2
 72
     2
 73
     0
 90
        0
 40
-0.6
 41
-30.0
 62
     5
 63
     7
421
 16777215
 74
     1
 91
        0
 64
     7
 65
   257
 75
     1
175
     1
 42
1.0
 92
        8
 66
     8
424
  7895160
 43
1.0
 76
     1
 77
     6
 78
     2
 67
     7
 79
     5
170
     0
171
     0
290
     0
174
     0
 93
       13
 44
0.0
173
     0
291
     0
 45
0.0
  0
VISUALSTYLE
  5
1B11
102
{ACAD_REACTORS
330
1B04
102
}
330
1B04
100
AcDbVisualStyle
  2
Thicken
 70
    13
 71
     2
 72
     2
 73
     0
 90
        0
 40
-0.6
 41
-30.0
 62
     5
 63
     7
421
 16777215
 74
     1
 91
        4
 64
     7
 65
   257
 75
     1
175
     1
 42
1.0
 92
       12
 66
     7
 43
1.0
 76
     1
 77
     6
 78
     2
 67
     7
 79
     5
170
     0
171
     0
290
     0
174
     0
 93
        1
 44
0.0
173
     0
291
     1
 45
0.0
  0
DICTIONARYVAR
  5
2EF
102
{ACAD_REACTORS
330
1BB
102
}
330
1BB
100
DictionaryVariables
280
     0
  1
STANDARD
  0
DICTIONARYVAR
  5
1BC
102
{ACAD_REACTORS
330
1BB
102
}
330
1BB
100
DictionaryVariables
280
     0
  1
1
  0
XRECORD
  5
1D8B
102
{ACAD_REACTORS
330
1D8A
102
}
330
1D8A
100
AcDbXrecord
280
     1
  0
DICTIONARY
  5
1B32
330
164
100
AcDbDictionary
280
     1
281
     1
  3
ADSK_XREC_LAYOUTTHUMBNAIL
360
1B33
  0
XRECORD
  5
1B33
102
{ACAD_REACTORS
330
1B32
102
}
330
1B32
100
AcDbXrecord
280
     1
310
280000006B0000008C0000000100080000000000103B000000000000000000000001000000000000FFFFFF0000000000FFFFFF000000000000000000000000000000000000000000000000000000000000000000330000006600000099000000CC000000FF00000000330000333300006633000099330000CC330000FF3300
310
0000660000336600006666000099660000CC660000FF66000000990000339900006699000099990000CC990000FF99000000CC000033CC000066CC000099CC0000CCCC0000FFCC000000FF000033FF000066FF000099FF0000CCFF0000FFFF000000003300330033006600330099003300CC003300FF003300003333003333
310
33006633330099333300CC333300FF33330000663300336633006666330099663300CC663300FF66330000993300339933006699330099993300CC993300FF99330000CC330033CC330066CC330099CC3300CCCC3300FFCC330000FF330033FF330066FF330099FF3300CCFF3300FFFF330000006600330066006600660099
310
006600CC006600FF00660000336600333366006633660099336600CC336600FF33660000666600336666006666660099666600CC666600FF66660000996600339966006699660099996600CC996600FF99660000CC660033CC660066CC660099CC6600CCCC6600FFCC660000FF660033FF660066FF660099FF6600CCFF6600
310
FFFF660000009900330099006600990099009900CC009900FF00990000339900333399006633990099339900CC339900FF33990000669900336699006666990099669900CC669900FF66990000999900339999006699990099999900CC999900FF99990000CC990033CC990066CC990099CC9900CCCC9900FFCC990000FF99
310
0033FF990066FF990099FF9900CCFF9900FFFF99000000CC003300CC006600CC009900CC00CC00CC00FF00CC000033CC003333CC006633CC009933CC00CC33CC00FF33CC000066CC003366CC006666CC009966CC00CC66CC00FF66CC000099CC003399CC006699CC009999CC00CC99CC00FF99CC0000CCCC0033CCCC0066CC
310
CC0099CCCC00CCCCCC00FFCCCC0000FFCC0033FFCC0066FFCC0099FFCC00CCFFCC00FFFFCC000000FF003300FF006600FF009900FF00CC00FF00FF00FF000033FF003333FF006633FF009933FF00CC33FF00FF33FF000066FF003366FF006666FF009966FF00CC66FF00FF66FF000099FF003399FF006699FF009999FF00CC
310
99FF00FF99FF0000CCFF0033CCFF0066CCFF0099CCFF00CCCCFF00FFCCFF0000FFFF0033FFFF0066FFFF0099FFFF00CCFFFF00FFFFFF00000000000D0D0D001A1A1A00282828003535350043434300505050005D5D5D006B6B6B00787878008686860093939300A1A1A100AEAEAE00BBBBBB00C9C9C900D6D6D600E4E4E400
310
F1F1F100FFFFFF0000000000000000000000000000000000000000000000000000000000000000000000000000000000E2E2E2E2E2E2E2E2E2E2E2E2E2E2E2E2E2E2E2E2E2E2E2E2E2E2E2E2E2E2E2E2E2E2E2E2E2E2E2E2E2E2E2E2E2E2E2E2E2E2E2E2E2E2E2E2E2E2E2E2E2E2E2E2E2E2E2E2E2E2E2E2E2E2E2E2E2E2E2
310
E2E2E2E2E2E2E2E2E2E2E2E2E2E2E2E2E2E2E2E2E2E2E2E2E2E2E2E200E2F5F5F5F5F5F5F5F5F5F5F5F5F5F5F5F5F5F5F5F5F5F5F5F5F5F5F5F5F5F5F5F5F5F5F5F5F5F5F5F5F5F5F5F5F5F5F5F5F5F5F5F5F5F5F5F5F5F5F5F5F5F5F5F5F5F5F5F5F5F5F5F5F5F5F5F5F5F5F5F5F5F5F5F5F5F5F5F5F5F5F5F5F5F5F5F5F5
310
F5F5F5F5F5F5F5F5E200E2F5F5F5F5F5F5F5F5F5F5F5F5F5F5F5F5F5F5F5F5F5F5F5F5F5F5F5F5F5F5F5F5F5F5F5F5F5F5F5F5F5F5F5F5F5F5F5F5F5F5F5F5F5F5F5F5F5F5F5F5F5F5F5F5F5F5F5F5F5F5F5F5F5F5F5F5F5F5F5F5F5F5F5F5F5F5F5F5F5F5F5F5F5F5F5F5F5F5F5F5F5F5F5F5F5E233E2F5F5F5F5F5F5F5F5
310
F5F5F5F5F5F5F5F5F5F5F5F5F5F5F5F5F5F5F5F5F5F5F5F5F5F5F5F5F5F5F5F5F5F5F5F5F5F5F5F5F5F5F5F5F5F5F5F5F5F5F5F5F5F5F5F5F5F5F5F5F5F5F5F5F5F5F5F5F5F5F5F5F5F5F5F5F5F5F5F5F5F5F5F5F5F5F5F5F5F5F5F5F5F5F5F5F5E20BE2F5F5BEBEBEBEBEBEBEBEBEBEBEBEBEBEBEBEBEBEBEBEBEBEBEBEBE
310
BEBEBEBEBEBEBEBEBEBEBEBEBEBEBEBEBEBEBEBEBEBEBEBEBEBEBEBEBEBEBEBEBEBEBEBEBEBEBEBEBEBEBEBEBEBEBEBEBEBEBEBEBEBEBEBEBEBEBEBEBEBEBEBEBEBEBEBEBEBEBEBEBEBEBEBEF5F5E200E2F5F5BEF5F5F5F5F5F5F5F5F5F5F5F5F5F5F5F5F5F5F5F5F5F5F5F5F5F5F5F5F5F5F5F5F5F5F5F5F5F5F5F5F5F5F5
310
F5F5F5F5F5F5F5F5F5F5F5F5F5F5F5F5F5F5F5F5F5F5F5F5F5F5F5F5F5F5F5F5F5F5F5F5F5F5F5F5F5F5F5F5F5F5F5F5F5F5F5F5F5F5F5F5BEF5F5E200E2F5F5BEE2E2E2E2E2E2E2E2E2E2E2E2E2E2E2E2E2E2E2E2E2E2E2E2E2E2E2E2E2E2E2E2E2E2E2E2E2E2E2E2E2E2E2E2E2E2E2E2E2E2E2E2E2E2E2E2E2E2E2E2E2E2
310
E2E2E2E2E2E2E2E2E2E2E2E2E2E2E2E2E2E2E2E2E2E2E2E2E2E2E2E2E2E2E2E2E2E2E2E2E2BEF5F5E233E2F5F5BEE2F5F5F5F5F5F5F5F5F5F5F5F5F5F5F5F5F5F5F5F5F5F5F5F5F5F5F5F5F5F5F5F5F5F5F5F5F5F5F5F5F5F5F5F5F5F5F5F5F5F5F5F5F5F5F5F5F5F5F5F5F5F5F5F5F5F5F5F5F5F5F5F5F5F5F5F5F5F5F5F5
310
F5F5F5F5F5F5F5F5F5F5F5F5F5F5F5F5F5E2BEF5F5E200E2F5F5BEE2F5F5F5F5F5F5F5F5F5F5F5F5F5F5F5F5F5F5F5F5F5F5F5F5F5F5F5F5F5F5F5F5F5F5F5F5F5F5F5F5F5F5F5F5F5F5F5F5F5F5F5F5F5F5F5F5F5F5F5F5F5F5F5F5F5F5F5F5F5F5F5F5F5F5F5F5F5F5F5F5F5F5F5F5F5F5F5F5F5F5F5F5F5F5F5F5F5E2BE
310
F5F5E27EE2F5F5BEE2F5E2E2E2E2E2E2E2E2E2E2E2E2E2E2E2E2E2E2E2E2E2E2E2E2E2E2E2E2E2E2E2E2E2E2E2E2E2E2E2E2E2E2E2E2E2E2E2E2E2E2E2E2E2E2E2E2E2E2E2E2E2E2E2E2E2E2E2E2E2E2E2E2E2E2E2E2E2E2E2E2E2E2E2E2E2E2E2E2E2E2E2E2E2E2E2F5E2BEF5F5E233E2F5F5BEE2F5E2F5F5F5F5F5F5F5F5
310
F5F5F5F5F5F5F5F5F5F5F5F5F5F5F5E2F5F5F5F5F5F5F5F5F5F5F5F5F5F5F5F5F5F5F5F5F5F5F5F5F5F5F5F5F5F5F5F5F5F5E2F5F5F5F5F5F5E2E2E2E2E2F5F5F5F5F5F5F5F5F5F5F5E2F5F5F5F5F5F5F5F5F5F5F5E2F5E2BEF5F5E27EE2F5F5BEE2F5E2F5F5F5F5F5F5F5F5F5F5F5F5F5F5F5F5F5F5F5F5F5F5F5E2F5F5F5
310
F5F5F5F5F5F5F5F5F5F5F5F5F5F5F5F5F5F5F5F5F5F5F5F5F5F5F5F5F5F5F5E2E2E2E2E2E2F5E2E2E2E2E2F5F5F5F5F5F5F5F5F5F5F5E2E2E2E2F5F5F5F5F5F5F5F5E2F5E2BEF5F5E200E2F5F5BEE2F5E2F5F5F5F5F5F5F5F5F5F5F5F5F5F5F5F5F5F5F5F5F5F5F5E2F5F5F5F5F5F5F5F5F5F5F5F5F5F5F5F5F5F5F5F5F5F5
310
F5F5F5F5F5F5F5F5F5F5F5F5E2E2E2E2E2E2F5E2E2E2E2E2F5F5F5F5F5F5F5F5F5F5F5E2E2E2E2F5F5F5F5F5F5F5F5E2F5E2BEF5F5E200E2F5F5BEE2F5E2E2E2E2E2E2E2E2E2E2E2E2E2E2E2E2E2E2E2E2E2E2E2E2E2E2E2E2E2E2E2E2E2E2E2E2E2E2E2E2E2E2E2E2E2E2F5F5F5F5F5F5F5F5F5F5F5F5F5E2E2E2E2E2E2E2
310
E2E2E2E2E2E2E2E2E2E2E2E2E2E2E2E2E2E2E2E2E2E2E2E2E2E2E2E2E2F5E2BEF5F5E200E2F5F5BEE2F5E2F5E2E2E2E2E2E2E2E2E2E2E2E2E2E2E2E2E2E2E2E2E2F5E2E2E2E2E2E2E2E2E2E2E2E2E2E2E2E2E2E2E2E2E2E2E2E2E2E2E2E2E2E2E2E2E2E2E2E2F5F5F5F5F5F5E2E2E2E2F5E2E2E2E2E2E2E2E2F5F5F5F5F5F5
310
F5F5F5F5F5F5F5F5F5E2F5E2BEF5F5E200E2F5F5BEE2F5E2F5F5F5F5F5F5F5F5F5F5F5F5F5F5F5F5F5F5F5F5F5F5F5E2E2E2E2E2E2E2E2E2E2E2E2E2E2E2E2E2E2E2E2E2E2E2E2E2E2E2E2E2E2E2E2E2E2F5E2F5F5F5F5F5F5E2E2E2E2F5E2E2E2E2E2E2E2E2F5F5F5F5F5F5F5F5F5F5F5F5F5F5F5E2F5E2BEF5F5E200E2F5
310
F5BEE2F5E2F5F5F5F5F5F5F5F5F5F5F5F5F5F5F5F5F5F5F5F5F5F5F5E2E2E2E2E2E2E2E2E2E2E2E2E2E2E2E2E2E2E2E2E2E2E2E2E2E2E2E2E2E2E2E2E2E2E2E2F5F5F5F5F5F5E2E2E2E2E2E2E2E2E2E2E2E2E2F5F5F5F5F5F5F5F5F5F5F5F5F5F5F5E2F5E2BEF5F5E200E2F5F5BEE2F5E2F5F5F5F5F5F5F5F5F5F5F5F5F5F5
310
F5F5F5F5F5F5F5F5F5E2E2E2E2E2E2E2E2E2E2E2E2E2E2E2E2E2E2E2E2E2E2E2E2E2E2E2E2E2E2E2E2E2E2E2E2F5F5F5F5F5F5F5F5F5F5F5F5F5F5F5F5F5F5F5F5F5F5F5F5F5F5F5F5F5F5F5F5F5F5E2F5E2BEF5F5E200E2F5F5BEE2F5E2F5F5F5F5F5F5F5F5F5F5F5F5F5F5F5F5F5F5F5F5F5F5F5E2E2E2E2E2E2E2E2E2E2
310
E2E2E2E2E2E2E2E2E2E2E2E2E2E2E2E2E2E2E2E2E2E2E2F5F5E2F5F5F5F5F5F5F5F5F5F5F5F5F5F5F5F5F5F5F5F5F5F5F5F5F5F5F5F5F5F5F5F5F5F5E2F5E2BEF5F5E200E2F5F5BEE2F5E2E2E2E2E2E2E2E2E2F5F5F5F5F5F5F5F5F5F5F5F5F5F5F5E2E2E2E2E2E2E2E2E2E2E2E2E2E2E2E2E2E2E2E2E2E2E2E2E2E2E2E2E2
310
E2E2E2E2E2E2E2F5F5F5F5F5F5F5F5F5F5F5F5F5F5F5F5F5F5F5F5F5F5F5F5F5F5F5F5F5F5F5F5F5F5E2F5E2BEF5F5E200E2F5F5BEE2F5E2E2E2E2E2E2E2E2E2F5F5F5F5F5F5F5F5F5F5F5F5F5F5F5E2E2E2F5E2E2E2E2E2F5F5E2F5F5F5F5F5F5F5F5F5F5F5E2F5F5F5F5F5F5F5F5F5F5F5E2F5F5F5F5F5F5F5F5F5F5F5F5
310
F5F5F5F5F5F5F5F5F5F5F5F5F5F5F5F5F5F5F5F5F5F5E2F5E2BEF5F5E200E2F5F5BEE2F5E2F5E2E2E2E2E2E2E2E2E2E2E2E2E2E2E2E2E2E2E2E2E2F5E2E2E2F5E2F5E2E2E2F5F5E2F5F5F5F5F5F5F5F5F5F5F5E2F5F5F5F5F5F5F5F5F5F5F5E2E2E2E2F5F5F5F5F5F5F5F5F5F5F5F5F5F5F5F5F5F5F5F5F5F5F5F5F5F5F5F5
310
F5F5F5E2F5E2BEF5F5E2E2E2F5F5BEE2F5E2F5F5F5F5F5F5F5F5F5F5F5F5F5F5F5F5F5F5F5F5F5F5F5E2E2E2E2E2E2E2E2E2E2E2E2F5F5F5F5F5F5F5F5F5F5F5E2F5F5F5F5F5F5F5F5F5F5F5E2E2E2E2F5F5F5F5F5F5F5F5F5F5F5F5F5F5F5F5F5F5F5F5F5F5F5F5F5F5F5F5F5F5F5E2F5E2BEF5F5E242E2F5F5BEE2F5E2F5
310
F5F5F5F5F5F5F5F5F5F5F5F5F5F5F5F5F5F5F5F5F5F5E2E2E2F5E2E2F5F5F5F5F5E2F5F5F5F5F5F5F5F5F5F5F5E2F5F5F5F5F5F5F5F5F5F5F5E2E2E2E2E2E2E2E2E2E2E2E2E2E2E2E2E2E2E2E2E2E2E2E2E2E2E2E2E2E2E2E2E2E2E2E2F5E2BEF5F5E200E2F5F5BEE2F5E2F5F5F5F5F5F5F5F5F5F5F5F5F5F5F5F5F5F5F5F5
310
F5F5F5E2E2E2F5E2F5F5F5F5F5F5E2F5E2E2E2E2E2E2E2E2E2F5E2E2E2E2E2E2E2E2E2E2E2E2E2E2E2E2E2E2E2E2E2F5E2E2E2E2E2E2F5F5F5F5F5F5F5F5E2F5F5F5F5F5F5F5F5F5F5E2F5E2BEF5F5E2CDE2F5F5BEE2F5E2E2E2E2E2E2E2E2E2E2E2E2F5F5F5F5F5F5F5F5F5F5F5F5E2E2E2E2E2E2E2E2E2E2E2E2F5E2E2E2
310
E2E2E2E2E2E2F5E2E2E2E2E2E2E2E2E2E2E2E2E2E2E2E2E2E2E2E2E2E2E2E2E2E2E2E2F5E2E2E2E2E2E2E2E2E2E2E2E2E2E2E2E2F5F5E2F5E2BEF5F5E200E2F5F5BEE2F5E2E2E2E2E2E2E2E2E2E2E2E2F5F5F5F5F5F5F5F5F5F5F5F5E2E2E2F5E2E2F5F5F5F5F5E2E2E2E2E2F5F5F5F5F5F5F5E2E2E2E2F5F5F5F5F5F5F5F5
310
E2E2E2E2E2E2E2E2E2F5E2E2E2E2F5E2F5E2E2E2E2E2E2E2E2E2E2E2E2E2E2E2E2F5F5E2F5E2BEF5F5E2CDE2F5F5BEE2F5E2E2E2E2E2E2E2E2E2E2E2E2E2E2E2E2E2E2E2E2E2E2E2E2E2E2E2E2E2E2E2E2E2E2E2E2E2E2E2E2E2E2E2E2E2E2E2E2E2E2E2E2E2E2E2E2E2E2E2E2E2E2E2E2E2E2E2E2E2E2E2E2E2E2E2E2E2E2
310
E2E2E2E2E2E2E2E2E2E2E2E2E2E2E2E2E2F5E2BEF5F5E200E2F5F5BEE2F5E2F5F5F5F5F5F5F5F5F5F5F5F5F5F5F5F5F5F5F5F5F5F5F5F5F5F5F5F5F5F5F5F5F5F5F5F5F5F5F5F5F5F5F5F5F5F5F5F5F5F5F5F5F5F5F5F5F5F5F5F5F5F5F5F5F5F5F5F5F5F5F5F5F5F5F5F5F5F5F5F5F5F5F5F5F5F5F5F5F5F5F5F5F5E2F5E2
310
BEF5F5E2CDE2F5F5BEE2F5E2F5F5F5F5F5F5F5F5F5F5F5F5F5F5F5F5F5F5F5F5F5F5F5F5F5F5F5F5F5F5F5F5F5F5F5F5F5F5F5F5F5F5F5F5F5F5F5F5F5F5F5F5F5F5F5F5F5F5F5F5F5F5F5F5F5F5F5F5F5F5F5F5F5F5F5F5F5F5F5F5F5F5F5F5F5F5F5F5F5F5F5F5F5E2F5E2BEF5F5E200E2F5F5BEE2F5E2F5F5F5F5F5F5F5
310
F5F5F5F5F5F5F5F5F5F5F5F5F5F5F5F5F5F5F5F5F5F5F5F5F5F5F5F5F5F5F5F5F5F5F5F5F5F5F5F5F5F5F5F5F5F5F5F5F5F5F5F5F5F5F5F5F5F5F5F5F5F5F5F5F5F5F5F5F5F5F5F5F5F5F5F5F5F5F5F5F5F5F5F5F5F5E2F5E2BEF5F5E2CDE2F5F5BEE2F5E2F5F5F5F5F5F5F5F5F5F5F5F5F5F5F5F5F5F5F5F5F5F5F5F5F5F5
310
F5F5F5F5F5F5F5F5F5F5F5F5F5F5F5F5F5F5F5F5F5F5F5F5F5F5F5F5F5F5F5F5F5F5F5F5F5F5F5F5F5F5F5F5F5F5F5F5F5F5F5F5F5F5F5F5F5F5F5F5F5F5F5F5F5F5F5E2F5E2BEF5F5E200E2F5F5BEE2F5E2F5F5F5F5F5F5F5F5F5F5F5F5F5F5F5F5F5F5F5F5F5F5F5F5F5F5F5F5F5F5F5F5F5F5F5F5F5F5F5F5F5F5F5F5F5
310
F5F5F5F5F5F5F5F5F5F5F5F5F5F5F5F5F5F5F5F5F5F5F5F5F5F5F5F5F5F5F5F5F5F5F5F5F5F5F5F5F5F5F5F5F5F5F5F5E2F5E2BEF5F5E2CDE2F5F5BEE2F5E2F5F5F5F5F5F5F5F5F5F5F5F5F5F5F5F5F5F5F5F5F5F5F5F5F5F5F5F5F5F5F5F5F5F5F5F5F5F5F5F5F5F5F5F5F5F5F5F5F5F5F5F5F5F5F5F5F5F5F5F5F5F5F5F5
310
F5F5F5F5F5F5F5F5F5F5F5F5F5F5F5F5F5F5F5F5F5F5F5F5F5F5F5F5F5E2F5E2BEF5F5E200E2F5F5BEE2F5E2F5F5F5F5F5F5F5F5F5F5F5F5F5F5F5F5F5F5F5F5F5F5F5F5F5F5F5F5F5F5F5F5F5F5F5F5F5F5F5F5F5F5F5F5F5F5F5F5F5F5F5F5F5F5F5F5F5F5F5F5F5F5F5F5F5F5F5F5F5F5F5F5F5F5F5F5F5F5F5F5F5F5F5
310
F5F5F5F5F5F5F5F5F5F5E2F5E2BEF5F5E2CDE2F5F5BEE2F5E2F5F5F5F5F5F5F5F5F5F5F5F5F5F5F5F5F5F5F5F5F5F5F5F5F5F5F5F5F5F5F5F5F5F5F5F5F5F5F5F5F5F5F5F5F5F5F5F5F5F5F5F5F5F5F5F5F5F5F5F5F5F5F5F5F5F5F5F5F5F5F5F5F5F5F5F5F5F5F5F5F5F5F5F5F5F5F5F5F5F5F5F5F5E2F5E2BEF5F5E200E2
310
F5F5BEE2F5E2F5F5F5F5F5F5F5F5F5F5F5F5F5F5F5F5F5F5F5F5F5F5F5F5F5F5F5F5F5F5F5F5F5F5F5F5F5F5F5F5F5F5F5F5F5F5F5F5F5F5F5F5F5F5F5F5F5F5F5F5F5F5F5F5F5F5F5F5F5F5F5F5F5F5F5F5F5F5F5F5F5F5F5F5F5F5F5F5F5F5F5F5F5E2F5E2BEF5F5E2CDE2F5F5BEE2F5E2F5F5F5F5F5F5F5F5F5F5F5F5F5
310
F5F5F5F5F5F5F5F5F5F5F5F5F5F5F5F5F5F5F5F5F5F5F5F5F5F5F5F5F5F5F5F5F5F5F5F5F5F5F5F5F5F5F5F5F5F5F5F5F5F5F5F5F5F5F5F5F5F5F5F5F5F5F5F5F5F5F5F5F5F5F5F5F5F5F5F5F5F5F5F5E2F5E2BEF5F5E200E2F5F5BEE2F5E2F5F5F5F5F5F5F5F5F5F5F5F5F5F5F5F5F5F5F5F5F5F5F5F5F5F5F5F5F5F5F5F5
310
F5F5F5F5F5F5F5F5F5F5F5F5F5F5F5F5F5F5F5F5F5F5F5F5F5F5F5F5F5F5F5F5F5F5F5F5F5F5F5F5F5F5F5F5F5F5F5F5F5F5F5F5F5F5F5F5F5F5F5F5F5E2F5E2BEF5F5E2CDE2F5F5BEE2F5E2F5F5F5F5F5F5F5F5F5F5F5F5F5F5F5F5F5F5F5F5F5F5F5F5F5F5F5F5F5F5F5F5F5F5F5F5F5F5F5F5F5F5F5F5F5F5F5F5F5F5F5
310
F5F5F5F5F5F5F5F5F5F5F5F5F5F5F5F5F5F5F5F5F5F5F5F5F5F5F5F5F5F5F5F5F5F5F5F5F5F5F5F5F5F5E2F5E2BEF5F5E200E2F5F5BEE2F5E2F5F5F5F5F5F5F5F5F5F5F5F5F5F5F5F5F5F5F5F5F5F5F5F5F5F5F5F5F5F5F5F5F5F5F5F5F5F5F5F5F5F5F5F5F5F5F5F5F5F5F5F5F5F5F5F5F5F5F5F5F5F5F5F5F5F5F5F5F5F5
310
F5F5F5F5F5F5F5F5F5F5F5F5F5F5F5F5F5F5F5F5F5F5F5E2F5E2BEF5F5E2CDE2F5F5BEE2F5E2F5F5F5F5F5F5F5F5F5F5F5F5F5F5F5F5F5F5F5F5F5F5F5F5F5F5F5F5F5F5F5F5F5F5F5F5F5F5F5F5F5F5F5F5F5F5F5F5F5F5F5F5F5F5F5F5F5F5F5F5F5F5F5F5F5F5F5F5F5F5F5F5F5F5F5F5F5F5F5F5F5F5F5F5F5F5F5F5F5
310
F5F5F5F5E2F5E2BEF5F5E200E2F5F5BEE2F5E2F5F5F5F5F5F5F5F5F5F5F5F5F5F5F5F5F5F5F5F5F5F5F5F5F5F5F5F5F5F5F5F5F5F5F5F5F5F5F5F5F5F5F5F5F5F5F5F5F5F5F5F5F5F5F5F5F5F5F5F5F5F5F5F5F5F5F5F5F5F5F5F5F5F5F5F5F5F5F5F5F5F5F5F5F5F5F5F5F5F5F5F5F5E2F5E2BEF5F5E2CDE2F5F5BEE2F5E2
310
F5F5F5F5F5F5F5F5F5F5F5F5F5F5F5F5F5F5F5F5F5F5F5F5F5F5F5F5F5F5F5F5F5F5F5F5F5F5F5F5F5F5F5F5F5F5F5F5F5F5F5F5F5F5F5F5F5F5F5F5F5F5F5F5F5F5F5F5F5F5F5F5F5F5F5F5F5F5F5F5F5F5F5F5F5F5F5F5F5F5F5F5F5E2F5E2BEF5F5E200E2F5F5BEE2F5E2F5F5F5F5F5F5F5F5F5F5F5F5F5F5F5F5F5F5F5
310
F5F5F5F5F5F5F5F5F5F5F5F5F5F5F5F5F5F5F5F5F5F5F5F5F5F5F5F5F5F5F5F5F5F5F5F5F5F5F5F5F5F5F5F5F5F5F5F5F5F5F5F5F5F5F5F5F5F5F5F5F5F5F5F5F5F5F5F5F5F5F5F5F5F5E2F5E2BEF5F5E2CDE2F5F5BEE2F5E2F5F5F5F5F5F5F5F5F5F5F5F5F5F5F5F5F5F5F5F5F5F5F5F5F5F5F5F5F5F5F5F5F5F5F5F5F5F5
310
F5F5F5F5F5F5F5F5F5F5F5F5F5F5F5F5F5F5F5F5F5F5F5F5F5F5F5F5F5F5F5F5F5F5F5F5F5F5F5F5F5F5F5F5F5F5F5F5F5F5F5F5F5F5F5E2F5E2BEF5F5E200E2F5F5BEE2F5E2F5F5F5F5F5F5F5F5F5F5F5F5F5F5F5F5F5F5F5F5F5F5F5F5F5F5F5F5F5F5F5F5F5F5F5F5F5F5F5F5F5F5F5F5F5F5F5F5F5F5F5F5F5F5F5F5F5
310
F5F5F5F5F5F5F5F5F5F5F5F5F5F5F5F5F5F5F5F5F5F5F5F5F5F5F5F5F5F5F5F5F5F5F5F5E2F5E2BEF5F5E2CDE2F5F5BEE2F5E2F5F5F5F5F5F5F5F5F5F5F5F5F5F5F5F5F5F5F5F5F5F5F5F5F5F5F5F5F5F5F5F5F5F5F5F5F5F5F5F5F5F5F5F5F5F5F5F5F5F5F5F5F5F5F5F5F5F5F5F5F5F5F5F5F5F5F5F5F5F5F5F5F5F5F5F5
310
F5F5F5F5F5F5F5F5F5F5F5F5F5F5F5F5F5E2F5E2BEF5F5E200E2F5F5BEE2F5E2F5F5F5F5F5F5F5F5F5F5F5F5F5F5F5F5F5F5F5F5F5F5F5F5F5F5F5F5F5F5F5F5F5F5F5F5F5F5F5F5F5F5F5F5F5F5F5F5F5F5F5F5F5F5F5F5F5F5F5F5F5F5F5F5F5F5F5F5F5F5F5F5F5F5F5F5F5F5F5F5F5F5F5F5F5F5F5F5F5F5F5F5F5E2F5
310
E2BEF5F5E2CDE2F5F5BEE2F5E2F5F5F5F5F5F5F5F5F5F5F5F5F5F5F5F5F5F5F5F5F5F5F5F5F5F5F5F5F5F5F5F5F5F5F5F5F5F5F5F5F5F5F5F5F5F5F5F5F5F5F5F5F5F5F5F5F5F5F5F5F5F5F5F5F5F5F5F5F5F5F5F5F5F5F5F5F5F5F5F5F5F5F5F5F5F5F5F5F5F5F5F5F5E2F5E2BEF5F5E200E2F5F5BEE2F5E2F5F5F5F5F5F5
310
F5F5F5F5F5F5F5F5F5F5F5F5F5F5F5F5F5F5F5F5F5F5F5F5F5F5F5F5F5F5F5F5F5F5F5F5F5F5F5F5F5F5F5F5F5F5F5F5F5F5F5F5F5F5F5F5F5F5F5F5F5F5F5F5F5F5F5F5F5F5F5F5F5F5F5F5F5F5F5F5F5F5F5F5F5F5F5E2F5E2BEF5F5E2CDE2F5F5BEE2F5E2F5F5F5F5F5F5F5F5F5F5F5F5F5F5F5F5F5F5F5F5F5F5F5F5F5
310
F5F5F5F5F5F5F5F5F5F5F5F5F5F5F5F5F5F5F5F5F5F5F5F5F5F5F5F5F5F5F5F5F5F5F5F5F5F5F5F5F5F5F5F5F5F5F5F5F5F5F5F5F5F5F5F5F5F5F5F5F5F5F5F5F5F5F5F5E2F5E2BEF5F5E200E2F5F5BEE2F5E2F5F5F5F5F5F5F5F5F5F5F5F5F5F5F5F5F5F5F5F5F5F5F5F5F5F5F5F5F5F5F5F5F5F5F5F5F5F5F5F5F5F5F5F5
310
F5F5F5F5F5F5F5F5F5F5F5F5F5F5F5F5F5F5F5F5F5F5F5F5F5F5F5F5F5F5F5F5F5F5F5F5F5F5F5F5F5F5F5F5F5F5F5F5F5E2F5E2BEF5F5E2CDE2F5F5BEE2F5E2F5F5F5F5F5F5F5F5F5F5F5F5F5F5F5F5F5F5F5F5F5F5F5F5F5F5F5F5F5F5F5F5F5F5F5F5F5F5F5F5F5F5F5F5F5F5F5F5F5F5F5F5F5F5F5F5F5F5F5F5F5F5F5
310
F5F5F5F5F5F5F5F5F5F5F5F5F5F5F5F5F5F5F5F5F5F5F5F5F5F5F5F5F5F5E2F5E2BEF5F5E200E2F5F5BEE2F5E2F5F5F5F5F5F5F5F5F5F5F5F5F5F5F5F5F5F5F5F5F5F5F5F5F5F5F5F5F5F5F5F5F5F5F5F5F5F5F5F5F5F5F5F5F5F5F5F5F5F5F5F5F5F5F5F5F5F5F5F5F5F5F5F5F5F5F5F5F5F5F5F5F5F5F5F5F5F5F5F5F5F5
310
F5F5F5F5F5F5F5F5F5F5F5E2F5E2BEF5F5E2CDE2F5F5BEE2F5E2F5F5F5F5F5F5F5F5F5F5F5F5F5F5F5F5F5F5F5F5F5F5F5F5F5F5F5F5F5F5F5F5F5F5F5F5F5F5F5F5F5F5F5F5F5F5F5F5F5F5F5F5F5F5F5F5F5F5F5F5F5F5F5F5F5F5F5F5F5F5F5F5F5F5F5F5F5F5F5F5F5F5F5F5F5F5F5F5F5F5F5F5F5E2F5E2BEF5F5E200
310
E2F5F5BEE2F5E2F5F5F5F5F5F5F5F5F5F5F5F5F5F5F5F5F5F5F5F5F5F5F5F5F5F5F5F5F5F5F5F5F5F5F5F5F5F5F5F5F5F5F5F5F5F5F5F5F5F5F5F5F5F5F5F5F5F5F5F5F5F5F5F5F5F5F5F5F5F5F5F5F5F5F5F5F5F5F5F5F5F5F5F5F5F5F5F5F5F5F5F5F5E2F5E2BEF5F5E2CDE2F5F5BEE2F5E2F5F5F5F5F5F5F5F5F5F5F5F5
310
F5F5F5F5F5F5F5F5F5F5F5F5F5F5F5F5F5F5F5F5F5F5F5F5F5F5F5F5F5F5F5F5F5F5F5F5F5F5F5F5F5F5F5F5F5F5F5F5F5F5F5F5F5F5F5F5F5F5F5F5F5F5F5F5F5F5F5F5F5F5F5F5F5F5F5F5F5F5F5F5F5E2F5E2BEF5F5E200E2F5F5BEE2F5E2F5F5F5F5F5F5F5F5F5F5F5F5F5F5F5F5F5F5F5F5F5F5F5F5F5F5F5F5F5F5F5
310
F5F5F5F5F5F5F5F5F5F5F5F5F5F5F5F5F5F5F5F5F5F5F5F5F5F5F5F5F5F5F5F5F5F5F5F5F5F5F5F5F5F5F5F5F5F5F5F5F5F5F5F5F5F5F5F5F5F5F5F5F5F5E2F5E2BEF5F5E2CDE2F5F5BEE2F5E2F5F5F5F5F5F5F5F5F5F5F5F5F5F5F5F5F5F5F5F5F5F5F5F5F5F5F5F5F5F5F5F5F5F5F5F5F5F5F5F5F5F5F5F5F5F5F5F5F5F5
310
F5F5F5F5F5F5F5F5F5F5F5F5F5F5F5F5F5F5F5F5F5F5F5F5F5F5F5F5F5F5F5F5F5F5F5F5F5F5F5F5F5F5F5E2F5E2BEF5F5E200E2F5F5BEE2F5E2F5F5F5F5F5F5F5F5F5F5F5F5F5F5F5F5F5F5F5F5F5F5F5F5F5F5F5F5F5F5F5F5F5F5F5F5F5F5F5F5F5F5F5F5F5F5F5F5F5F5F5F5F5F5F5F5F5F5F5F5F5F5F5F5F5F5F5F5F5
310
F5F5F5F5F5F5F5F5F5F5F5F5F5F5F5F5F5F5F5F5F5F5F5F5E2F5E2BEF5F5E2FFE2F5F5BEE2F5E2F5F5F5F5F5F5F5F5F5F5F5F5F5F5F5F5F5F5F5F5F5F5F5F5F5F5F5F5F5F5F5F5F5F5F5F5F5F5F5F5F5F5F5F5F5F5F5F5F5F5F5F5F5F5F5F5F5F5F5F5F5F5F5F5F5F5F5F5F5F5F5F5F5F5F5F5F5F5F5F5F5F5F5F5F5F5F5F5
310
F5F5F5F5F5E2F5E2BEF5F5E200E2F5F5BEE2F5E2F5F5F5F5F5F5F5F5F5F5F5F5F5F5F5F5F5F5F5F5F5F5F5F5F5F5F5F5F5F5F5F5F5F5F5F5F5BEF5F5F5F5BEBEBEBEBEBEBEBEF5F5F5F5BEF5F5F5F5F5F5F5F5F5F5F5F5F5F5F5F5F5F5F5F5F5F5F5F5F5F5F5F5F5F5F5F5F5F5F5F5F5F5E2F5E2BEF5F5E2FFE2F5F5BEE2F5
310
E2F5F5F5F5F5F5F5F5F5F5F5F5F5F5F5F5F5F5F5F5F5F5F5F5F5F5F5F5F5F5F5F5F5F5F5F5F5BEBEBEBEBEBEBEBEBEBEBEBEBEBEBEBEBEBEF5F5F5F5F5F5F5F5F5F5F5F5F5F5F5F5F5F5F5F5F5F5F5F5F5F5F5F5F5F5F5F5F5F5F5F5F5F5E2F5E2BEF5F5E200E2F5F5BEE2F5E2F5F5F5F5F5F5F5F5F5F5F5F5F5F5F5F5F5F5
310
F5F5F5F5F5F5F5F5F5F5F5F5F5F5F5F5F5F5F5BEF5F5F5F5F5F5F5F5F5F5F5F5F5F5F5F5BEF5F5F5F5F5F5F5F5F5F5F5F5F5F5F5F5F5F5F5F5F5F5F5F5F5F5F5F5F5F5F5F5F5F5F5F5F5F5E2F5E2BEF5F5E2FFE2F5F5BEE2F5E2F5F5F5F5F5F5F5F5F5F5F5F5F5F5F5F5F5F5F5F5F5F5F5F5F5F5F5F5F5F5F5F5F5F5F5F5F5
310
BEF5F5F5F5F5BEF5F5F5F5BEF5F5F5F5F5BEF5F5F5F5F5F5F5F5F5F5F5F5F5F5F5F5F5F5F5F5F5F5F5F5F5F5F5F5F5F5F5F5F5F5F5F5F5F5E2F5E2BEF5F5E200E2F5F5BEE2F5E2F5F5F5F5F5F5F5F5F5F5F5F5F5F5F5F5BEBEBEBEBEF5BEBEBEBEBEBEBEF5BEBEF5F5F5F5F5BEF5F5F5BEBEBEBEBEBEBEBEBEBEF5F5BEBEF5
310
F5F5F5F5F5F5F5F5F5F5F5F5F5F5F5F5F5F5F5F5F5F5F5F5F5F5F5F5F5F5F5F5F5F5F5F5F5E2F5E2BEF5F5E2FFE2F5F5BEE2F5E2F5F5F5F5F5F5F5F5F5F5F5F5F5F5F5F5BEBEBEBEBEF5BEBEBEBEBEBEBEBEBEBEBEBEF5F5F5BEF5F5F5F5F5BEBEBEBEBEBEF5F5F5BEBEBEBEF5F5BEBEBEF5F5F5F5F5F5F5F5F5F5F5F5F5F5
310
F5F5F5F5F5F5F5F5F5F5F5F5F5F5F5F5F5F5E2F5E2BEF5F5E200E2F5F5BEE2F5E2F5F5F5F5F5F5F5F5F5F5F5F5F5F5F5F5F5F5F5F5F5F5F5F5F5F5F5F5F5F5F5F5F5F5BEF5F5BEF5F5F5F5F5BEF5F5F5F5BEF5BEBEBEBEBEBEBEF5BEBEBEF5F5F5F5F5F5F5F5F5F5F5F5F5F5F5F5F5F5F5F5F5F5F5F5F5F5F5F5F5F5F5F5E2
310
F5E2BEF5F5E2FFE2F5F5BEE2F5E2F5F5F5F5F5F5F5F5F5F5F5F5F5F5F5F5F5F5F5F5F5F5F5F5F5F5F5F5F5F5F5F5F5F5F5BEF5BEF5F5F5F5F5BEF5F5F5F5BEF5F5F5F5BEBEF5F5F5F5F5F5F5F5F5F5F5F5F5F5F5F5F5F5F5F5F5F5F5F5F5F5F5F5F5F5F5F5F5F5F5F5F5F5E2F5E2BEF5F5E200E2F5F5BEE2F5E2F5F5F5F5F5
310
F5F5F5F5F5F5F5F5F5F5F5BEBEBEBEBEBEBEBEF5F5F5F5F5F5F5F5BEBEBEF5BEBEF5F5F5F5F5BEF5F5F5F5BEF5F5F5F5BEBEF5F5F5F5F5F5BEBEBEBEF5F5F5F5F5F5F5F5F5F5F5F5F5F5F5F5F5F5F5F5F5F5F5F5F5F5F5F5E2F5E2BEF5F5E2FFE2F5F5BEE2F5E2F5F5F5F5F5F5F5F5F5F5F5F5F5F5F5F5BEBEBEBEBEBEBEBE
310
BEBEF5F5F5F5F5F5BEBEBEF5F5BEBEF5F5F5F5BEF5F5F5F5BEF5F5F5F5BEBEF5F5F5F5F5F5F5BEBEBEF5F5F5F5F5F5F5F5F5F5F5F5F5F5F5F5F5F5F5F5F5F5F5F5F5F5F5F5E2F5E2BEF5F5E200E2F5F5BEE2F5E2F5F5F5F5F5F5F5F5F5F5F5F5F5F5F5F5F5F5F5F5F5F5F5F5BEBEF5F5F5F5F5F5F5F5BEF5F5BEF5BEF5F5F5
310
BEF5F5F5F5BEF5F5F5F5BEBEF5F5F5F5F5F5F5F5BEF5F5F5F5F5F5F5F5F5F5F5F5F5F5F5F5F5F5F5F5F5F5F5F5F5F5F5F5F5E2F5E2BEF5F5E2FFE2F5F5BEE2F5E2F5F5F5F5F5F5F5F5F5F5F5F5F5F5F5F5F5F5F5F5F5F5F5BEBEBEBEBEBEBEBEBEBEBEBEBEBEBEBEC3BEBEC3BEC3C3C3C3BEC3C3C3C3BEBEBEBEBEBEBEBEBE
310
BEBEBEBEBEBEBEBEBEBEBEBEBEBEF5F5F5F5F5F5F5F5F5F5F5F5F5F5F5F5F5E2F5E2BEF5F5E200E2F5F5BEE2F5E2F5F5F5F5F5F5F5F5F5F5F5F5F5F5F5F5F5F5F5F5F5F5F5F5F5F5F5F5F5BEF5F5F5BEBEBEBEBEF5F5F5F5F5BEF5F5F5F5BEF5F5F5F5F5BEBEBEBEBEBEBEBEBEBEBEF5F5F5F5F5F5F5F5BEBEF5F5F5F5F5F5
310
F5F5F5F5F5F5F5F5F5F5F5F5E2F5E2BEF5F5E2FFE2F5F5BEE2F5E2F5F5F5F5F5F5F5F5F5F5F5F5F5F5F5F5F5F5F5F5F5F5F5F5F5F5F5F5F5BEBEF5F5BEBEBEBEBEF5F5F5F5F5BEF5F5F5F5BEF5F5F5F5F5C3F5F5F5F5F5BEBEF5BEF5F5F5F5F5F5F5F5F5BEF5F5F5F5F5F5F5F5F5F5F5F5F5F5F5F5F5F5F5E2F5E2BEF5F5E2
310
00E2F5F5BEE2F5E2F5F5F5F5F5F5F5F5F5F5F5F5F5F5F5F5F5F5F5F5F5F5F5BEBEBEBEBEBEBEBEBEBEBEBEBEBEBEBEC3C3C3C3BEC3C3C3C3BEC3C3C3C3BEBEBEBEBEBEBEBEBEBEBEBEBEF5F5F5F5F5F5F5BEF5F5F5F5F5F5F5F5F5F5F5F5F5F5F5F5F5F5F5E2F5E2BEF5F5E2FFE2F5F5BEE2F5E2F5F5F5F5F5F5F5F5F5F5F5
310
F5F5F5F5F5F5F5F5F5F5F5F5F5BEBEF5F5F5F5F5F5F5F5BEF5F5F5F5F5F5F5F50FF5F5F5F5F50FF5F5F5F5F5F5F5BEBEF5BEF5F5F5BEF5F5F5F5F5F5F5F5BEF5F5F5F5F5F5F5F5F5F5F5F5F5F5F5F5F5F5F5E2F5E2BEF5F5E200E2F5F5BEE2F5E2F5F5F5F5F5F5F5F5F5F5F5F5F5F5F5F5F5F5F5F5F5F5F5F5F5BEF5F5BEBE
310
BEBEBEBEBEBEBEBEBEBEBEBEBEBEBEF5F5BE0F0FF5F5F5F5F5F5F5BEF5BEBEBEBEF5BEF5F5F5F5F5F5F5F5BEF5F5F5F5F5F5F5F5F5F5F5F5F5F5F5F5F5F5F5E2F5E2BEF5F5E2FFE2F5F5BEE2F5E2F5F5F5F5F5F5F5F5F5F5F5F5F5F5F5F5F5F5F5F5F5F5F5F5F5F5F5F5F5BEBEF5F5F5F5F5F5F5F5F5BEF50FBEBEF5F5BEF5
310
0F0FF5F5F5F5F5F5BEF5BEBEBEBEF5BEF5F5F5F5F5F5F5F5BEF5F5F5F5F5F5F5F5F5F5F5F5F5F5F5F5F5F5F5E2F5E2BEF5F5E200E2F5F5BEE2F5E2F5F5F5F5F5F5F5F5F5F5F5F5F5F5F5F5F5F5F5F5F5F5F5F5F5F5F5F5F5BEF5F5F5F5F5F5F5F5BEBEBEBEF5BEBEF5F5BEF5F5BEBEBEBEBEBEBEBEBEBEBEBEBEF5BEF5F5F5
310
F5F5BEBEBEBEBEBEBEBEF5F5F5F5F5F5F5F5F5F5F5F5F5F5F5E2F5E2BEF5F5E2CDE2F5F5BEE2F5E2F5F5F5F5F5F5F5F5F5F5F5F5F5F5F5F5F5F5F5F5F5F5F5F5F5F5F5F5BEBEBEBEF5F5F5F5BEBEBEBEBEBEF5BEBEF5F5BEF5F5BEBEF5F5F5BEBEBEF5F5BEBEF5BEBEBEF5F5F5F5BEBEBEBEBEBEBEBEF5F5F5F5F5F5F5F5F5
310
F5F5F5F5F5F5E2F5E2BEF5F5E200E2F5F5BEE2F5E2F5F5F5F5F5F5F5F5F5F5F5F5F5F5F5F5F5F5F5F5F5F5F5F5F5F5F5F5F5BEBEBEF5F5BEBEF5F5F5BEBEBEBEF5BEF5F5BEF5F5BEF5BEF5F5BEF5F5F5F5BEF5F5BEBEBEF5F5F5F5F5F5F5BEF5F5F5F5F5F5F5F5F5F5F5F5F5F5F5F5F5F5F5E2F5E2BEF5F5E2CDE2F5F5BEE2
310
F5E2F5F5F5F5F5F5F5F5F5F5F5F5BEBEF5F5F5F5F5F5F5F5F5F5F5F5F5F5F5F5F5F5BEBEF5F5F5BEBEBEF5BEBEF5BE0F0FBEF5F5BEF5BEF5BEF5F5F5F5F5F5F5F5F5BEF5F5F5F5F5F5F5F5BEF5F5F5F5F5F5F5F5F5F5F5F5F5F5F5F5F5F5F5E2F5E2BEF5F5E200E2F5F5BEE2F5E2F5F5F5F5F5F5F5F5F5BEBEBEBEBEBEBEBE
310
BEF5BEBEBEBEBEBEBEBEBEBEBEBEBEF5F5F5F5F5BEBEBEF5BEBEF5BE0F0FBEF5F5BEF5F5BEBEF5F5F5F5F5F5F5F5F5BEF5F5F5F5F5F5F5F5BEF5F5F5F5F5F5F5F5F5F5F5F5F5F5F5F5F5F5F5E2F5E2BEF5F5E2CDE2F5F5BEE2F5E2F5F5F5F5F5F5F5F5F5BEBEF5F5F5F5F5F5BEBEBEBEBEBEBEBEBEBEBEBEF5F5F5F5F5F5F5
310
F5F5F5F5F5BEF5F5BE0F0FBEF5F5BEF5F5BEF5F5F5F5F5F5F5F5F5F5BEF5F5F5F5F5F5F5F5BEF5F5F5F5F5F5F5F5F5F5F5F5F5F5F5F5F5F5F5E2F5E2BEF5F5E200E2F5F5BEE2F5E2F5F5F5F5F5F5F5F5F5F5F5F5F5F5F5F5F5BEBEBEBEBEBEBEBEBEBEBEBEF5F5F5F5F5F5F5F5F5F5F5F5BEF5F5BE0F0FBEF5F5BEF5F5F5F5
310
F5F5F5F5F5F5F5F5F5BEF5F5F5F5F5F5F5F5BEF5F5F5F5F5F5F5F5F5F5F5F5F5F5F5F5F5F5F5E2F5E2BEF5F5E2CDE2F5F5BEE2F5E2F5F5F5F5F5F5F5F5F5F5F5F5F5F5F5F5F5F5F5F5F5F5F5F5F5F5F5F5F5F5F5F5F5F5F5F5F5F5F5F5BEBEF5F5BEBEBEBEF5F5BEF5F5F5F5F5F5F5F5F5F5F5F5F5BEF5F5F5F5F5F5F5F5BE
310
BEF5F5F5F5F5F5F5F5F5F5F5F5F5F5F5F5F5F5E2F5E2BEF5F5E200E2F5F5BEE2F5E2F5F5F5F5F5F5F5F5F5F5F5F5F5F5F5F5F5F5F5F5F5F5F5F5F5F5F5F5F5F5F5F5F5BEBEBEBEBEBEBEBEBEF5F5BEBEBEBEBEBEBEBEBEBEBEBEBEBEBEBEBEBEBEBEBEBEBEBEBEBEBEBEBEBEBEBEF5F5F5F5F5F5F5F5F5F5F5F5F5F5F5F5F5
310
E2F5E2BEF5F5E2CDE2F5F5BEE2F5E2F5F5F5F5F5F5F5F5F5F5F5F5F5F5F5F5F5F5F5F5F5F5F5F5F5F5F5F5F5F5F5F5F5BEBEF5BEBEF5F5F5BEF5F5BEBEBEBEF5F5BEBEBEBEF5F5F5F5F5F5F5F5F5F5F5F5F5F5F5F5F5F5F5F5F5F5F5F5F5F5F5F5F5F5F5F5F5F5F5F5F5F5F5E2F5E2BEF5F5E200E2F5F5BEE2F5E2F5F5F5F5
310
F5F5F5F5F5F5F5F5F5F5F5F5F5F5F5F5F5F5F5F5F5F5F5F5F5F5F5F5F5F5F5F5F5F5F5F5F5BEBEBEBEBEBEBEBEBEBEBEBEBEF5F5F5F5F5F5F5F5F5F5F5F5F5F5F5F5F5F5F5F5F5F5F5F5F5F5F5F5F5F5F5F5F5F5F5F5F5F5F5E2F5E2BEF5F5E2CDE2F5F5BEE2F5E2F5F5F5F5F5F5F5F5F5F5F5F5F5F5F5F5F5F5F5F5F5F5F5
310
F5F5F5F5F5F5F5F5F5F5F5F5F5F5F5F5F5F5BEF5F5BEBEBEBEF5F5BEF5F5F5F5F5F5F5F5F5F5F5F5F5F5F5F5F5F5F5F5F5F5F5F5F5F5F5F5F5F5F5F5F5F5F5F5F5F5F5F5F5F5E2F5E2BEF5F5E200E2F5F5BEE2F5E2F5F5F5F5F5F5F5F5F5F5F5F5F5F5F5F5F5F5F5F5F5F5F5F5F5F5F5F5F5F5F5F5F5F5F5F5F5F5F5F5F5BE
310
F5F5BEBEBEBEF5F5BEF5F5F5F5F5F5F5F5F5F5F5F5F5F5F5F5F5F5F5F5F5F5F5F5F5F5F5F5F5F5F5F5F5F5F5F5F5F5F5F5F5F5E2F5E2BEF5F5E2CDE2F5F5BEE2F5E2F5F5F5F5F5F5F5F5F5F5F5F5F5F5F5F5F5F5F5F5F5F5F5F5F5F5F5F5F5F5F5F5F5F5F5F5F5F5F5F5F5BEF5BEBEBEBEBEBEF5BEF5F5F5F5F5F5F5F5F5F5
310
F5F5F5F5F5F5F5F5F5F5F5F5F5F5F5F5F5F5F5F5F5F5F5F5F5F5F5F5F5F5F5F5E2F5E2BEF5F5E200E2F5F5BEE2F5E2F5F5F5F5F5F5F5F5F5F5F5F5F5F5F5F5F5F5F5F5F5F5F5F5F5F5F5F5F5F5F5F5F5F5F5F5F5F5F5F5F5BEF5F5BEBEBEF5F5F5BEF5F5F5F5F5F5F5F5F5F5F5F5F5F5F5F5F5F5F5F5F5F5F5F5F5F5F5F5F5
310
F5F5F5F5F5F5F5F5F5F5F5F5F5E2F5E2BEF5F5E2CDE2F5F5BEE2F5E2F5F5F5F5F5F5F5F5F5F5F5F5F5F5F5F5F5F5F5F5F5F5F5F5F5F5F5F5F5F5F5F5F5F5F5F5F5F5F5F5F5BEF5F5F5BEBEBEF5F5BEF5F5F5F5F5F5F5F5F5F5F5F5F5F5F5F5F5F5F5F5F5F5F5F5F5F5F5F5F5F5F5F5F5F5F5F5F5F5F5F5F5F5E2F5E2BEF5F5
310
E200E2F5F5BEE2F5E2F5F5F5F5F5F5F5F5F5F5F5F5F5F5F5F5F5F5F5F5F5F5F5F5F5F5F5F5F5F5F5F5F5F5F5F5F5F5F5F5F5BEF5F5F5F5F5F5F5F5BEF5F5F5F5F5F5F5F5F5F5F5F5F5F5F5F5F5F5F5F5F5F5F5F5F5F5F5F5F5F5F5F5F5F5F5F5F5F5F5F5F5F5E2F5E2BEF5F5E2CDE2F5F5BEE2F5E2F5F5F5F5F5F5F5F5F5F5
310
F5F5F5F5F5F5F5F5F5F5F5F5F5F5F5F5F5F5F5F5F5F5F5F5F5F5F5F5F5F5F5BEBEF5BEBEBEBEF5BEBEF5F5F5F5F5F5F5F5F5F5F5F5F5F5F5F5F5F5F5F5F5F5F5F5F5F5F5F5F5F5F5F5F5F5F5F5F5F5F5F5F5F5E2F5E2BEF5F5E200E2F5F5BEE2F5E2F5F5F5F5F5F5F5F5F5F5F5F5F5F5F5F5F5F5F5F5F5F5F5F5F5F5F5F5F5
310
F5F5F5F5F5F5F5F5F5F5F5F5BEBEBEF5BEBEBEBEBEBEF5F5F5F5F5F5F5F5F5F5F5F5F5F5F5F5F5F5F5F5F5F5F5F5F5F5F5F5F5F5F5F5F5F5F5F5F5F5F5F5F5F5E2F5E2BEF5F5E200E2F5F5BEE2F5E2F5F5F5F5F5F5F5F5F5F5F5F5F5F5F5F5F5F5F5F5F5F5F5F5F5F5F5F5F5F5F5F5F5F5F5F5F5F5F5F5F5BEF5F5F5F5F5F5
310
F5F5BEF5F5F5F5F5F5F5F5F5F5F5F5F5F5F5F5F5F5F5F5F5F5F5F5F5F5F5F5F5F5F5F5F5F5F5F5F5F5F5F5F5F5E2F5E2BEF5F5E200E2F5F5BEE2F5E2F5F5F5F5F5F5F5F5F5F5F5F5F5F5F5F5F5F5F5F5F5F5F5F5F5F5F5F5F5F5F5F5F5F5F5F5F5F5F5F5F5F5F5F5F5F5F5F5F5F5F5F5F5F5F5F5F5F5F5F5F5F5F5F5F5F5F5
310
F5F5F5F5F5F5F5F5F5F5F5F5F5F5F5F5F5F5F5F5F5F5F5F5F5F5E2F5E2BEF5F5E200E2F5F5BEE2F5E2F5F5F5F5F5F5F5F5F5F5F5F5F5F5F5F5F5F5F5F5F5F5F5F5F5F5F5F5F5F5F5F5F5F5F5F5F5F5F5F5F5F5F5F5F5F5F5F5F5F5F5F5F5F5F5F5F5F5F5F5F5F5F5F5F5F5F5F5F5F5F5F5F5F5F5F5F5F5F5F5F5F5F5F5F5F5
310
F5F5F5F5F5F5F5E2F5E2BEF5F5E200E2F5F5BEE2F5E2F5F5F5F5F5F5F5F5F5F5F5F5F5F5F5F5F5F5F5F5F5F5F5F5F5F5F5F5F5F5F5F5F5F5F5F5F5F5F5F5F5F5F5F5F5F5F5F5F5F5F5F5F5F5F5F5F5F5F5F5F5F5F5F5F5F5F5F5F5F5F5F5F5F5F5F5F5F5F5F5F5F5F5F5F5F5F5F5F5F5F5F5F5E2F5E2BEF5F5E200E2F5F5BE
310
E2F5E2F5F5F5F5F5F5F5F5F5F5F5F5F5F5F5F5F5F5F5F5F5F5F5F5F5F5F5F5F5F5F5F5F5F5F5F5F5F5F5F5F5F5F5F5F5F5F5F5F5F5F5F5F5F5F5F5F5F5F5F5F5F5F5F5F5F5F5F5F5F5F5F5F5F5F5F5F5F5F5F5F5F5F5F5F5F5F5F5F5F5F5F5F5E2F5E2BEF5F5E200E2F5F5BEE2F5E2F5F5F5F5F5F5F5F5F5F5F5F5F5F5F5F5
310
F5F5F5F5F5F5F5F5F5F5F5F5F5F5F5F5F5F5F5F5F5F5F5F5F5F5F5F5F5F5F5F5F5F5F5F5F5F5F5F5F5F5F5F5F5F5F5F5F5F5F5F5F5F5F5F5F5F5F5F5F5F5F5F5F5F5F5F5F5F5F5F5F5F5F5F5F5E2F5E2BEF5F5E200E2F5F5BEE2F5E2F5F5F5F5F5F5F5F5F5F5F5F5F5F5F5F5F5F5F5F5F5F5F5F5F5F5F5F5F5F5F5F5F5F5F5
310
F5F5F5F5F5F5F5F5F5F5F5F5F5F5F5F5F5F5F5F5F5F5F5F5F5F5F5F5F5F5F5F5F5F5F5F5F5F5F5F5F5F5F5F5F5F5F5F5F5F5F5F5F5F5F5F5F5F5E2F5E2BEF5F5E200E2F5F5BEE2F5E2F5F5F5F5F5F5F5F5F5F5F5F5F5F5F5F5F5F5F5F5F5F5F5F5F5F5F5F5F5F5F5F5F5F5F5F5F5F5F5F5F5F5F5F5F5F5F5F5F5F5F5F5F5F5
310
F5F5F5F5F5F5F5F5F5F5F5F5F5F5F5F5F5F5F5F5F5F5F5F5F5F5F5F5F5F5F5F5F5F5F5F5F5F5F5E2F5E2BEF5F5E200E2F5F5BEE2F5E2F5F5F5F5F5F5F5F5F5F5F5F5F5F5F5F5F5F5F5F5F5F5F5F5F5F5F5F5F5F5F5F5F5F5F5F5F5F5F5F5F5F5F5F5F5F5F5F5F5F5F5F5F5F5F5F5F5F5F5F5F5F5F5F5F5F5F5F5F5F5F5F5F5
310
F5F5F5F5F5F5F5F5F5F5F5F5F5F5F5F5F5F5F5F5E2F5E2BEF5F5E200E2F5F5BEE2F5E2F5F5F5F5F5F5F5F5F5F5F5F5F5F5F5F5F5F5F5F5F5F5F5F5F5F5F5F5F5F5F5F5F5F5F5F5F5F5F5F5F5F5F5F5F5F5F5F5F5F5F5F5F5F5F5F5F5F5F5F5F5F5F5F5F5F5F5F5F5F5F5F5F5F5F5F5F5F5F5F5F5F5F5F5F5F5F5F5F5F5F5F5
310
F5E2F5E2BEF5F5E200E2F5F5BEE2F5E2F5F5F5F5F5F5F5F5F5F5F5F5F5F5F5F5F5F5F5F5F5F5F5F5F5F5F5F5F5F5F5F5F5F5F5F5F5F5F5F5F5F5F5F5F5F5F5F5F5F5F5F5F5F5F5F5F5F5F5F5F5F5F5F5F5F5F5F5F5F5F5F5F5F5F5F5F5F5F5F5F5F5F5F5F5F5F5F5F5F5F5F5F5E2F5E2BEF5F5E200E2F5F5BEE2F5E2F5F5F5
310
F5F5F5F5F5F5F5F5F5F5F5F5F5F5F5F5F5F5F5F5F5F5F5F5F5F5F5F5F5F5F5F5F5F5F5F5F5F5F5F5F5F5F5F5F5F5F5F5F5F5F5F5F5F5F5F5F5F5F5F5F5F5F5F5F5F5F5F5F5F5F5F5F5F5F5F5F5F5F5F5F5F5F5F5F5F5F5F5F5F5E2F5E2BEF5F5E233E2F5F5BEE2F5E2F5F5F5F5F5F5F5F5F5F5F5F5F5F5F5F5F5F5F5F5F5F5
310
F5F5F5F5F5F5F5F5F5F5F5F5F5F5F5F5F5F5F5F5F5F5F5F5F5F5F5F5F5F5F5F5F5F5F5F5F5F5F5F5F5F5F5F5F5F5F5F5F5F5F5F5F5F5F5F5F5F5F5F5F5F5F5F5F5F5F5F5F5F5F5E2F5E2BEF5F5E20BE2F5F5BEE2F5E2F5F5F5F5F5F5F5F5F5F5F5F5F5F5F5F5F5F5F5F5F5F5F5F5F5F5F5F5F5F5F5F5F5F5F5F5F5F5F5F5F5
310
F5F5F5F5F5F5F5F5F5F5F5F5F5F5F5F5F5F5F5F5F5F5F5F5F5F5F5F5F5F5F5F5F5F5F5F5F5F5F5F5F5F5F5F5F5F5F5F5F5F5F5F5E2F5E2BEF5F5E200E2F5F5BEE2F5E2F5F5F5F5F5F5F5F5F5F5F5F5F5F5F5F5F5F5F5F5F5F5F5F5F5F5F5F5F5F5F5F5F5F5F5F5F5F5F5F5F5F5F5F5F5F5F5F5F5F5F5F5F5F5F5F5F5F5F5F5
310
F5F5F5F5F5F5F5F5F5F5F5F5F5F5F5F5F5F5F5F5F5F5F5F5F5F5F5F5F5F5F5F5F5E2F5E2BEF5F5E200E2F5F5BEE2F5E2F5F5F5F5F5F5F5F5F5F5F5F5F5F5F5F5F5F5F5F5F5F5F5F5F5F5F5F5F5F5F5F5F5F5F5F5F5F5F5F5F5F5F5F5F5F5F5F5F5F5F5F5F5F5F5F5F5F5F5F5F5F5F5F5F5F5F5F5F5F5F5F5F5F5F5F5F5F5F5
310
F5F5F5F5F5F5F5F5F5F5F5F5F5F5E2F5E2BEF5F5E233E2F5F5BEE2F5E2F5F5F5F5F5F5F5F5F5F5F5F5F5F5F5F5F5F5F5F5F5F5F5F5F5F5F5F5F5F5F5F5F5F5F5F5F5F5F5F5F5F5F5F5F5F5F5F5F5F5F5F5F5F5F5F5F5F5F5F5F5F5F5F5F5F5F5F5F5F5F5F5F5F5F5F5F5F5F5F5F5F5F5F5F5F5F5F5F5F5F5F5F5E2F5E2BEF5
310
F5E20BE2F5F5BEE2F5E2F5F5F5F5F5F5F5F5F5F5F5F5F5F5F5F5F5F5F5F5F5F5F5F5F5F5F5F5F5F5F5F5F5F5F5F5F5F5F5F5F5F5F5F5F5F5F5F5F5F5F5F5F5F5F5F5F5F5F5F5F5F5F5F5F5F5F5F5F5F5F5F5F5F5F5F5F5F5F5F5F5F5F5F5F5F5F5F5F5F5F5F5F5E2F5E2BEF5F5E200E2F5F5BEE2F5E2F5F5F5F5F5F5F5F5F5
310
F5F5F5F5F5F5F5F5F5F5F5F5F5F5F5F5F5F5F5F5F5F5F5F5F5F5F5F5F5F5F5F5F5F5F5F5F5F5F5F5F5F5F5F5F5F5F5F5F5F5F5F5F5F5F5F5F5F5F5F5F5F5F5F5F5F5F5F5F5F5F5F5F5F5F5F5F5F5F5F5F5F5F5F5E2F5E2BEF5F5E200E2F5F5BEE2F5E2F5F5F5F5F5F5F5F5F5F5F5F5F5F5F5F5F5F5F5F5F5F5F5F5F5F5F5F5
310
F5F5F5F5F5F5F5F5F5F5F5F5F5F5F5F5F5F5F5F5F5F5F5F5F5F5F5F5F5F5F5F5F5F5F5F5F5F5F5F5F5F5F5F5F5F5F5F5F5F5F5F5F5F5F5F5F5F5F5F5F5F5F5F5F5E2F5E2BEF5F5E233E2F5F5BEE2F5E2F5F5F5F5F5F5F5F5F5F5F5F5F5F5F5F5F5F5F5F5F5F5F5F5F5F5F5F5F5F5F5F5F5F5F5F5F5F5F5F5F5F5F5F5F5F5F5
310
F5F5F5F5F5F5F5F5F5F5F5F5F5F5F5F5F5F5F5F5F5F5F5F5F5F5F5F5F5F5F5F5F5F5F5F5F5F5F5F5F5F5F5F5F5F5E2F5E2BEF5F5E20BE2F5F5BEE2F5E2F5F5F5F5F5F5F5F5F5F5F5F5F5F5F5F5F5F5F5F5F5F5F5F5F5F5F5F5F5F5F5F5F5F5F5F5F5F5F5F5F5F5F5F5F5F5F5F5F5F5F5F5F5F5F5F5F5F5F5F5F5F5F5F5F5F5
310
F5F5F5F5F5F5F5F5F5F5F5F5F5F5F5F5F5F5F5F5F5F5F5F5F5F5F5E2F5E2BEF5F5E200E2F5F5BEE2F5E2F5F5F5F5F5F5F5F5F5F5F5F5F5F5F5F5F5F5F5F5F5F5F5F5F5F5F5F5F5F5F5F5F5F5F5F5F5F5F5F5F5F5F5F5F5F5F5F5F5F5F5F5F5F5F5F5F5F5F5F5F5F5F5F5F5F5F5F5F5F5F5F5F5F5F5F5F5F5F5F5F5F5F5F5F5
310
F5F5F5F5F5F5F5F5E2F5E2BEF5F5E200E2F5F5BEE2F5E2F5F5F5F5F5F5F5F5F5F5F5F5F5F5F5F5F5F5F5F5F5F5F5F5F5F5F5F5F5F5F5F5F5F5F5F5F5F5F5F5F5F5F5F5F5F5F5F5F5F5F5F5F5F5F5F5F5F5F5F5F5F5F5F5F5F5F5F5F5F5F5F5F5F5F5F5F5F5F5F5F5F5F5F5F5F5F5F5F5F5F5F5F5E2F5E2BEF5F5E233E2F5F5
310
BEE2F5E2F5F5F5F5F5F5F5F5F5F5F5F5F5F5F5F5F5F5F5F5F5F5F5F5F5F5F5F5F5F5F5F5F5F5F5F5F5F5F5F5F5F5F5F5F5F5F5F5F5F5F5F5F5F5F5F5F5F5F5F5F5F5F5F5F5F5F5F5F5F5F5F5F5F5F5F5F5F5F5F5F5F5F5F5F5F5F5F5F5F5F5F5F5E2F5E2BEF5F5E20BE2F5F5BEE2F5E2F5F5F5F5F5F5F5F5F5F5F5F5F5F5F5
310
F5F5F5F5F5F5F5F5F5F5F5F5F5F5F5F5F5F5F5F5F5F5F5F5F5F5F5F5F5F5F5F5F5F5F5F5F5F5F5F5F5F5F5F5F5F5F5F5F5F5F5F5F5F5F5F5F5F5F5F5F5F5F5F5F5F5F5F5F5F5F5F5F5F5F5F5F5F5E2F5E2BEF5F5E200E2F5F5BEE2F5E2F5F5F5F5F5F5F5F5F5F5F5F5F5F5F5F5F5F5F5F5F5F5F5F5F5F5F5F5F5F5F5F5F5F5
310
F5F5F5F5F5F5F5F5F5F5F5F5F5F5F5F5F5F5F5F5F5F5F5F5F5F5F5F5F5F5F5F5F5F5F5F5F5F5F5F5F5F5F5F5F5F5F5F5F5F5F5F5F5F5F5F5F5F5F5E2F5E2BEF5F5E200E2F5F5BEE2F5E2F5F5F5F5F5F5F5F5F5F5F5F5F5F5F5F5F5F5F5F5F5F5F5F5F5F5F5F5F5F5F5F5F5F5F5F5F5F5F5F5F5F5F5F5F5F5F5F5F5F5F5F5F5
310
F5F5F5F5F5F5F5F5F5F5F5F5F5F5F5F5F5F5F5F5F5F5F5F5F5F5F5F5F5F5F5F5F5F5F5F5F5F5F5F5E2F5E2BEF5F5E233E2F5F5BEE2F5E2F5F5F5F5F5F5F5F5F5F5F5F5F5F5F5F5F5F5F5F5F5F5F5F5F5F5F5F5F5F5F5F5F5F5F5F5F5F5F5F5F5F5F5F5F5F5F5F5F5F5F5F5F5F5F5F5F5F5F5F5F5F5F5F5F5F5F5F5F5F5F5F5
310
F5F5F5F5F5F5F5F5F5F5F5F5F5F5F5F5F5F5F5F5F5E2F5E2BEF5F5E20BE2F5F5BEE2F5E2F5F5F5F5F5F5F5F5F5F5F5F5F5F5F5F5F5F5F5F5F5F5F5F5F5F5F5F5F5F5F5F5F5F5F5F5F5F5F5F5F5F5F5F5F5F5F5F5F5F5F5F5F5F5F5F5F5F5F5F5F5F5F5F5F5F5F5F5F5F5F5F5F5F5F5F5F5F5F5F5F5F5F5F5F5F5F5F5F5F5F5
310
F5F5E2F5E2BEF5F5E27EE2F5F5BEE2F5E2E2E2E2E2E2E2E2E2E2E2E2E2E2E2E2E2E2E2E2E2E2E2E2E2E2E2E2E2E2E2E2E2E2E2E2E2E2E2E2E2E2E2E2E2E2E2E2E2E2E2E2E2E2E2E2E2E2E2E2E2E2E2E2E2E2E2E2E2E2E2E2E2E2E2E2E2E2E2E2E2E2E2E2E2E2E2E2E2E2E2E2E2E2E2F5E2BEF5F5E27EE2F5F5BEE2F5F5F5F5
310
F5F5F5F5F5F5F5F5F5F5F5F5F5F5F5F5F5F5F5F5F5F5F5F5F5F5F5F5F5F5F5F5F5F5F5F5F5F5F5F5F5F5F5F5F5F5F5F5F5F5F5F5F5F5F5F5F5F5F5F5F5F5F5F5F5F5F5F5F5F5F5F5F5F5F5F5F5F5F5F5F5F5F5F5F5F5F5F5F5F5F5F5F5E2BEF5F5E2FFE2F5F5BEE2F5F5F5F5F5F5F5F5F5F5F5F5F5F5F5F5F5F5F5F5F5F5F5
310
F5F5F5F5F5F5F5F5F5F5F5F5F5F5F5F5F5F5F5F5F5F5F5F5F5F5F5F5F5F5F5F5F5F5F5F5F5F5F5F5F5F5F5F5F5F5F5F5F5F5F5F5F5F5F5F5F5F5F5F5F5F5F5F5F5F5F5F5F5F5F5F5F5F5E2BEF5F5E200E2F5F5BEE2E2E2E2E2E2E2E2E2E2E2E2E2E2E2E2E2E2E2E2E2E2E2E2E2E2E2E2E2E2E2E2E2E2E2E2E2E2E2E2E2E2E2
310
E2E2E2E2E2E2E2E2E2E2E2E2E2E2E2E2E2E2E2E2E2E2E2E2E2E2E2E2E2E2E2E2E2E2E2E2E2E2E2E2E2E2E2E2E2E2E2E2E2E2E2E2E2E2E2E2BEF5F5E200E2F5F5BEF5F5F5F5F5F5F5F5F5F5F5F5F5F5F5F5F5F5F5F5F5F5F5F5F5F5F5F5F5F5F5F5F5F5F5F5F5F5F5F5F5F5F5F5F5F5F5F5F5F5F5F5F5F5F5F5F5F5F5F5F5F5
310
F5F5F5F5F5F5F5F5F5F5F5F5F5F5F5F5F5F5F5F5F5F5F5F5F5F5F5F5F5F5F5F5F5F5F5F5F5BEF5F5E200E2F5F5BEBEBEBEBEBEBEBEBEBEBEBEBEBEBEBEBEBEBEBEBEBEBEBEBEBEBEBEBEBEBEBEBEBEBEBEBEBEBEBEBEBEBEBEBEBEBEBEBEBEBEBEBEBEBEBEBEBEBEBEBEBEBEBEBEBEBEBEBEBEBEBEBEBEBEBEBEBEBEBEBEBE
310
BEBEBEBEBEBEBEBEBEBEBEBEBEBEBEBEBEBEBEF5F5E200E2F5F5F5F5F5F5F5F5F5F5F5F5F5F5F5F5F5F5F5F5F5F5F5F5F5F5F5F5F5F5F5F5F5F5F5F5F5F5F5F5F5F5F5F5F5F5F5F5F5F5F5F5F5F5F5F5F5F5F5F5F5F5F5F5F5F5F5F5F5F5F5F5F5F5F5F5F5F5F5F5F5F5F5F5F5F5F5F5F5F5F5F5F5F5F5F5F5F5F5F5F5F5F5
310
F5F5E200E2F5F5F5F5F5F5F5F5F5F5F5F5F5F5F5F5F5F5F5F5F5F5F5F5F5F5F5F5F5F5F5F5F5F5F5F5F5F5F5F5F5F5F5F5F5F5F5F5F5F5F5F5F5F5F5F5F5F5F5F5F5F5F5F5F5F5F5F5F5F5F5F5F5F5F5F5F5F5F5F5F5F5F5F5F5F5F5F5F5F5F5F5F5F5F5F5F5F5F5F5F5F5F5F5F5E200E2F5F5F5F5F5F5F5F5F5F5F5F5F5F5
310
F5F5F5F5F5F5F5F5F5F5F5F5F5F5F5F5F5F5F5F5F5F5F5F5F5F5F5F5F5F5F5F5F5F5F5F5F5F5F5F5F5F5F5F5F5F5F5F5F5F5F5F5F5F5F5F5F5F5F5F5F5F5F5F5F5F5F5F5F5F5F5F5F5F5F5F5F5F5F5F5F5F5F5F5F5F5F5F5F5F5F5E200E2E2E2E2E2E2E2E2E2E2E2E2E2E2E2E2E2E2E2E2E2E2E2E2E2E2E2E2E2E2E2E2E2E2
310
E2E2E2E2E2E2E2E2E2E2E2E2E2E2E2E2E2E2E2E2E2E2E2E2E2E2E2E2E2E2E2E2E2E2E2E2E2E2E2E2E2E2E2E2E2E2E2E2E2E2E2E2E2E2E2E2E2E2E2E2E2E2E2E2E2E2E2E2E2E2E2E2E200EFEFEFEFEFEFEFEFEFEFEFEFEFEFEFEFEFEFEFEFEFEFEFEFEFEFEFEFEFEFEFEFEFEFEFEFEFEFEFEFEFEFEFEFEFEFEFEFEFEFEFEFEF
310
EFEFEFEFEFEFEFEFEFEFEFEFEFEFEFEFEFEFEFEFEFEFEFEFEFEFEFEFEFEFEFEFEFEFEFEFEFEFEFEFEFEFEFEFEFEFEFEFEFEFEFEFEFEF00
  0
ENDSEC
  0
EOF
