  0
SECTION
  2
HEADER
  9
$ACADVER
  1
AC1021
  9
$ACADMAINTVER
 70
     2
  9
$DWGCODEPAGE
  3
ANSI_1252
  9
$LASTSAVEDBY
  1
CAB
  9
$INSBASE
 10
0.0
 20
0.0
 30
0.0
  9
$EXTMIN
 10
0.0630000000000003
 20
-1.094657111350407
 30
0.0
  9
$EXTMAX
 10
0.9130000000000002
 20
0.0111085997846336
 30
0.0
  9
$LIMMIN
 10
0.0
 20
0.0
  9
$LIMMAX
 10
0.0
 20
0.0
  9
$ORTHOMODE
 70
     1
  9
$REGENMODE
 70
     1
  9
$FILLMODE
 70
     1
  9
$QTEXTMODE
 70
     0
  9
$MIRRTEXT
 70
     1
  9
$LTSCALE
 40
1.0
  9
$ATTMODE
 70
     1
  9
$TEXTSIZE
 40
0.2
  9
$TRACEWID
 40
0.05
  9
$TEXTSTYLE
  7
STANDARD
  9
$CLAYER
  8
0
  9
$CELTYPE
  6
CONTINUOUS
  9
$CECOLOR
 62
     1
  9
$CELTSCALE
 40
1.0
  9
$DISPSILH
 70
     0
  9
$DIMSCALE
 40
1.0
  9
$DIMASZ
 40
0.18
  9
$DIMEXO
 40
0.0625
  9
$DIMDLI
 40
0.38
  9
$DIMRND
 40
0.0
  9
$DIMDLE
 40
0.0
  9
$DIMEXE
 40
0.25
  9
$DIMTP
 40
0.005
  9
$DIMTM
 40
0.005
  9
$DIMTXT
 40
0.0125
  9
$DIMCEN
 40
0.09
  9
$DIMTSZ
 40
0.0
  9
$DIMTOL
 70
     0
  9
$DIMLIM
 70
     0
  9
$DIMTIH
 70
     1
  9
$DIMTOH
 70
     1
  9
$DIMSE1
 70
     0
  9
$DIMSE2
 70
     0
  9
$DIMTAD
 70
     0
  9
$DIMZIN
 70
     0
  9
$DIMBLK
  1

  9
$DIMASO
 70
     1
  9
$DIMSHO
 70
     1
  9
$DIMPOST
  1

  9
$DIMAPOST
  1

  9
$DIMALT
 70
     0
  9
$DIMALTD
 70
     2
  9
$DIMALTF
 40
25.4
  9
$DIMLFAC
 40
1.0
  9
$DIMTOFL
 70
     0
  9
$DIMTVP
 40
0.0
  9
$DIMTIX
 70
     0
  9
$DIMSOXD
 70
     0
  9
$DIMSAH
 70
     0
  9
$DIMBLK1
  1

  9
$DIMBLK2
  1

  9
$DIMSTYLE
  2
STANDARD
  9
$DIMCLRD
 70
     0
  9
$DIMCLRE
 70
     0
  9
$DIMCLRT
 70
     1
  9
$DIMTFAC
 40
1.0
  9
$DIMGAP
 40
0.09
  9
$DIMJUST
 70
     0
  9
$DIMSD1
 70
     0
  9
$DIMSD2
 70
     0
  9
$DIMTOLJ
 70
     1
  9
$DIMTZIN
 70
     0
  9
$DIMALTZ
 70
     0
  9
$DIMALTTZ
 70
     0
  9
$DIMUPT
 70
     0
  9
$DIMDEC
 70
     4
  9
$DIMTDEC
 70
     4
  9
$DIMALTU
 70
     2
  9
$DIMALTTD
 70
     2
  9
$DIMTXSTY
  7
STANDARD
  9
$DIMAUNIT
 70
     0
  9
$DIMADEC
 70
     0
  9
$DIMALTRND
 40
0.0
  9
$DIMAZIN
 70
     0
  9
$DIMDSEP
 70
    46
  9
$DIMATFIT
 70
     3
  9
$DIMFRAC
 70
     0
  9
$DIMLDRBLK
  1

  9
$DIMLUNIT
 70
     2
  9
$DIMLWD
 70
    -2
  9
$DIMLWE
 70
    -2
  9
$DIMTMOVE
 70
     0
  9
$DIMFXL
 40
1.0
  9
$DIMFXLON
 70
     0
  9
$DIMJOGANG
 40
0.7853981633974483
  9
$DIMTFILL
 70
     0
  9
$DIMTFILLCLR
 70
     0
  9
$DIMARCSYM
 70
     0
  9
$DIMLTYPE
  6

  9
$DIMLTEX1
  6

  9
$DIMLTEX2
  6

  9
$LUNITS
 70
     2
  9
$LUPREC
 70
    10
  9
$SKETCHINC
 40
0.1
  9
$FILLETRAD
 40
0.01
  9
$AUNITS
 70
     0
  9
$AUPREC
 70
     0
  9
$MENU
  1
acad
  9
$ELEVATION
 40
0.0
  9
$PELEVATION
 40
0.0
  9
$THICKNESS
 40
0.0
  9
$LIMCHECK
 70
     0
  9
$CHAMFERA
 40
0.0
  9
$CHAMFERB
 40
0.0
  9
$CHAMFERC
 40
0.0
  9
$CHAMFERD
 40
0.0
  9
$SKPOLY
 70
     0
  9
$TDCREATE
 40
2444971.791666667
  9
$TDUCREATE
 40
2444972.000000000
  9
$TDUPDATE
 40
2454418.599504560
  9
$TDUUPDATE
 40
2454418.807837894
  9
$TDINDWG
 40
0.0683036690
  9
$TDUSRTIMER
 40
0.0683036690
  9
$USRTIMER
 70
     1
  9
$ANGBASE
 50
0.0
  9
$ANGDIR
 70
     0
  9
$PDMODE
 70
     2
  9
$PDSIZE
 40
0.0
  9
$PLINEWID
 40
0.0
  9
$SPLFRAME
 70
     0
  9
$SPLINETYPE
 70
     6
  9
$SPLINESEGS
 70
     8
  9
$HANDSEED
  5
6BE
  9
$SURFTAB1
 70
     6
  9
$SURFTAB2
 70
     6
  9
$SURFTYPE
 70
     6
  9
$SURFU
 70
     6
  9
$SURFV
 70
     6
  9
$UCSBASE
  2

  9
$UCSNAME
  2

  9
$UCSORG
 10
0.0
 20
0.0
 30
0.0
  9
$UCSXDIR
 10
1.0
 20
0.0
 30
0.0
  9
$UCSYDIR
 10
0.0
 20
1.0
 30
0.0
  9
$UCSORTHOREF
  2

  9
$UCSORTHOVIEW
 70
     0
  9
$UCSORGTOP
 10
0.0
 20
0.0
 30
0.0
  9
$UCSORGBOTTOM
 10
0.0
 20
0.0
 30
0.0
  9
$UCSORGLEFT
 10
0.0
 20
0.0
 30
0.0
  9
$UCSORGRIGHT
 10
0.0
 20
0.0
 30
0.0
  9
$UCSORGFRONT
 10
0.0
 20
0.0
 30
0.0
  9
$UCSORGBACK
 10
0.0
 20
0.0
 30
0.0
  9
$PUCSBASE
  2

  9
$PUCSNAME
  2

  9
$PUCSORG
 10
0.0
 20
0.0
 30
0.0
  9
$PUCSXDIR
 10
1.0
 20
0.0
 30
0.0
  9
$PUCSYDIR
 10
0.0
 20
1.0
 30
0.0
  9
$PUCSORTHOREF
  2

  9
$PUCSORTHOVIEW
 70
     0
  9
$PUCSORGTOP
 10
0.0
 20
0.0
 30
0.0
  9
$PUCSORGBOTTOM
 10
0.0
 20
0.0
 30
0.0
  9
$PUCSORGLEFT
 10
0.0
 20
0.0
 30
0.0
  9
$PUCSORGRIGHT
 10
0.0
 20
0.0
 30
0.0
  9
$PUCSORGFRONT
 10
0.0
 20
0.0
 30
0.0
  9
$PUCSORGBACK
 10
0.0
 20
0.0
 30
0.0
  9
$USERI1
 70
     0
  9
$USERI2
 70
     0
  9
$USERI3
 70
     0
  9
$USERI4
 70
     0
  9
$USERI5
 70
     0
  9
$USERR1
 40
0.0
  9
$USERR2
 40
0.0
  9
$USERR3
 40
0.0
  9
$USERR4
 40
0.0
  9
$USERR5
 40
0.0
  9
$WORLDVIEW
 70
     1
  9
$SHADEDGE
 70
     3
  9
$SHADEDIF
 70
    70
  9
$TILEMODE
 70
     0
  9
$MAXACTVP
 70
    16
  9
$PINSBASE
 10
0.0
 20
0.0
 30
0.0
  9
$PLIMCHECK
 70
     0
  9
$PEXTMIN
 10
0.0137573790166243
 20
0.0000165982637554
 30
0.0
  9
$PEXTMAX
 10
7.986242369867099
 20
10.49998316704296
 30
0.0
  9
$PLIMMIN
 10
-0.2499999962453767
 20
-0.2499999962453767
  9
$PLIMMAX
 10
8.249999763458733
 20
10.74999976345873
  9
$UNITMODE
 70
     0
  9
$VISRETAIN
 70
     0
  9
$PLINEGEN
 70
     1
  9
$PSLTSCALE
 70
     0
  9
$TREEDEPTH
 70
  3020
  9
$CMLSTYLE
  2
STANDARD
  9
$CMLJUST
 70
     0
  9
$CMLSCALE
 40
1.0
  9
$PROXYGRAPHICS
 70
     1
  9
$MEASUREMENT
 70
     0
  9
$CELWEIGHT
370
    -1
  9
$ENDCAPS
280
     0
  9
$JOINSTYLE
280
     0
  9
$LWDISPLAY
290
     0
  9
$INSUNITS
 70
     0
  9
$HYPERLINKBASE
  1

  9
$STYLESHEET
  1

  9
$XEDIT
290
     1
  9
$CEPSNTYPE
380
     0
  9
$PSTYLEMODE
290
     1
  9
$FINGERPRINTGUID
  2
{2E0288D1-63FA-11D6-8A02-00902758FDDF}
  9
$VERSIONGUID
  2
{B0AE52CC-37BD-4A30-80ED-F54187357347}
  9
$EXTNAMES
290
     1
  9
$PSVPSCALE
 40
0.0
  9
$OLESTARTUP
290
     0
  9
$SORTENTS
280
   127
  9
$INDEXCTL
280
     0
  9
$HIDETEXT
280
     0
  9
$XCLIPFRAME
290
     0
  9
$HALOGAP
280
     0
  9
$OBSCOLOR
 70
   257
  9
$OBSLTYPE
280
     0
  9
$INTERSECTIONDISPLAY
280
     0
  9
$INTERSECTIONCOLOR
 70
   257
  9
$DIMASSOC
280
     1
  9
$PROJECTNAME
  1

  9
$CAMERADISPLAY
290
     0
  9
$LENSLENGTH
 40
50.0
  9
$CAMERAHEIGHT
 40
0.0
  9
$STEPSPERSEC
 40
2.0
  9
$STEPSIZE
 40
6.0
  9
$3DDWFPREC
 40
2.0
  9
$PSOLWIDTH
 40
0.25
  9
$PSOLHEIGHT
 40
4.0
  9
$LOFTANG1
 40
1.570796326794896
  9
$LOFTANG2
 40
1.570796326794896
  9
$LOFTMAG1
 40
0.0
  9
$LOFTMAG2
 40
0.0
  9
$LOFTPARAM
 70
     7
  9
$LOFTNORMALS
280
     1
  9
$LATITUDE
 40
37.795
  9
$LONGITUDE
 40
-122.394
  9
$NORTHDIRECTION
 40
0.0
  9
$TIMEZONE
 70
 -8000
  9
$LIGHTGLYPHDISPLAY
280
     1
  9
$TILEMODELIGHTSYNCH
280
     1
  9
$CMATERIAL
347
67F
  9
$SOLIDHIST
280
     1
  9
$SHOWHIST
280
     1
  9
$DWFFRAME
280
     2
  9
$DGNFRAME
280
     0
  9
$REALWORLDSCALE
290
     1
  9
$INTERFERECOLOR
 62
     1
  9
$INTERFEREOBJVS
345
68C
  9
$INTERFEREVPVS
346
689
  9
$CSHADOW
280
     0
  9
$SHADOWPLANELOCATION
 40
0.0
  0
ENDSEC
  0
SECTION
  2
CLASSES
  0
CLASS
  1
IMAGE
  2
AcDbRasterImage
  3
ISM
 90
     2175
 91
        0
280
     0
281
     1
  0
CLASS
  1
DICTIONARYVAR
  2
AcDbDictionaryVar
  3
ObjectDBX Classes
 90
        0
 91
        2
280
     0
281
     0
  0
CLASS
  1
RASTERVARIABLES
  2
AcDbRasterVariables
  3
ISM
 90
        0
 91
        0
280
     0
281
     0
  0
CLASS
  1
IMAGEDEF
  2
AcDbRasterImageDef
  3
ISM
 90
        0
 91
        0
280
     0
281
     0
  0
CLASS
  1
IMAGEDEF_REACTOR
  2
AcDbRasterImageDefReactor
  3
ISM
 90
        1
 91
        0
280
     0
281
     0
  0
CLASS
  1
IDBUFFER
  2
AcDbIdBuffer
  3
ObjectDBX Classes
 90
        0
 91
        0
280
     0
281
     0
  0
CLASS
  1
SPATIAL_FILTER
  2
AcDbSpatialFilter
  3
ObjectDBX Classes
 90
        0
 91
        0
280
     0
281
     0
  0
CLASS
  1
SORTENTSTABLE
  2
AcDbSortentsTable
  3
ObjectDBX Classes
 90
        0
 91
        1
280
     0
281
     0
  0
CLASS
  1
LAYER_INDEX
  2
AcDbLayerIndex
  3
ObjectDBX Classes
 90
        0
 91
        0
280
     0
281
     0
  0
CLASS
  1
SPATIAL_INDEX
  2
AcDbSpatialIndex
  3
ObjectDBX Classes
 90
        0
 91
        0
280
     0
281
     0
  0
CLASS
  1
OBJECT_PTR
  2
CAseDLPNTableRecord
  3
ASE-LPNTableRecord
 90
        1
 91
        0
280
     0
281
     0
  0
CLASS
  1
ACDBDICTIONARYWDFLT
  2
AcDbDictionaryWithDefault
  3
ObjectDBX Classes
 90
        0
 91
        1
280
     0
281
     0
  0
CLASS
  1
TABLESTYLE
  2
AcDbTableStyle
  3
ObjectDBX Classes
 90
     4095
 91
        1
280
     0
281
     0
  0
CLASS
  1
MATERIAL
  2
AcDbMaterial
  3
ObjectDBX Classes
 90
     1153
 91
        3
280
     0
281
     0
  0
CLASS
  1
VISUALSTYLE
  2
AcDbVisualStyle
  3
ObjectDBX Classes
 90
     4095
 91
       16
280
     0
281
     0
  0
CLASS
  1
EXACXREFPANELOBJECT
  2
ExAcXREFPanelObject
  3
EXAC_ESW
 90
     1025
 91
        1
280
     0
281
     0
  0
CLASS
  1
NPOCOLLECTION
  2
AcDbImpNonPersistentObjectsCollection
  3
ObjectDBX Classes
 90
     1153
 91
        1
280
     0
281
     0
  0
ENDSEC
  0
SECTION
  2
TABLES
  0
TABLE
  2
VPORT
  5
7
330
0
100
AcDbSymbolTable
 70
     1
  0
VPORT
  5
67D
330
7
100
AcDbSymbolTableRecord
100
AcDbViewportTableRecord
  2
*Active
 70
     0
 10
0.0
 20
0.0
 11
1.0
 21
1.0
 12
0.4879846823381781
 22
-0.5417742532083257
 13
0.0
 23
0.0
 14
1.0
 24
1.0
 15
0.0
 25
0.0
 16
0.0
 26
0.0
 36
1.0
 17
0.0
 27
0.0
 37
0.0
 40
1.118074897678053
 41
1.739371534195933
 42
50.0
 43
0.0
 44
0.0
 50
0.0
 51
0.0
 71
     0
 72
   100
 73
     1
 74
     1
 75
     0
 76
     0
 77
     0
 78
     0
281
     0
 65
     1
110
0.0
120
0.0
130
0.0
111
1.0
121
0.0
131
0.0
112
0.0
122
1.0
132
0.0
 79
     0
146
0.0
348
688
 60
     3
 61
     5
292
     1
282
     1
141
0.0
142
0.0
 63
   250
421
  3355443
  0
ENDTAB
  0
TABLE
  2
LTYPE
  5
4
330
0
100
AcDbSymbolTable
 70
     4
  0
LTYPE
  5
11
330
4
100
AcDbSymbolTableRecord
100
AcDbLinetypeTableRecord
  2
BYBLOCK
 70
     0
  3

 72
    65
 73
     0
 40
0.0
  0
LTYPE
  5
12
330
4
100
AcDbSymbolTableRecord
100
AcDbLinetypeTableRecord
  2
BYLAYER
 70
     0
  3

 72
    65
 73
     0
 40
0.0
  0
LTYPE
  5
13
330
4
100
AcDbSymbolTableRecord
100
AcDbLinetypeTableRecord
  2
CONTINUOUS
 70
     0
  3
Solid line
 72
    65
 73
     0
 40
0.0
  0
LTYPE
  5
1D
330
4
100
AcDbSymbolTableRecord
100
AcDbLinetypeTableRecord
  2
DASHED
 70
     0
  3
_ _ _ _ _ _ _ _ _ _ _ _ _ _ _ _
 72
    65
 73
     2
 40
0.2
 49
0.1
 74
     0
 49
-0.1
 74
     0
  0
LTYPE
  5
1E
330
4
100
AcDbSymbolTableRecord
100
AcDbLinetypeTableRecord
  2
CENTER
 70
     0
  3
___ _ ___ _ ___ _ ___ _ ___ _ ___ _ ___ _ ___ _
 72
    65
 73
     4
 40
0.95
 49
0.625
 74
     0
 49
-0.125
 74
     0
 49
0.075
 74
     0
 49
-0.125
 74
     0
  0
LTYPE
  5
1F
330
4
100
AcDbSymbolTableRecord
100
AcDbLinetypeTableRecord
  2
PHANTOM
 70
     0
  3
______  __  __  ______  __  __  ______  __  __  
 72
    65
 73
     6
 40
1.024999999999999
 49
0.625
 74
     0
 49
-0.125
 74
     0
 49
0.075
 74
     0
 49
-0.125
 74
     0
 49
0.075
 74
     0
 49
-0.125
 74
     0
  0
ENDTAB
  0
TABLE
  2
LAYER
  5
2
102
{ACAD_XDICTIONARY
360
6AC
102
}
330
0
100
AcDbSymbolTable
 70
     8
  0
LAYER
  5
14
330
2
100
AcDbSymbolTableRecord
100
AcDbLayerTableRecord
  2
0
 70
     0
 62
     7
  6
CONTINUOUS
370
    -3
390
F0
347
681
  0
LAYER
  5
21
330
2
100
AcDbSymbolTableRecord
100
AcDbLayerTableRecord
  2
NOTES
 70
     0
 62
     7
  6
CONTINUOUS
370
    -3
390
F0
347
681
  0
LAYER
  5
22
330
2
100
AcDbSymbolTableRecord
100
AcDbLayerTableRecord
  2
RIGID
 70
     0
 62
     7
  6
CONTINUOUS
370
    -3
390
F0
347
681
  0
LAYER
  5
23
330
2
100
AcDbSymbolTableRecord
100
AcDbLayerTableRecord
  2
FLEXIBLE
 70
     0
 62
     7
  6
CONTINUOUS
370
    -3
390
F0
347
681
  0
LAYER
  5
24
330
2
100
AcDbSymbolTableRecord
100
AcDbLayerTableRecord
  2
AREA
 70
     0
 62
     7
  6
CONTINUOUS
370
    -3
390
F0
347
681
  0
LAYER
  5
25
330
2
100
AcDbSymbolTableRecord
100
AcDbLayerTableRecord
  2
DIMENSIONS
 70
     0
 62
     7
  6
CONTINUOUS
370
    -3
390
F0
347
681
  0
LAYER
  5
26
330
2
100
AcDbSymbolTableRecord
100
AcDbLayerTableRecord
  2
TITLE_BLOCK
 70
     0
 62
     7
  6
CONTINUOUS
370
    -3
390
F0
347
681
  0
LAYER
  5
2E
330
2
100
AcDbSymbolTableRecord
100
AcDbLayerTableRecord
  2
DEFPOINTS
 70
     0
 62
    -7
  6
CONTINUOUS
290
     0
370
    -3
390
F0
347
681
  0
ENDTAB
  0
TABLE
  2
STYLE
  5
3
330
0
100
AcDbSymbolTable
 70
     1
  0
STYLE
  5
17
330
3
100
AcDbSymbolTableRecord
100
AcDbTextStyleTableRecord
  2
STANDARD
 70
     0
 40
0.0
 41
1.0
 50
0.0
 71
     0
 42
0.2
  3
txt
  4

  0
ENDTAB
  0
TABLE
  2
VIEW
  5
5
330
0
100
AcDbSymbolTable
 70
     0
  0
ENDTAB
  0
TABLE
  2
UCS
  5
6
330
0
100
AcDbSymbolTable
 70
     1
  0
UCS
  5
20
330
6
100
AcDbSymbolTableRecord
100
AcDbUCSTableRecord
  2
CK_VIEW_1
 70
     0
 10
0.0
 20
0.0
 30
1.0
 11
1.0
 21
0.0
 31
0.0
 12
0.0
 22
1.0
 32
0.0
 79
     0
146
0.0
  0
ENDTAB
  0
TABLE
  2
APPID
  5
8
330
0
100
AcDbSymbolTable
 70
     3
  0
APPID
  5
16
330
8
100
AcDbSymbolTableRecord
100
AcDbRegAppTableRecord
  2
ACAD
 70
     0
  0
APPID
  5
F9
330
8
100
AcDbSymbolTableRecord
100
AcDbRegAppTableRecord
  2
DCO15
 70
     0
  0
APPID
  5
69C
330
8
100
AcDbSymbolTableRecord
100
AcDbRegAppTableRecord
  2
ACAD_PSEXT
 70
     0
  0
ENDTAB
  0
TABLE
  2
DIMSTYLE
  5
9
330
0
100
AcDbSymbolTable
 70
     7
100
AcDbDimStyleTable
 71
     3
340
18
340
76
340
2A
  0
DIMSTYLE
105
18
330
9
100
AcDbSymbolTableRecord
100
AcDbDimStyleTableRecord
  2
STANDARD
 70
     0
289
     0
340
17
  0
DIMSTYLE
105
2A
102
{ACAD_REACTORS
330
2E8
102
}
330
9
100
AcDbSymbolTableRecord
100
AcDbDimStyleTableRecord
  2
DIMSTYLE1
 70
     0
 41
0.0125
 44
0.0125
140
0.0125
289
     0
340
17
  0
DIMSTYLE
105
3A
330
9
100
AcDbSymbolTableRecord
100
AcDbDimStyleTableRecord
  2
DIMSTYLE2
 70
     0
 41
0.0125
 44
0.0125
140
0.0125
289
     0
340
17
  0
DIMSTYLE
105
49
330
9
100
AcDbSymbolTableRecord
100
AcDbDimStyleTableRecord
  2
DIMSTYLE3
 70
     0
 41
0.0125
 44
0.0125
140
0.0125
289
     0
340
17
  0
DIMSTYLE
105
58
330
9
100
AcDbSymbolTableRecord
100
AcDbDimStyleTableRecord
  2
DIMSTYLE4
 70
     0
 41
0.0125
 44
0.0125
140
0.0125
289
     0
340
17
  0
DIMSTYLE
105
67
330
9
100
AcDbSymbolTableRecord
100
AcDbDimStyleTableRecord
  2
DIMSTYLE5
 70
     0
 41
0.0125
 44
0.0125
140
0.0125
289
     0
340
17
  0
DIMSTYLE
105
76
102
{ACAD_REACTORS
330
79
330
2D
330
5B
330
3D
330
5F8
330
61B
102
}
330
9
100
AcDbSymbolTableRecord
100
AcDbDimStyleTableRecord
  2
DIMSTYLE6
 70
     0
 41
0.0125
 44
0.0125
140
0.0125
289
     0
340
17
  0
ENDTAB
  0
TABLE
  2
BLOCK_RECORD
  5
1
330
0
100
AcDbSymbolTable
 70
     7
  0
BLOCK_RECORD
  5
A
102
{ACAD_XDICTIONARY
360
3BF
102
}
330
1
100
AcDbSymbolTableRecord
100
AcDbBlockTableRecord
  2
*MODEL_SPACE
340
F3
 70
     0
280
     1
281
     0
  0
BLOCK_RECORD
  5
B
330
1
100
AcDbSymbolTableRecord
100
AcDbBlockTableRecord
  2
*PAPER_SPACE
340
F4
 70
     0
280
     1
281
     0
  0
BLOCK_RECORD
  5
2B
330
1
100
AcDbSymbolTableRecord
100
AcDbBlockTableRecord
  2
*D0
340
0
 70
     0
280
     1
281
     0
  0
BLOCK_RECORD
  5
3B
330
1
100
AcDbSymbolTableRecord
100
AcDbBlockTableRecord
  2
*D1
340
0
 70
     0
280
     1
281
     0
  0
BLOCK_RECORD
  5
59
330
1
100
AcDbSymbolTableRecord
100
AcDbBlockTableRecord
  2
*D2
340
0
 70
     0
280
     1
281
     0
  0
BLOCK_RECORD
  5
77
330
1
100
AcDbSymbolTableRecord
100
AcDbBlockTableRecord
  2
*D3
340
0
 70
     0
280
     1
281
     0
  0
BLOCK_RECORD
  5
2E9
330
1
100
AcDbSymbolTableRecord
100
AcDbBlockTableRecord
  2
*D4
340
0
 70
     0
280
     1
281
     0
  0
BLOCK_RECORD
  5
5F9
330
1
100
AcDbSymbolTableRecord
100
AcDbBlockTableRecord
  2
*D5
340
0
 70
     0
280
     1
281
     0
  0
BLOCK_RECORD
  5
61C
330
1
100
AcDbSymbolTableRecord
100
AcDbBlockTableRecord
  2
*D6
340
0
 70
     0
280
     1
281
     0
  0
ENDTAB
  0
ENDSEC
  0
SECTION
  2
BLOCKS
  0
BLOCK
  5
D
330
A
100
AcDbEntity
  8
0
100
AcDbBlockBegin
  2
*MODEL_SPACE
 70
     0
 10
0.0
 20
0.0
 30
0.0
  3
*MODEL_SPACE
  1

  0
ENDBLK
  5
E
330
A
100
AcDbEntity
  8
0
100
AcDbBlockEnd
  0
BLOCK
  5
F
330
B
100
AcDbEntity
 67
     1
  8
0
100
AcDbBlockBegin
  2
*PAPER_SPACE
 70
     0
 10
0.0
 20
0.0
 30
0.0
  3
*PAPER_SPACE
  1

  0
ENDBLK
  5
10
330
B
100
AcDbEntity
 67
     1
  8
0
100
AcDbBlockEnd
  0
BLOCK
  5
2C
330
2B
100
AcDbEntity
  8
0
100
AcDbBlockBegin
  2
*D0
 70
     1
 10
0.0
 20
0.0
 30
0.0
  3
*D0
  1

  0
LINE
  5
5D1
330
2B
100
AcDbEntity
  8
DIMENSIONS
  6
Continuous
 62
     0
370
    -2
100
AcDbLine
 10
0.3761127547930129
 20
-0.6934134672101213
 30
0.0
 11
0.3761127547930129
 21
-0.7840181258550042
 31
0.0
  0
LINE
  5
5D2
330
2B
100
AcDbEntity
  8
DIMENSIONS
  6
Continuous
 62
     0
370
    -2
100
AcDbLine
 10
0.6506127547930138
 20
-0.6934134672101214
 30
0.0
 11
0.6506127547930138
 21
-0.7840181258550042
 31
0.0
  0
LINE
  5
5D3
330
2B
100
AcDbEntity
  8
DIMENSIONS
  6
Continuous
 62
     0
370
    -2
100
AcDbLine
 10
0.3886127547930129
 20
-0.7715181258550042
 30
0.0
 11
0.458308463110921
 21
-0.7715181258550042
 31
0.0
  0
LINE
  5
5D4
330
2B
100
AcDbEntity
  8
DIMENSIONS
  6
Continuous
 62
     0
370
    -2
100
AcDbLine
 10
0.6381127547930139
 20
-0.7715181258550042
 30
0.0
 11
0.555808463110921
 21
-0.7715181258550042
 31
0.0
  0
SOLID
  5
5D5
330
2B
100
AcDbEntity
  8
DIMENSIONS
  6
Continuous
 62
     0
100
AcDbTrace
 10
0.3886127547930129
 20
-0.7694347925216709
 30
0.0
 11
0.3886127547930129
 21
-0.7736014591883375
 31
0.0
 12
0.3761127547930129
 22
-0.7715181258550042
 32
0.0
 13
0.3761127547930129
 23
-0.7715181258550042
 33
0.0
  0
SOLID
  5
5D6
330
2B
100
AcDbEntity
  8
DIMENSIONS
  6
Continuous
 62
     0
100
AcDbTrace
 10
0.6381127547930139
 20
-0.7694347925216709
 30
0.0
 11
0.6381127547930139
 21
-0.7736014591883375
 31
0.0
 12
0.6506127547930138
 22
-0.7715181258550042
 32
0.0
 13
0.6506127547930138
 23
-0.7715181258550042
 33
0.0
  0
MTEXT
  5
5D7
330
2B
100
AcDbEntity
  8
DIMENSIONS
  6
Continuous
 62
     0
100
AcDbMText
 10
0.507058463110921
 20
-0.7715181258550042
 30
0.0
 40
0.0125
 41
0.0
 46
0.0
 71
     5
 72
     1
  1
\A1;.275±.005
 73
     1
 44
1.0
  0
POINT
  5
5D8
330
2B
100
AcDbEntity
  8
DEFPOINTS
  6
Continuous
 62
     0
100
AcDbPoint
 10
0.3761127547930129
 20
-0.6884134672101212
 30
0.0
  0
POINT
  5
5D9
330
2B
100
AcDbEntity
  8
DEFPOINTS
  6
Continuous
 62
     0
100
AcDbPoint
 10
0.6506127547930138
 20
-0.6884134672101214
 30
0.0
  0
POINT
  5
5DA
330
2B
100
AcDbEntity
  8
DEFPOINTS
  6
Continuous
 62
     0
100
AcDbPoint
 10
0.6506127547930138
 20
-0.7715181258550042
 30
0.0
  0
ENDBLK
  5
39
330
2B
100
AcDbEntity
  8
0
100
AcDbBlockEnd
  0
BLOCK
  5
3C
330
3B
100
AcDbEntity
  8
0
100
AcDbBlockBegin
  2
*D1
 70
     1
 10
0.0
 20
0.0
 30
0.0
  3
*D1
  1

  0
LINE
  5
534
330
3B
100
AcDbEntity
  8
DIMENSIONS
  6
Continuous
 62
     0
370
    -2
100
AcDbLine
 10
0.5071127547930134
 20
-0.313413467210121
 30
0.0
 11
0.1484116718395097
 21
-0.313413467210121
 31
0.0
  0
LINE
  5
535
330
3B
100
AcDbEntity
  8
DIMENSIONS
  6
Continuous
 62
     0
370
    -2
100
AcDbLine
 10
0.3771127547930137
 20
-0.6934134672101213
 30
0.0
 11
0.1484116718395097
 21
-0.6934134672101211
 31
0.0
  0
LINE
  5
536
330
3B
100
AcDbEntity
  8
DIMENSIONS
  6
Continuous
 62
     0
370
    -2
100
AcDbLine
 10
0.1609116718395098
 20
-0.325913467210121
 30
0.0
 11
0.1609116718395097
 21
-0.4921634672101212
 31
0.0
  0
LINE
  5
537
330
3B
100
AcDbEntity
  8
DIMENSIONS
  6
Continuous
 62
     0
370
    -2
100
AcDbLine
 10
0.1609116718395097
 20
-0.6809134672101212
 30
0.0
 11
0.1609116718395097
 21
-0.514663467210121
 31
0.0
  0
SOLID
  5
538
330
3B
100
AcDbEntity
  8
DIMENSIONS
  6
Continuous
 62
     0
100
AcDbTrace
 10
0.1588283385061764
 20
-0.325913467210121
 30
0.0
 11
0.1629950051728431
 21
-0.325913467210121
 31
0.0
 12
0.1609116718395098
 22
-0.313413467210121
 32
0.0
 13
0.1609116718395098
 23
-0.313413467210121
 33
0.0
  0
SOLID
  5
539
330
3B
100
AcDbEntity
  8
DIMENSIONS
  6
Continuous
 62
     0
100
AcDbTrace
 10
0.1588283385061764
 20
-0.6809134672101212
 30
0.0
 11
0.162995005172843
 21
-0.6809134672101212
 31
0.0
 12
0.1609116718395097
 22
-0.6934134672101211
 32
0.0
 13
0.1609116718395097
 23
-0.6934134672101211
 33
0.0
  0
MTEXT
  5
53A
330
3B
100
AcDbEntity
  8
DIMENSIONS
  6
Continuous
 62
     0
100
AcDbMText
 10
0.1609116718395098
 20
-0.5034134672101211
 30
0.0
 40
0.0125
 41
0.0
 46
0.0
 71
     5
 72
     1
  1
\A1;.380±.015
 73
     1
 44
1.0
  0
POINT
  5
53B
330
3B
100
AcDbEntity
  8
DEFPOINTS
  6
Continuous
 62
     0
100
AcDbPoint
 10
0.5121127547930135
 20
-0.313413467210121
 30
0.0
  0
POINT
  5
53C
330
3B
100
AcDbEntity
  8
DEFPOINTS
  6
Continuous
 62
     0
100
AcDbPoint
 10
0.3821127547930137
 20
-0.6934134672101213
 30
0.0
  0
POINT
  5
53D
330
3B
100
AcDbEntity
  8
DEFPOINTS
  6
Continuous
 62
     0
100
AcDbPoint
 10
0.1609116718395097
 20
-0.6934134672101211
 30
0.0
  0
ENDBLK
  5
48
330
3B
100
AcDbEntity
  8
0
100
AcDbBlockEnd
  0
BLOCK
  5
5A
330
59
100
AcDbEntity
  8
0
100
AcDbBlockBegin
  2
*D2
 70
     1
 10
0.0
 20
0.0
 30
0.0
  3
*D2
  1

  0
LINE
  5
587
330
59
100
AcDbEntity
  8
DIMENSIONS
  6
Continuous
 62
     0
370
    -2
100
AcDbLine
 10
0.6821127547930132
 20
-0.5214435380952409
 30
0.0
 11
0.6821127547930132
 21
-0.513943538095241
 31
0.0
  0
LINE
  5
588
330
59
100
AcDbEntity
  8
DIMENSIONS
  6
Continuous
 62
     0
370
    -2
100
AcDbLine
 10
0.7121127547930126
 20
-0.5214435380952409
 30
0.0
 11
0.7121127547930126
 21
-0.513943538095241
 31
0.0
  0
LINE
  5
589
330
59
100
AcDbEntity
  8
DIMENSIONS
  6
Continuous
 62
     0
370
    -2
100
AcDbLine
 10
0.6696127547930133
 20
-0.5264435380952409
 30
0.0
 11
0.6571127547930132
 21
-0.5264435380952409
 31
0.0
  0
LINE
  5
58A
330
59
100
AcDbEntity
  8
DIMENSIONS
  6
Continuous
 62
     0
370
    -2
100
AcDbLine
 10
0.7246127547930126
 20
-0.5264435380952409
 30
0.0
 11
0.7371127547930127
 21
-0.5264435380952409
 31
0.0
  0
SOLID
  5
58B
330
59
100
AcDbEntity
  8
DIMENSIONS
  6
Continuous
 62
     0
100
AcDbTrace
 10
0.6696127547930133
 20
-0.5243602047619076
 30
0.0
 11
0.6696127547930133
 21
-0.5285268714285742
 31
0.0
 12
0.6821127547930132
 22
-0.5264435380952409
 32
0.0
 13
0.6821127547930132
 23
-0.5264435380952409
 33
0.0
  0
SOLID
  5
58C
330
59
100
AcDbEntity
  8
DIMENSIONS
  6
Continuous
 62
     0
100
AcDbTrace
 10
0.7246127547930126
 20
-0.5243602047619076
 30
0.0
 11
0.7246127547930126
 21
-0.5285268714285742
 31
0.0
 12
0.7121127547930126
 22
-0.5264435380952409
 32
0.0
 13
0.7121127547930126
 23
-0.5264435380952409
 33
0.0
  0
MTEXT
  5
58D
330
59
100
AcDbEntity
  8
DIMENSIONS
  6
Continuous
 62
     0
100
AcDbMText
 10
0.7837794214596793
 20
-0.5264435380952409
 30
0.0
 40
0.0125
 41
0.0
 46
0.0
 71
     5
 72
     1
  1
\A1;.030±.005
 73
     1
 44
1.0
  0
POINT
  5
58E
330
59
100
AcDbEntity
  8
DEFPOINTS
  6
Continuous
 62
     0
100
AcDbPoint
 10
0.6821127547930132
 20
-0.5264435380952409
 30
0.0
  0
POINT
  5
58F
330
59
100
AcDbEntity
  8
DEFPOINTS
  6
Continuous
 62
     0
100
AcDbPoint
 10
0.7121127547930126
 20
-0.5264435380952409
 30
0.0
  0
POINT
  5
590
330
59
100
AcDbEntity
  8
DEFPOINTS
  6
Continuous
 62
     0
100
AcDbPoint
 10
0.7121127547930126
 20
-0.5264435380952409
 30
0.0
  0
ENDBLK
  5
66
330
59
100
AcDbEntity
  8
0
100
AcDbBlockEnd
  0
BLOCK
  5
78
330
77
100
AcDbEntity
  8
0
100
AcDbBlockBegin
  2
*D3
 70
     1
 10
0.0
 20
0.0
 30
0.0
  3
*D3
  1

  0
LINE
  5
5A0
330
77
100
AcDbEntity
  8
DIMENSIONS
  6
Continuous
 62
     0
370
    -2
100
AcDbLine
 10
0.312112754793014
 20
-0.4984134672101211
 30
0.0
 11
0.312112754793014
 21
-0.2298373970570529
 31
0.0
  0
LINE
  5
5A1
330
77
100
AcDbEntity
  8
DIMENSIONS
  6
Continuous
 62
     0
370
    -2
100
AcDbLine
 10
0.7121127547930133
 20
-0.4984134672101211
 30
0.0
 11
0.7121127547930133
 21
-0.2298373970570529
 31
0.0
  0
LINE
  5
5A2
330
77
100
AcDbEntity
  8
DIMENSIONS
  6
Continuous
 62
     0
370
    -2
100
AcDbLine
 10
0.324612754793014
 20
-0.2423373970570529
 30
0.0
 11
0.4544833939494801
 21
-0.2423373970570529
 31
0.0
  0
LINE
  5
5A3
330
77
100
AcDbEntity
  8
DIMENSIONS
  6
Continuous
 62
     0
370
    -2
100
AcDbLine
 10
0.6996127547930133
 20
-0.2423373970570529
 30
0.0
 11
0.5457333939494803
 21
-0.2423373970570529
 31
0.0
  0
SOLID
  5
5A4
330
77
100
AcDbEntity
  8
DIMENSIONS
  6
Continuous
 62
     0
100
AcDbTrace
 10
0.324612754793014
 20
-0.2402540637237196
 30
0.0
 11
0.324612754793014
 21
-0.2444207303903863
 31
0.0
 12
0.312112754793014
 22
-0.2423373970570529
 32
0.0
 13
0.312112754793014
 23
-0.2423373970570529
 33
0.0
  0
SOLID
  5
5A5
330
77
100
AcDbEntity
  8
DIMENSIONS
  6
Continuous
 62
     0
100
AcDbTrace
 10
0.6996127547930133
 20
-0.2402540637237196
 30
0.0
 11
0.6996127547930133
 21
-0.2444207303903863
 31
0.0
 12
0.7121127547930133
 22
-0.2423373970570529
 32
0.0
 13
0.7121127547930133
 23
-0.2423373970570529
 33
0.0
  0
MTEXT
  5
5A6
330
77
100
AcDbEntity
  8
DIMENSIONS
  6
Continuous
 62
     0
100
AcDbMText
 10
0.5001083939494802
 20
-0.2423373970570529
 30
0.0
 40
0.0125
 41
0.0
 46
0.0
 71
     5
 72
     1
  1
\A1;.400±.015
 73
     1
 44
1.0
  0
POINT
  5
5A7
330
77
100
AcDbEntity
  8
DEFPOINTS
  6
Continuous
 62
     0
100
AcDbPoint
 10
0.312112754793014
 20
-0.5034134672101211
 30
0.0
  0
POINT
  5
5A8
330
77
100
AcDbEntity
  8
DEFPOINTS
  6
Continuous
 62
     0
100
AcDbPoint
 10
0.7121127547930133
 20
-0.5034134672101211
 30
0.0
  0
POINT
  5
5A9
330
77
100
AcDbEntity
  8
DEFPOINTS
  6
Continuous
 62
     0
100
AcDbPoint
 10
0.7121127547930133
 20
-0.2423373970570529
 30
0.0
  0
ENDBLK
  5
84
330
77
100
AcDbEntity
  8
0
100
AcDbBlockEnd
  0
BLOCK
  5
2F5
330
2E9
100
AcDbEntity
  8
0
 62
     1
100
AcDbBlockBegin
  2
*D4
 70
     1
 10
0.0
 20
0.0
 30
0.0
  3
*D4
  1

  0
LINE
  5
53E
330
2E9
100
AcDbEntity
  8
0
  6
Continuous
 62
     0
370
    -2
100
AcDbLine
 10
0.3196127547930136
 20
-0.6584134672101208
 30
0.0
 11
0.2513061277956377
 21
-0.6584134672101208
 31
0.0
  0
LINE
  5
53F
330
2E9
100
AcDbEntity
  8
0
  6
Continuous
 62
     0
370
    -2
100
AcDbLine
 10
0.3196127547930136
 20
-0.6934134672101213
 30
0.0
 11
0.2513061277956377
 21
-0.6934134672101213
 31
0.0
  0
LINE
  5
540
330
2E9
100
AcDbEntity
  8
0
  6
Continuous
 62
     0
370
    -2
100
AcDbLine
 10
0.2638061277956377
 20
-0.6459134672101208
 30
0.0
 11
0.2638061277956377
 21
-0.6334134672101208
 31
0.0
  0
LINE
  5
541
330
2E9
100
AcDbEntity
  8
0
  6
Continuous
 62
     0
370
    -2
100
AcDbLine
 10
0.2638061277956377
 20
-0.7059134672101212
 30
0.0
 11
0.2638061277956377
 21
-0.7184134672101213
 31
0.0
  0
SOLID
  5
542
330
2E9
100
AcDbEntity
  8
0
  6
Continuous
 62
     0
100
AcDbTrace
 10
0.2617227944623044
 20
-0.6459134672101208
 30
0.0
 11
0.265889461128971
 21
-0.6459134672101208
 31
0.0
 12
0.2638061277956377
 22
-0.6584134672101208
 32
0.0
 13
0.2638061277956377
 23
-0.6584134672101208
 33
0.0
  0
SOLID
  5
543
330
2E9
100
AcDbEntity
  8
0
  6
Continuous
 62
     0
100
AcDbTrace
 10
0.2617227944623044
 20
-0.7059134672101212
 30
0.0
 11
0.265889461128971
 21
-0.7059134672101212
 31
0.0
 12
0.2638061277956377
 22
-0.6934134672101213
 32
0.0
 13
0.2638061277956377
 23
-0.6934134672101213
 33
0.0
  0
MTEXT
  5
544
330
2E9
100
AcDbEntity
  8
0
  6
Continuous
 62
     0
100
AcDbMText
 10
0.2638061277956378
 20
-0.6759134672101208
 30
0.0
 40
0.0125
 41
0.0
 46
0.0
 71
     5
 72
     1
  1
\A1;.035±.004
 73
     1
 44
1.0
  0
POINT
  5
545
330
2E9
100
AcDbEntity
  8
DEFPOINTS
  6
Continuous
 62
     0
100
AcDbPoint
 10
0.3821127547930137
 20
-0.6584134672101208
 30
0.0
  0
POINT
  5
546
330
2E9
100
AcDbEntity
  8
DEFPOINTS
  6
Continuous
 62
     0
100
AcDbPoint
 10
0.3821127547930137
 20
-0.6934134672101213
 30
0.0
  0
POINT
  5
547
330
2E9
100
AcDbEntity
  8
DEFPOINTS
  6
Continuous
 62
     0
100
AcDbPoint
 10
0.2638061277956377
 20
-0.6934134672101213
 30
0.0
  0
ENDBLK
  5
2F6
330
2E9
100
AcDbEntity
  8
0
 62
     1
100
AcDbBlockEnd
  0
BLOCK
  5
604
330
5F9
100
AcDbEntity
  8
0
 62
     1
100
AcDbBlockBegin
  2
*D5
 70
     1
 10
0.0
 20
0.0
 30
0.0
  3
*D5
  1

  0
LINE
  5
606
330
5F9
100
AcDbEntity
  8
DIMENSIONS
  6
Continuous
 62
     0
370
    -2
100
AcDbLine
 10
0.4371127547930127
 20
-0.6634134672101211
 30
0.0
 11
0.4371127547930127
 21
-0.7460932193467496
 31
0.0
  0
LINE
  5
607
330
5F9
100
AcDbEntity
  8
DIMENSIONS
  6
Continuous
 62
     0
370
    -2
100
AcDbLine
 10
0.5871127547930141
 20
-0.663413467210121
 30
0.0
 11
0.5871127547930141
 21
-0.7460932193467496
 31
0.0
  0
LINE
  5
608
330
5F9
100
AcDbEntity
  8
DIMENSIONS
  6
Continuous
 62
     0
370
    -2
100
AcDbLine
 10
0.4496127547930127
 20
-0.7335932193467496
 30
0.0
 11
0.4664877547930133
 21
-0.7335932193467496
 31
0.0
  0
LINE
  5
609
330
5F9
100
AcDbEntity
  8
DIMENSIONS
  6
Continuous
 62
     0
370
    -2
100
AcDbLine
 10
0.5746127547930141
 20
-0.7335932193467496
 30
0.0
 11
0.5577377547930134
 21
-0.7335932193467496
 31
0.0
  0
SOLID
  5
60A
330
5F9
100
AcDbEntity
  8
DIMENSIONS
  6
Continuous
 62
     0
100
AcDbTrace
 10
0.4496127547930127
 20
-0.7315098860134163
 30
0.0
 11
0.4496127547930127
 21
-0.7356765526800829
 31
0.0
 12
0.4371127547930127
 22
-0.7335932193467496
 32
0.0
 13
0.4371127547930127
 23
-0.7335932193467496
 33
0.0
  0
SOLID
  5
60B
330
5F9
100
AcDbEntity
  8
DIMENSIONS
  6
Continuous
 62
     0
100
AcDbTrace
 10
0.5746127547930141
 20
-0.7315098860134163
 30
0.0
 11
0.5746127547930141
 21
-0.7356765526800829
 31
0.0
 12
0.5871127547930141
 22
-0.7335932193467496
 32
0.0
 13
0.5871127547930141
 23
-0.7335932193467496
 33
0.0
  0
MTEXT
  5
60C
330
5F9
100
AcDbEntity
  8
DIMENSIONS
  6
Continuous
 62
     0
100
AcDbMText
 10
0.5121127547930133
 20
-0.7335932193467496
 30
0.0
 40
0.0125
 41
0.0
 46
0.0
 71
     5
 72
     1
  1
\A1;.150±.005
 73
     1
 44
1.0
  0
POINT
  5
60D
330
5F9
100
AcDbEntity
  8
DEFPOINTS
  6
Continuous
 62
     0
100
AcDbPoint
 10
0.4371127547930127
 20
-0.6584134672101211
 30
0.0
  0
POINT
  5
60E
330
5F9
100
AcDbEntity
  8
DEFPOINTS
  6
Continuous
 62
     0
100
AcDbPoint
 10
0.5871127547930141
 20
-0.6584134672101209
 30
0.0
  0
POINT
  5
60F
330
5F9
100
AcDbEntity
  8
DEFPOINTS
  6
Continuous
 62
     0
100
AcDbPoint
 10
0.5871127547930141
 20
-0.7335932193467496
 30
0.0
  0
ENDBLK
  5
605
330
5F9
100
AcDbEntity
  8
0
 62
     1
100
AcDbBlockEnd
  0
BLOCK
  5
628
330
61C
100
AcDbEntity
  8
0
 62
     1
100
AcDbBlockBegin
  2
*D6
 70
     1
 10
0.0
 20
0.0
 30
0.0
  3
*D6
  1

  0
LINE
  5
672
330
61C
100
AcDbEntity
  8
DIMENSIONS
  6
Continuous
 62
     0
370
    -2
100
AcDbLine
 10
0.6506127547930138
 20
-0.6584134672101209
 30
0.0
 11
0.7822793082040086
 21
-0.6584134672101211
 31
0.0
  0
LINE
  5
673
330
61C
100
AcDbEntity
  8
DIMENSIONS
  6
Continuous
 62
     0
370
    -2
100
AcDbLine
 10
0.6218000533592491
 20
-0.6020012519081125
 30
0.0
 11
0.7822793082040086
 21
-0.6020012519081126
 31
0.0
  0
LINE
  5
674
330
61C
100
AcDbEntity
  8
DIMENSIONS
  6
Continuous
 62
     0
370
    -2
100
AcDbLine
 10
0.7697793082040087
 20
-0.6459134672101211
 30
0.0
 11
0.7697793082040087
 21
-0.6414573595591168
 31
0.0
  0
LINE
  5
675
330
61C
100
AcDbEntity
  8
DIMENSIONS
  6
Continuous
 62
     0
370
    -2
100
AcDbLine
 10
0.7697793082040087
 20
-0.6145012519081125
 30
0.0
 11
0.7697793082040087
 21
-0.6189573595591168
 31
0.0
  0
SOLID
  5
676
330
61C
100
AcDbEntity
  8
DIMENSIONS
  6
Continuous
 62
     0
100
AcDbTrace
 10
0.7676959748706754
 20
-0.6459134672101211
 30
0.0
 11
0.771862641537342
 21
-0.6459134672101211
 31
0.0
 12
0.7697793082040087
 22
-0.6584134672101211
 32
0.0
 13
0.7697793082040087
 23
-0.6584134672101211
 33
0.0
  0
SOLID
  5
677
330
61C
100
AcDbEntity
  8
DIMENSIONS
  6
Continuous
 62
     0
100
AcDbTrace
 10
0.7676959748706754
 20
-0.6145012519081125
 30
0.0
 11
0.771862641537342
 21
-0.6145012519081125
 31
0.0
 12
0.7697793082040087
 22
-0.6020012519081126
 32
0.0
 13
0.7697793082040087
 23
-0.6020012519081126
 33
0.0
  0
MTEXT
  5
678
330
61C
100
AcDbEntity
  8
DIMENSIONS
  6
Continuous
 62
     0
100
AcDbMText
 10
0.7697793082040088
 20
-0.6302073595591166
 30
0.0
 40
0.0125
 41
0.0
 46
0.0
 71
     5
 72
     1
  1
\A1;.056
 73
     1
 44
1.0
  0
POINT
  5
679
330
61C
100
AcDbEntity
  8
DEFPOINTS
  6
Continuous
 62
     0
100
AcDbPoint
 10
0.6456127547930138
 20
-0.6584134672101209
 30
0.0
  0
POINT
  5
67A
330
61C
100
AcDbEntity
  8
DEFPOINTS
  6
Continuous
 62
     0
100
AcDbPoint
 10
0.6168000533592491
 20
-0.6020012519081125
 30
0.0
  0
POINT
  5
67B
330
61C
100
AcDbEntity
  8
DEFPOINTS
  6
Continuous
 62
     0
100
AcDbPoint
 10
0.7697793082040087
 20
-0.6020012519081126
 30
0.0
  0
ENDBLK
  5
629
330
61C
100
AcDbEntity
  8
0
 62
     1
100
AcDbBlockEnd
  0
ENDSEC
  0
SECTION
  2
ENTITIES
  0
TEXT
  5
27
330
A
100
AcDbEntity
  8
TITLE_BLOCK
  6
Continuous
 62
     7
100
AcDbText
 10
0.7217021418054572
 20
-0.9348446338218909
 30
0.0
 40
0.01875
  1
INC
 50
90.00000000000005
 41
0.5
100
AcDbText
  0
LINE
  5
28
330
A
100
AcDbEntity
  8
TITLE_BLOCK
  6
Continuous
 62
     7
100
AcDbLine
 10
0.9130000000000002
 20
-1.088891400215366
 30
0.0
 11
0.9130000000000002
 21
0.0111085997846336
 31
0.0
  0
LINE
  5
29
330
A
100
AcDbEntity
  8
TITLE_BLOCK
  6
Continuous
 62
     7
100
AcDbLine
 10
0.9130000000000002
 20
0.0111085997846336
 30
0.0
 11
0.0630000000000003
 21
0.0111085997846336
 31
0.0
  0
DIMENSION
  5
2D
330
A
100
AcDbEntity
  8
DIMENSIONS
  6
Continuous
 62
     1
100
AcDbDimension
  2
*D0
 10
0.6506127547930138
 20
-0.7715181258550042
 30
0.0
 11
0.507058463110921
 21
-0.7715181258550042
 31
0.0
 70
   160
 71
     5
 42
0.274500000000001
 73
     0
 74
     0
 75
     0
  3
DIMSTYLE6
100
AcDbAlignedDimension
 13
0.3761127547930129
 23
-0.6884134672101212
 33
0.0
 14
0.6506127547930138
 24
-0.6884134672101214
 34
0.0
100
AcDbRotatedDimension
1001
ACAD
1000
DSTYLE
1002
{
1070
    42
1040
0.005
1070
    47
1040
0.005
1070
    48
1040
0.005
1070
    71
1070
     1
1070
    78
1070
     4
1070
   147
1040
0.005
1070
   271
1070
     3
1070
   272
1070
     3
1070
   284
1070
     4
1002
}
  0
DIMENSION
  5
3D
330
A
100
AcDbEntity
  8
DIMENSIONS
  6
Continuous
 62
     1
100
AcDbDimension
  2
*D1
 10
0.1609116718395097
 20
-0.6934134672101211
 30
0.0
 11
0.1609116718395098
 21
-0.5034134672101211
 31
0.0
 70
   160
 71
     5
 42
0.3800000000000002
 73
     0
 74
     0
 75
     0
  3
DIMSTYLE6
100
AcDbAlignedDimension
 13
0.5121127547930135
 23
-0.313413467210121
 33
0.0
 14
0.3821127547930137
 24
-0.6934134672101213
 34
0.0
 50
90.0
100
AcDbRotatedDimension
1001
ACAD
1000
DSTYLE
1002
{
1070
    42
1040
0.005
1070
    47
1040
0.015
1070
    48
1040
0.015
1070
    71
1070
     1
1070
    78
1070
     4
1070
   147
1040
0.005
1070
   271
1070
     3
1070
   272
1070
     3
1070
   284
1070
     4
1002
}
  0
DIMENSION
  5
5B
330
A
100
AcDbEntity
  8
DIMENSIONS
  6
Continuous
 62
     1
100
AcDbDimension
  2
*D2
 10
0.7121127547930126
 20
-0.5264435380952409
 30
0.0
 11
0.7837794214596793
 21
-0.5264435380952409
 31
0.0
 70
    32
 71
     5
 42
0.0299999999999994
 73
     0
 74
     0
 75
     0
  3
DIMSTYLE6
100
AcDbAlignedDimension
 13
0.6821127547930132
 23
-0.5264435380952409
 33
0.0
 14
0.7121127547930126
 24
-0.5264435380952409
 34
0.0
100
AcDbRotatedDimension
1001
ACAD
1000
DSTYLE
1002
{
1070
    42
1040
0.005
1070
    47
1040
0.005
1070
    48
1040
0.005
1070
    71
1070
     1
1070
    78
1070
     4
1070
   147
1040
0.005
1070
   271
1070
     3
1070
   272
1070
     3
1070
   284
1070
     4
1002
}
  0
DIMENSION
  5
79
330
A
100
AcDbEntity
  8
DIMENSIONS
  6
Continuous
 62
     1
100
AcDbDimension
  2
*D3
 10
0.7121127547930133
 20
-0.2423373970570529
 30
0.0
 11
0.5001083939494802
 21
-0.2423373970570529
 31
0.0
 70
   160
 71
     5
 42
0.3999999999999992
 73
     0
 74
     0
 75
     0
  3
DIMSTYLE6
100
AcDbAlignedDimension
 13
0.312112754793014
 23
-0.5034134672101211
 33
0.0
 14
0.7121127547930133
 24
-0.5034134672101211
 34
0.0
100
AcDbRotatedDimension
1001
ACAD
1000
DSTYLE
1002
{
1070
    42
1040
0.005
1070
   284
1070
     4
1070
   272
1070
     3
1070
    47
1040
0.015
1070
   147
1040
0.005
1070
    48
1040
0.015
1070
    72
1070
     0
1070
    71
1070
     1
1070
    78
1070
     4
1070
   271
1070
     3
1002
}
  0
LINE
  5
87
330
A
100
AcDbEntity
  8
FLEXIBLE
  6
Continuous
 62
     5
100
AcDbLine
 10
0.7121127547930126
 20
-0.5494736089803608
 30
0.0
 11
0.7121127547930126
 21
-0.5034134672101211
 31
0.0
  0
LINE
  5
8B
330
A
100
AcDbEntity
  8
FLEXIBLE
  6
Continuous
 62
     6
100
AcDbLine
 10
0.4371127547930127
 20
-0.6584134672101211
 30
0.0
 11
0.4371127547930128
 21
-0.6184134672101204
 31
0.0
  0
LINE
  5
8C
330
A
100
AcDbEntity
  8
FLEXIBLE
  6
Continuous
 62
     6
100
AcDbLine
 10
0.5871127547930141
 20
-0.6584134672101209
 30
0.0
 11
0.5871127547930141
 21
-0.6184134672101204
 31
0.0
  0
LINE
  5
8D
330
A
100
AcDbEntity
  8
FLEXIBLE
  6
Continuous
 62
     6
100
AcDbLine
 10
0.4371127547930128
 20
-0.6584134672101211
 30
0.0
 11
0.3811127547930137
 21
-0.6584134672101209
 31
0.0
  0
LINE
  5
8E
330
A
100
AcDbEntity
  8
FLEXIBLE
  6
Continuous
 62
     5
100
AcDbLine
 10
0.6664705419303953
 20
-0.5992833438849484
 30
0.0
 11
0.6043388802126778
 21
-0.6047191599312761
 31
0.0
  0
ARC
  5
90
330
A
100
AcDbEntity
  8
FLEXIBLE
  6
Continuous
 62
     5
100
AcDbCircle
 10
0.6621127547930119
 20
-0.5494736089803608
 30
0.0
 40
0.05
100
AcDbArc
 50
275.0000000000006
 51
360.0
  0
LINE
  5
93
330
A
100
AcDbEntity
  8
FLEXIBLE
  6
Continuous
 62
     5
100
AcDbLine
 10
0.5608029265057649
 20
-0.5784134672101203
 30
0.0
 11
0.4634225830802618
 21
-0.5784134672101203
 31
0.0
  0
LINE
  5
98
330
A
100
AcDbEntity
  8
FLEXIBLE
  6
Continuous
 62
     5
100
AcDbLine
 10
0.6821127547930132
 20
-0.5034134672101211
 30
0.0
 11
0.6821127547930132
 21
-0.5494736089803608
 31
0.0
  0
ARC
  5
99
330
A
100
AcDbEntity
  8
FLEXIBLE
  6
Continuous
 62
     5
100
AcDbCircle
 10
0.6621127547930119
 20
-0.5494736089803608
 30
0.0
 40
0.0200000000000014
100
AcDbArc
 50
275.0000000000007
 51
360.0000000000001
  0
LINE
  5
9A
330
A
100
AcDbEntity
  8
FLEXIBLE
  6
Continuous
 62
     5
100
AcDbLine
 10
0.6638558696479653
 20
-0.5693975029421964
 30
0.0
 11
0.5608029265057649
 21
-0.5784134672101203
 31
0.0
  0
ARC
  5
9B
330
A
100
AcDbEntity
  8
FLEXIBLE
  6
Continuous
 62
     6
100
AcDbCircle
 10
0.3811127547930137
 20
-0.6634134672101208
 30
0.0
 40
0.005
100
AcDbArc
 50
90.0
 51
180.0
  0
ARC
  5
9C
330
A
100
AcDbEntity
  8
FLEXIBLE
  6
Continuous
 62
     6
100
AcDbCircle
 10
0.3811127547930129
 20
-0.6884134672101212
 30
0.0
 40
0.005
100
AcDbArc
 50
180.0
 51
270.0
  0
ARC
  5
9D
330
A
100
AcDbEntity
  8
FLEXIBLE
  6
Continuous
 62
     6
100
AcDbCircle
 10
0.6456127547930138
 20
-0.6884134672101214
 30
0.0
 40
0.005
100
AcDbArc
 50
270.0
 51
0.0
  0
ARC
  5
9E
330
A
100
AcDbEntity
  8
FLEXIBLE
  6
Continuous
 62
     6
100
AcDbCircle
 10
0.6456127547930138
 20
-0.6634134672101208
 30
0.0
 40
0.005
100
AcDbArc
 50
0.0
 51
90.0
  0
ARC
  5
9F
330
A
100
AcDbEntity
  8
FLEXIBLE
  6
Continuous
 62
     6
100
AcDbCircle
 10
0.4471127547930128
 20
-0.6184134672101204
 30
0.0
 40
0.01
100
AcDbArc
 50
90.0
 51
180.0
  0
ARC
  5
A0
330
A
100
AcDbEntity
  8
FLEXIBLE
  6
Continuous
 62
     6
100
AcDbCircle
 10
0.5771127547930141
 20
-0.6184134672101204
 30
0.0
 40
0.01
100
AcDbArc
 50
0.0
 51
90.0
  0
ARC
  5
A1
330
A
100
AcDbEntity
  8
FLEXIBLE
  6
Continuous
 62
     5
100
AcDbCircle
 10
0.4171127547930127
 20
-0.6245258663665361
 30
0.0
 40
0.02
100
AcDbArc
 50
0.0000000000006361
 51
82.02773497082914
  0
ARC
  5
A2
330
A
100
AcDbEntity
  8
FLEXIBLE
  6
Continuous
 62
     5
100
AcDbCircle
 10
0.6071127547930137
 20
-0.6245258663665361
 30
0.0
 40
0.02
100
AcDbArc
 50
97.97226502916885
 51
180.0
  0
LINE
  5
A4
330
A
100
AcDbEntity
  8
TITLE_BLOCK
  6
Continuous
 62
     7
100
AcDbLine
 10
0.0700000000000003
 20
-1.087657111350407
 30
0.0
 11
0.0630000000000003
 21
-1.094657111350407
 31
0.0
  0
LINE
  5
A5
330
A
100
AcDbEntity
  8
TITLE_BLOCK
  6
Continuous
 62
     7
100
AcDbLine
 10
0.0700000000000003
 20
-1.087657111350407
 30
0.0
 11
0.0630000000000003
 21
-1.088891400215366
 31
0.0
  0
LINE
  5
A6
330
A
100
AcDbEntity
  8
TITLE_BLOCK
  6
Continuous
 62
     7
100
AcDbLine
 10
0.0700000000000003
 20
-1.087657111350407
 30
0.0
 11
0.0630000000000003
 21
-1.094657111350407
 31
0.0
  0
LINE
  5
A7
330
A
100
AcDbEntity
  8
TITLE_BLOCK
  6
Continuous
 62
     7
100
AcDbLine
 10
0.0700000000000003
 20
-1.087657111350407
 30
0.0
 11
0.0630000000000003
 21
-1.088891400215366
 31
0.0
  0
LINE
  5
A8
330
A
100
AcDbEntity
  8
TITLE_BLOCK
  6
Continuous
 62
     7
100
AcDbLine
 10
0.9130000000000002
 20
0.0111085997846333
 30
0.0
 11
0.0630000000000003
 21
0.0111085997846333
 31
0.0
  0
LINE
  5
A9
330
A
100
AcDbEntity
  8
TITLE_BLOCK
  6
Continuous
 62
     7
100
AcDbLine
 10
0.0630000000000003
 20
-1.088891400215366
 30
0.0
 11
0.0630000000000003
 21
0.0111085997846333
 31
0.0
  0
LINE
  5
AA
330
A
100
AcDbEntity
  8
TITLE_BLOCK
  6
Continuous
 62
     7
100
AcDbLine
 10
0.9130000000000002
 20
-1.088891400215366
 30
0.0
 11
0.9130000000000002
 21
0.0111085997846333
 31
0.0
  0
LINE
  5
AB
330
A
100
AcDbEntity
  8
TITLE_BLOCK
  6
Continuous
 62
     7
100
AcDbLine
 10
0.9130000000000002
 20
-1.088891400215366
 30
0.0
 11
0.0630000000000003
 21
-1.088891400215366
 31
0.0
  0
LINE
  5
AC
330
A
100
AcDbEntity
  8
TITLE_BLOCK
  6
Continuous
 62
     7
100
AcDbLine
 10
0.0880000000000003
 20
-0.0138914002153666
 30
0.0
 11
0.8880000000000002
 21
-0.0138914002153666
 31
0.0
  0
LINE
  5
AD
330
A
100
AcDbEntity
  8
TITLE_BLOCK
  6
Continuous
 62
     7
100
AcDbLine
 10
0.8880000000000002
 20
-0.0138914002153666
 30
0.0
 11
0.8880000000000002
 21
-1.063891400215366
 31
0.0
  0
LINE
  5
AE
330
A
100
AcDbEntity
  8
TITLE_BLOCK
  6
Continuous
 62
     7
100
AcDbLine
 10
0.8880000000000002
 20
-1.063891400215366
 30
0.0
 11
0.0880000000000003
 21
-1.063891400215366
 31
0.0
  0
LINE
  5
AF
330
A
100
AcDbEntity
  8
TITLE_BLOCK
  6
Continuous
 62
     7
100
AcDbLine
 10
0.0880000000000003
 20
-1.063891400215366
 30
0.0
 11
0.0880000000000003
 21
-0.0138914002153666
 31
0.0
  0
LINE
  5
B0
330
A
100
AcDbEntity
  8
TITLE_BLOCK
  6
Continuous
 62
     7
100
AcDbLine
 10
0.0880000000000003
 20
-0.9013914002153665
 30
0.0
 11
0.8880000000000002
 21
-0.9013914002153665
 31
0.0
  0
LINE
  5
B1
330
A
100
AcDbEntity
  8
TITLE_BLOCK
  6
Continuous
 62
     7
100
AcDbLine
 10
0.5880000000000003
 20
-0.9388914002153665
 30
0.0
 11
0.8880000000000002
 21
-0.9388914002153665
 31
0.0
  0
LINE
  5
B2
330
A
100
AcDbEntity
  8
TITLE_BLOCK
  6
Continuous
 62
     7
100
AcDbLine
 10
0.4880000000000003
 20
-0.9013914002153665
 30
0.0
 11
0.4880000000000003
 21
-0.9763914002153667
 31
0.0
  0
LINE
  5
B3
330
A
100
AcDbEntity
  8
TITLE_BLOCK
  6
Continuous
 62
     7
100
AcDbLine
 10
0.5880000000000003
 20
-1.026391400215366
 30
0.0
 11
0.8880000000000002
 21
-1.026391400215366
 31
0.0
  0
LINE
  5
B4
330
A
100
AcDbEntity
  8
TITLE_BLOCK
  6
Continuous
 62
     7
100
AcDbLine
 10
0.7880000000000003
 20
-1.026391400215366
 30
0.0
 11
0.7880000000000003
 21
-1.063891400215366
 31
0.0
  0
LINE
  5
B6
330
A
100
AcDbEntity
  8
TITLE_BLOCK
  6
Continuous
 62
     7
100
AcDbLine
 10
0.3880000000000002
 20
-0.9013914002153665
 30
0.0
 11
0.3880000000000003
 21
-0.9763914002153665
 31
0.0
  0
LINE
  5
B7
330
A
100
AcDbEntity
  8
TITLE_BLOCK
  6
Continuous
 62
     7
100
AcDbLine
 10
0.2880000000000002
 20
-0.9763914002153665
 30
0.0
 11
0.4880000000000003
 21
-0.9763914002153665
 31
0.0
  0
TEXT
  5
B9
330
A
100
AcDbEntity
  8
TITLE_BLOCK
  6
Continuous
 62
     7
100
AcDbText
 10
0.6005000000000003
 20
-0.9326414002153665
 30
0.0
 40
0.025
  1
ULTRAFAB
 41
0.5
100
AcDbText
  0
TEXT
  5
BA
330
A
100
AcDbEntity
  8
TITLE_BLOCK
  6
Continuous
 62
     7
100
AcDbText
 10
0.7343483375761786
 20
-0.9244208976310881
 30
0.0
 40
0.01
  1
Extruded Components Division
 41
0.5
100
AcDbText
  0
TEXT
  5
BB
330
A
100
AcDbEntity
  8
TITLE_BLOCK
  6
Continuous
 62
     7
100
AcDbText
 10
0.5942500000000003
 20
-0.9576414002153665
 30
0.0
 40
0.01
  1
TITLE:
 41
0.5
100
AcDbText
  0
TEXT
  5
BC
330
A
100
AcDbEntity
  8
TITLE_BLOCK
  6
Continuous
 62
     7
100
AcDbText
 10
0.5942500000000003
 20
-1.045141400215366
 30
0.0
 40
0.01
  1
PART NO.:
 41
0.5
100
AcDbText
  0
TEXT
  5
BD
330
A
100
AcDbEntity
  8
TITLE_BLOCK
  6
Continuous
 62
     7
100
AcDbText
 10
0.7942500000000003
 20
-1.045141400215366
 30
0.0
 40
0.01
  1
REV.:
 41
0.5
100
AcDbText
  0
LINE
  5
C1
330
A
100
AcDbEntity
  8
TITLE_BLOCK
  6
Continuous
 62
     7
100
AcDbLine
 10
0.2880000000000002
 20
-0.9263914002153665
 30
0.0
 11
0.3880000000000002
 21
-0.9263914002153665
 31
0.0
  0
LINE
  5
C2
330
A
100
AcDbEntity
  8
TITLE_BLOCK
  6
Continuous
 62
     7
100
AcDbLine
 10
0.2880000000000002
 20
-0.9513914002153665
 30
0.0
 11
0.3880000000000002
 21
-0.9513914002153665
 31
0.0
  0
LINE
  5
C3
330
A
100
AcDbEntity
  8
TITLE_BLOCK
  6
Continuous
 62
     7
100
AcDbLine
 10
0.4880000000000003
 20
-0.9763914002153665
 30
0.0
 11
0.5880000000000003
 21
-0.9763914002153665
 31
0.0
  0
TEXT
  5
C4
330
A
100
AcDbEntity
  8
TITLE_BLOCK
  6
Continuous
 62
     7
100
AcDbText
 10
0.4942500000000003
 20
-0.9138914002153665
 30
0.0
 40
0.00625
  1
COLOR:
 41
0.5
100
AcDbText
  0
TEXT
  5
C5
330
A
100
AcDbEntity
  8
TITLE_BLOCK
  6
Continuous
 62
     7
100
AcDbText
 10
0.2942500000000002
 20
-0.9388914002153665
 30
0.0
 40
0.00625
  1
SIZE:
 41
0.5
100
AcDbText
  0
TEXT
  5
C7
330
A
100
AcDbEntity
  8
TITLE_BLOCK
  6
Continuous
 62
     7
100
AcDbText
 10
0.0942500000000003
 20
-0.9201414002153665
 30
0.0
 40
0.01
  1
CUSTOMER APPROVAL:
 41
0.5
100
AcDbText
  0
LINE
  5
C8
330
A
100
AcDbEntity
  8
TITLE_BLOCK
  6
Continuous
 62
     7
100
AcDbLine
 10
0.1005000000000003
 20
-0.9576414002153665
 30
0.0
 11
0.2755000000000003
 21
-0.9576414002153665
 31
0.0
  0
TEXT
  5
C9
330
A
100
AcDbEntity
  8
TITLE_BLOCK
  6
Continuous
 62
     7
100
AcDbText
 10
0.0942500000000003
 20
-0.9763914002153665
 30
0.0
 40
0.01
  1
DATE:
 41
0.5
100
AcDbText
  0
LINE
  5
CA
330
A
100
AcDbEntity
  8
TITLE_BLOCK
  6
Continuous
 62
     7
100
AcDbLine
 10
0.1005000000000003
 20
-1.013891400215366
 30
0.0
 11
0.2755000000000003
 21
-1.013891400215366
 31
0.0
  0
TEXT
  5
CB
330
A
100
AcDbEntity
  8
TITLE_BLOCK
  6
Continuous
 62
     7
100
AcDbText
 10
0.3942500000000002
 20
-0.9138914002153665
 30
0.0
 40
0.00625
  1
MATERIAL:
 41
0.5
100
AcDbText
  0
TEXT
  5
CC
330
A
100
AcDbEntity
  8
TITLE_BLOCK
  6
Continuous
 62
     7
100
AcDbText
 10
0.2942500000000002
 20
-0.9638914002153665
 30
0.0
 40
0.00625
  1
SHEET:
 41
0.5
100
AcDbText
  0
LINE
  5
D8
330
A
100
AcDbEntity
  8
TITLE_BLOCK
  6
Continuous
 62
     7
100
AcDbLine
 10
0.5880000000000003
 20
-0.9013914002153665
 30
0.0
 11
0.5880000000000003
 21
-1.063891400215366
 31
0.0
  0
LINE
  5
D9
330
A
100
AcDbEntity
  8
TITLE_BLOCK
  6
Continuous
 62
     7
100
AcDbLine
 10
0.2880000000000002
 20
-0.9013914002153665
 30
0.0
 11
0.2880000000000002
 21
-1.063891400215366
 31
0.0
  0
TEXT
  5
DC
330
A
100
AcDbEntity
  8
TITLE_BLOCK
  6
Continuous
 62
     7
100
AcDbText
 10
0.2942500000000002
 20
-0.9138914002153665
 30
0.0
 40
0.00625
  1
SCALE:
 41
0.5
100
AcDbText
  0
TEXT
  5
DD
330
A
100
AcDbEntity
  8
TITLE_BLOCK
  6
Continuous
 62
     7
100
AcDbText
 10
0.3255000000000003
 20
-0.9201414002153665
 30
0.0
 40
0.0125
  1
10:1
 41
0.5
100
AcDbText
  0
TEXT
  5
DE
330
A
100
AcDbEntity
  8
TITLE_BLOCK
  6
Continuous
 62
     7
100
AcDbText
 10
0.3255000000000003
 20
-0.9451414002153665
 30
0.0
 40
0.0125
  1
A
 41
0.5
100
AcDbText
  0
TEXT
  5
E4
330
A
100
AcDbEntity
  8
TITLE_BLOCK
  6
Continuous
 62
     7
100
AcDbText
 10
0.6536250000000003
 20
-1.054516400215366
 30
0.0
 40
0.01875
  1
E273
 41
0.5
100
AcDbText
  0
TEXT
  5
E6
330
A
100
AcDbEntity
  8
TITLE_BLOCK
  6
Continuous
 62
     7
100
AcDbText
 10
0.6313813733264871
 20
-0.9627382589849664
 30
0.0
 40
0.01875
  1
.400 HIGH D-BULB
 41
0.5
100
AcDbText
  0
TEXT
  5
E7
330
A
100
AcDbEntity
  8
TITLE_BLOCK
  6
Continuous
 62
     7
100
AcDbText
 10
0.6431394503623875
 20
-0.9875147423725088
 30
0.0
 40
0.01875
  1
.275 T-SLOT
 41
0.5
100
AcDbText
  0
TEXT
  5
E8
330
A
100
AcDbEntity
  8
TITLE_BLOCK
  6
Continuous
 62
     7
100
AcDbText
 10
0.6387754851071969
 20
-1.013323579234532
 30
0.0
 40
0.01875
  1
PART DRAWING
 41
0.5
100
AcDbText
  0
TEXT
  5
E9
330
A
100
AcDbEntity
  8
TITLE_BLOCK
  6
Continuous
 62
     7
100
AcDbText
 10
0.3981562500000002
 20
-0.9290164002153664
 30
0.0
 40
0.009375
  1
TPE & Polypropylene
 41
0.5
100
AcDbText
  0
TEXT
  5
EB
330
A
100
AcDbEntity
  8
TITLE_BLOCK
  6
Continuous
 62
     7
100
AcDbText
 10
0.4981562500000003
 20
-0.9290164002153664
 30
0.0
 40
0.009375
  1
ANY STANDARD COLOR
 41
0.5
100
AcDbText
  0
LINE
  5
140
330
A
100
AcDbEntity
  8
TITLE_BLOCK
  6
Continuous
 62
     7
100
AcDbLine
 10
0.2880000000000002
 20
-1.026391400215366
 30
0.0
 11
0.0880000000000003
 21
-1.026391400215366
 31
0.0
  0
MTEXT
  5
147
330
A
100
AcDbEntity
  8
0
  6
Continuous
 62
     2
100
AcDbMText
 10
0.289703668441189
 20
-0.9806055487675159
 30
0.0
 40
0.00625
 41
0.2959652489
 46
0.0
 71
     1
 72
     5
  3
{\Fisocp.shx;\C7;NOTICE OF CONFIDENTIAL INFORMATION:  INFORMATION CONTAINED HEREIN IS CONFIDENTIAL AND PROPRIETARY IN NATURE AND SHALL AT ALL TIMES REMAIN THE PROPERTY OF ULTRAFAB, INC. 1050 HOOK ROAD FARMINGTON NY 14425.  BY REVIEWING THE CONTENTS O
  1
F THIS DOCUMENT, YOU HEREBY AGREE TO ALL THE TERMS AND CONDITIONS SET FORTH ABOVE.}
 73
     1
 44
1.0
  0
DIMENSION
  5
2E8
330
A
100
AcDbEntity
  8
0
  6
Continuous
 62
     1
100
AcDbDimension
  2
*D4
 10
0.2638061277956377
 20
-0.6934134672101213
 30
0.0
 11
0.2638061277956378
 21
-0.6759134672101208
 31
0.0
 70
   160
 71
     5
 42
0.0350000000000005
 73
     0
 74
     0
 75
     0
  3
DIMSTYLE1
100
AcDbAlignedDimension
 13
0.3821127547930137
 23
-0.6584134672101208
 33
0.0
 14
0.3821127547930137
 24
-0.6934134672101213
 34
0.0
 50
90.0
100
AcDbRotatedDimension
1001
ACAD
1000
DSTYLE
1002
{
1070
   284
1070
     4
1070
   272
1070
     3
1070
    47
1040
0.004
1070
   147
1040
0.09
1070
    48
1040
0.004
1070
    72
1070
     0
1070
    71
1070
     1
1070
    78
1070
     4
1070
   271
1070
     3
1002
}
  0
MTEXT
  5
3B0
330
A
100
AcDbEntity
  8
0
  6
Continuous
 62
     1
100
AcDbMText
 10
0.3157233500893701
 20
-0.6682748398262595
 30
0.0
 40
0.0125
 41
0.0613894047036427
 46
0.0
 71
     1
 72
     5
  1
TYP
 73
     1
 44
1.0
  0
ARC
  5
4C7
330
A
100
AcDbEntity
  8
FLEXIBLE
  6
Continuous
 62
     5
100
AcDbCircle
 10
0.5121127547930132
 20
-0.5135433157237436
 30
0.0
 40
0.2002563702629923
100
AcDbArc
 50
2.899510113223194
 51
177.1004898867768
  0
LINE
  5
4F5
330
A
100
AcDbEntity
  8
FLEXIBLE
  6
Continuous
 62
     6
100
AcDbLine
 10
0.6456127547930138
 20
-0.6584134672101209
 30
0.0
 11
0.5871127547930142
 21
-0.6584134672101209
 31
0.0
  0
LINE
  5
533
330
A
100
AcDbEntity
  8
FLEXIBLE
  6
Continuous
 62
     6
100
AcDbLine
 10
0.6456127547930138
 20
-0.6934134672101214
 30
0.0
 11
0.3811127547930129
 21
-0.6934134672101213
 31
0.0
  0
ARC
  5
548
330
A
100
AcDbEntity
  8
FLEXIBLE
  6
Continuous
 62
     5
100
AcDbCircle
 10
0.5121127547930135
 20
-0.513567277518975
 30
0.0
 40
0.1703029649295282
100
AcDbArc
 50
3.41811845657969
 51
176.5818815434203
  0
LINE
  5
5AB
330
A
100
AcDbEntity
  8
FLEXIBLE
  6
Continuous
 62
     5
100
AcDbLine
 10
0.3121127547930142
 20
-0.5494736089803608
 30
0.0
 11
0.3121127547930142
 21
-0.5034134672101211
 31
0.0
  0
LINE
  5
5AC
330
A
100
AcDbEntity
  8
FLEXIBLE
  6
Continuous
 62
     5
100
AcDbLine
 10
0.3577549676556314
 20
-0.5992833438849484
 30
0.0
 11
0.4198866293733479
 21
-0.6047191599312761
 31
0.0
  0
ARC
  5
5AD
330
A
100
AcDbEntity
  8
FLEXIBLE
  6
Continuous
 62
     5
100
AcDbCircle
 10
0.3621127547930149
 20
-0.5494736089803608
 30
0.0
 40
0.05
100
AcDbArc
 50
180.0
 51
264.9999999999995
  0
LINE
  5
5AE
330
A
100
AcDbEntity
  8
FLEXIBLE
  6
Continuous
 62
     5
100
AcDbLine
 10
0.3421127547930135
 20
-0.5034134672101211
 30
0.0
 11
0.3421127547930135
 21
-0.5494736089803608
 31
0.0
  0
ARC
  5
5AF
330
A
100
AcDbEntity
  8
FLEXIBLE
  6
Continuous
 62
     5
100
AcDbCircle
 10
0.3621127547930149
 20
-0.5494736089803608
 30
0.0
 40
0.0200000000000014
100
AcDbArc
 50
179.9999999999999
 51
264.9999999999993
  0
LINE
  5
5B0
330
A
100
AcDbEntity
  8
FLEXIBLE
  6
Continuous
 62
     5
100
AcDbLine
 10
0.3603696399380615
 20
-0.5693975029421964
 30
0.0
 11
0.4634225830802619
 21
-0.5784134672101203
 31
0.0
  0
LINE
  5
5C5
330
A
100
AcDbEntity
  8
FLEXIBLE
  6
Continuous
 62
     6
100
AcDbLine
 10
0.3761127547930129
 20
-0.6884134672101212
 30
0.0
 11
0.3761127547930136
 21
-0.6634134672101208
 31
0.0
  0
LINE
  5
5C6
330
A
100
AcDbEntity
  8
FLEXIBLE
  6
Continuous
 62
     6
100
AcDbLine
 10
0.6506127547930138
 20
-0.6884134672101214
 30
0.0
 11
0.6506127547930138
 21
-0.6634134672101208
 31
0.0
  0
TEXT
  5
5F6
330
A
100
AcDbEntity
  8
TITLE_BLOCK
  6
Continuous
 62
     7
100
AcDbText
 10
0.8268681030818262
 20
-1.053199294009946
 30
0.0
 40
0.01875
  1
A
 41
0.5
100
AcDbText
  0
LINE
  5
5F7
330
A
100
AcDbEntity
  8
FLEXIBLE
  6
Continuous
 62
     6
100
AcDbLine
 10
0.4471127547930128
 20
-0.6084134672101204
 30
0.0
 11
0.5771127547930141
 21
-0.6084134672101204
 31
0.0
  0
DIMENSION
  5
5F8
330
A
100
AcDbEntity
  8
DIMENSIONS
  6
Continuous
 62
     1
100
AcDbDimension
  2
*D5
 10
0.5871127547930141
 20
-0.7335932193467496
 30
0.0
 11
0.5121127547930133
 21
-0.7335932193467496
 31
0.0
 70
    32
 71
     5
 42
0.1500000000000014
 73
     0
 74
     0
 75
     0
  3
DIMSTYLE6
100
AcDbAlignedDimension
 13
0.4371127547930127
 23
-0.6584134672101211
 33
0.0
 14
0.5871127547930141
 24
-0.6584134672101209
 34
0.0
100
AcDbRotatedDimension
1001
ACAD
1000
DSTYLE
1002
{
1070
    42
1040
0.005
1070
    47
1040
0.005
1070
    48
1040
0.005
1070
    71
1070
     1
1070
    78
1070
     4
1070
   147
1040
0.005
1070
   271
1070
     3
1070
   272
1070
     3
1070
   284
1070
     4
1002
}
  0
DIMENSION
  5
61B
330
A
100
AcDbEntity
  8
DIMENSIONS
  6
Continuous
 62
     1
100
AcDbDimension
  2
*D6
 10
0.7697793082040087
 20
-0.6020012519081126
 30
0.0
 11
0.7697793082040088
 21
-0.6302073595591166
 31
0.0
 70
   160
 71
     5
 42
0.0564122153020086
 73
     0
 74
     0
 75
     0
  3
DIMSTYLE6
100
AcDbAlignedDimension
 13
0.6456127547930138
 23
-0.6584134672101209
 33
0.0
 14
0.6168000533592491
 24
-0.6020012519081125
 34
0.0
 50
90.0
100
AcDbRotatedDimension
1001
ACAD
1000
DSTYLE
1002
{
1070
    72
1070
     0
1070
    42
1040
0.005
1070
    47
1040
0.005
1070
    48
1040
0.005
1070
    71
1070
     0
1070
    78
1070
     4
1070
   147
1040
0.005
1070
   271
1070
     3
1070
   272
1070
     3
1070
   284
1070
     4
1002
}
  0
VIEWPORT
  5
69B
330
B
100
AcDbEntity
 67
     1
  8
0
  6
Continuous
 62
     1
100
AcDbViewport
 10
3.999999883606678
 20
5.249999883606678
 30
0.0
 40
20.24280547276654
 41
11.63799974576695
 68
     1
 69
     1
 12
3.999999883606678
 22
5.249999883606678
 13
0.0
 23
0.0
 14
0.5
 24
0.5
 15
0.5
 25
0.5
 16
0.0
 26
0.0
 36
1.0
 17
0.0
 27
0.0
 37
0.0
 42
50.0
 43
0.0
 44
0.0
 45
11.63799974576695
 50
0.0
 51
0.0
 72
   100
 90
   819232
  1

281
     0
 71
     1
 74
     0
110
0.0
120
0.0
130
0.0
111
1.0
121
0.0
131
0.0
112
0.0
122
1.0
132
0.0
 79
     0
146
0.0
170
     0
 61
     5
348
688
292
     1
282
     1
141
0.0
142
0.0
 63
   250
421
  3355443
  0
VIEWPORT
  5
6A8
330
B
100
AcDbEntity
 67
     1
  8
0
  6
Continuous
 62
     1
100
AcDbViewport
 10
3.999999874441861
 20
5.249999882653359
 30
0.0
 40
7.972484990850475
 41
10.49996656877921
 68
     2
 69
     2
 12
0.4879846823381781
 22
-0.5417742532083257
 13
0.0
 23
0.0
 14
1.0
 24
1.0
 15
0.0
 25
0.0
 16
0.0
 26
0.0
 36
1.0
 17
0.0
 27
0.0
 37
0.0
 42
50.0
 43
0.0
 44
0.0
 45
1.137740916948751
 50
0.0
 51
0.0
 72
   100
 90
   819232
  1

281
     0
 71
     1
 74
     0
110
0.0
120
0.0
130
0.0
111
1.0
121
0.0
131
0.0
112
0.0
122
1.0
132
0.0
 79
     0
146
0.0
170
     0
 61
     5
348
688
292
     1
282
     1
141
0.0
142
0.0
 63
   250
421
  3355443
  0
ENDSEC
  0
SECTION
  2
OBJECTS
  0
DICTIONARY
  5
19
330
0
100
AcDbDictionary
281
     1
  3
ACAD_COLOR
350
163
  3
ACAD_GROUP
350
1A
  3
ACAD_LAYOUT
350
F1
  3
ACAD_MATERIAL
350
162
  3
ACAD_MLINESTYLE
350
1B
  3
ACAD_PLOTSETTINGS
350
F2
  3
ACAD_PLOTSTYLENAME
350
EF
  3
ACAD_TABLESTYLE
350
164
  3
ACAD_VISUALSTYLE
350
682
  3
AcDbVariableDictionary
350
149
  3
ASE_INDEX_DICTIONARY
350
6BC
  0
DICTIONARY
  5
6AC
330
2
100
AcDbDictionary
280
     1
281
     1
  3
ACAD_LAYERSTATES
360
6AD
  0
DICTIONARY
  5
3BF
330
A
100
AcDbDictionary
280
     1
281
     1
  3
ACAD_SORTENTS
360
3C0
  0
DICTIONARY
  5
163
102
{ACAD_REACTORS
330
19
102
}
330
19
100
AcDbDictionary
281
     1
  0
DICTIONARY
  5
1A
102
{ACAD_REACTORS
330
19
102
}
330
19
100
AcDbDictionary
281
     1
  0
DICTIONARY
  5
F1
102
{ACAD_REACTORS
330
19
102
}
330
19
100
AcDbDictionary
281
     1
  3
Layout1
350
F4
  3
Model
350
F3
  0
DICTIONARY
  5
162
102
{ACAD_REACTORS
330
19
102
}
330
19
100
AcDbDictionary
281
     1
  3
ByBlock
350
680
  3
ByLayer
350
67F
  3
Global
350
681
  0
DICTIONARY
  5
1B
102
{ACAD_REACTORS
330
19
102
}
330
19
100
AcDbDictionary
281
     1
  3
STANDARD
350
1C
  0
DICTIONARY
  5
F2
102
{ACAD_REACTORS
330
19
102
}
330
19
100
AcDbDictionary
281
     1
  0
ACDBDICTIONARYWDFLT
  5
EF
102
{ACAD_REACTORS
330
19
102
}
330
19
100
AcDbDictionary
281
     1
  3
Normal
350
F0
100
AcDbDictionaryWithDefault
340
F0
  0
DICTIONARY
  5
164
102
{ACAD_REACTORS
330
19
102
}
330
19
100
AcDbDictionary
281
     1
  3
Standard
350
165
  0
DICTIONARY
  5
682
102
{ACAD_REACTORS
330
19
102
}
330
19
100
AcDbDictionary
281
     1
  3
2dWireframe
350
688
  3
3D Hidden
350
68A
  3
3dWireframe
350
689
  3
Basic
350
687
  3
Brighten
350
68E
  3
ColorChange
350
692
  3
Conceptual
350
68B
  3
Dim
350
68D
  3
Facepattern
350
691
  3
Flat
350
683
  3
FlatWithEdges
350
684
  3
Gouraud
350
685
  3
GouraudWithEdges
350
686
  3
Linepattern
350
690
  3
Realistic
350
68C
  3
Thicken
350
68F
  0
DICTIONARY
  5
149
102
{ACAD_REACTORS
330
19
102
}
330
19
100
AcDbDictionary
281
     1
  3
CTABLESTYLE
350
3B2
  3
DIMASSOC
350
14A
  0
DICTIONARY
  5
6BC
102
{ACAD_REACTORS
330
19
102
}
330
19
100
AcDbDictionary
281
     1
  3
ASEBlockHierarchyIndexRecord
350
6BD
1001
DCO15
1040
1608369493.194
  0
DICTIONARY
  5
6AD
102
{ACAD_REACTORS
330
6AC
102
}
330
6AC
100
AcDbDictionary
281
     1
  0
SORTENTSTABLE
  5
3C0
102
{ACAD_REACTORS
330
3BF
102
}
330
3BF
100
AcDbSortentsTable
330
A
331
5AF
  5
5C5
331
C1
  5
DC
331
C3
  5
DE
331
27
  5
27
331
140
  5
586
331
C5
  5
E6
331
29
  5
29
331
C7
  5
E7
331
C9
  5
E9
331
2D
  5
2D
331
CB
  5
140
331
5C5
  5
90
331
D9
  5
3B0
331
3D
  5
3D
331
DD
  5
455
331
8C
  5
95
331
8E
  5
9A
331
90
  5
9B
331
98
  5
A5
331
9A
  5
A7
331
4C7
  5
9C
331
9C
  5
A9
331
9E
  5
AB
331
A0
  5
AD
331
A2
  5
AF
331
4F5
  5
93
331
A4
  5
B1
331
A6
  5
B3
331
A8
  5
B6
331
533
  5
86
331
AA
  5
B9
331
5B
  5
5B
331
AC
  5
BB
331
E7
  5
4DC
331
E9
  5
533
331
AE
  5
BD
331
EB
  5
548
331
B0
  5
C2
331
B2
  5
C4
331
2E8
  5
59E
331
B4
  5
C7
331
B6
  5
C8
331
3B0
  5
5AB
331
79
  5
79
331
BA
  5
CB
331
BC
  5
D8
331
5AC
  5
5AE
331
5AE
  5
5B0
331
C2
  5
DD
331
5B0
  5
5C6
331
C4
  5
E4
331
28
  5
28
331
C8
  5
E8
331
CA
  5
EB
331
147
  5
59C
331
CC
  5
147
331
5C6
  5
92
331
D8
  5
2E8
331
87
  5
8D
331
DC
  5
454
331
8B
  5
94
331
DE
  5
460
331
8D
  5
98
331
93
  5
A4
331
99
  5
A6
331
9B
  5
A8
331
9D
  5
AA
331
9F
  5
AC
331
A1
  5
AE
331
A5
  5
B2
331
A7
  5
B4
331
A9
  5
B7
331
E4
  5
461
331
AB
  5
BA
331
E6
  5
4C7
331
E8
  5
4F5
331
AD
  5
BC
331
AF
  5
C1
331
B1
  5
C3
331
B3
  5
C5
331
B7
  5
C9
331
B9
  5
CA
331
BB
  5
CC
331
BD
  5
D9
331
548
  5
A3
331
5AB
  5
5AD
331
5AD
  5
5AF
  0
LAYOUT
  5
F4
102
{ACAD_XDICTIONARY
360
6AF
102
}
102
{ACAD_REACTORS
330
F1
102
}
330
F1
100
AcDbPlotSettings
  1

  2
none_device
  4
Letter_(8.50_x_11.00_Inches)
  6

 40
6.349999904632568
 41
6.349999904632568
 42
6.350006103515625
 43
6.350006103515625
 44
215.8999938964844
 45
279.3999938964844
 46
0.0
 47
0.0
 48
0.0
 49
0.0
140
0.0
141
0.0
142
1.0
143
1.0
 70
   688
 72
     0
 73
     0
 74
     5
  7

 75
    16
147
1.0
 76
     0
 77
     2
 78
   300
148
0.0
149
0.0
100
AcDbLayout
  1
Layout1
 70
     0
 71
     1
 10
-0.2499999962453767
 20
-0.2499999962453767
 11
8.249999763458733
 21
10.74999976345873
 12
0.0
 22
0.0
 32
0.0
 14
0.0137573790166243
 24
0.0000165982637554
 34
0.0
 15
7.986242369867099
 25
10.49998316704296
 35
0.0
146
0.0
 13
0.0
 23
0.0
 33
0.0
 16
1.0
 26
0.0
 36
0.0
 17
0.0
 27
1.0
 37
0.0
 76
     0
330
B
331
69B
1001
ACAD_PSEXT
1000
None
1000
None
1000
Not applicable
1000
The layout will not be plotted unless a new plotter configuration name is selected.
1070
     0
  0
LAYOUT
  5
F3
102
{ACAD_REACTORS
330
F1
102
}
330
F1
100
AcDbPlotSettings
  1

  2
none_device
  4
Letter_(8.50_x_11.00_Inches)
  6

 40
6.349999904632568
 41
6.349999904632568
 42
6.350006103515625
 43
6.350006103515625
 44
215.8999938964844
 45
279.3999938964844
 46
0.0
 47
0.0
 48
0.0
 49
0.0
140
0.0
141
0.0
142
1.0
143
1.0
 70
 11952
 72
     0
 73
     1
 74
     0
  7

 75
     0
147
1.0
 76
     0
 77
     2
 78
   300
148
-1.036644152375377
149
27.96806179730054
100
AcDbLayout
  1
Model
 70
     1
 71
     0
 10
0.0
 20
0.0
 11
12.0
 21
9.0
 12
0.0
 22
0.0
 32
0.0
 14
0.0
 24
0.0
 34
0.0
 15
0.0
 25
0.0
 35
0.0
146
0.0
 13
0.0
 23
0.0
 33
0.0
 16
1.0
 26
0.0
 36
0.0
 17
0.0
 27
1.0
 37
0.0
 76
     0
330
A
  0
MATERIAL
  5
680
102
{ACAD_REACTORS
330
162
102
}
330
162
100
AcDbMaterial
  1
ByBlock
  0
MATERIAL
  5
67F
102
{ACAD_REACTORS
330
162
102
}
330
162
100
AcDbMaterial
  1
ByLayer
  0
MATERIAL
  5
681
102
{ACAD_REACTORS
330
162
102
}
330
162
100
AcDbMaterial
  1
Global
  0
MLINESTYLE
  5
1C
102
{ACAD_REACTORS
330
1B
102
}
330
1B
100
AcDbMlineStyle
  2
STANDARD
 70
     0
  3

 62
     0
 51
90.00000000000019
 52
90.00000000000019
 71
     2
 49
0.5
 62
   256
  6
BYLAYER
 49
-0.5
 62
   256
  6
BYLAYER
  0
ACDBPLACEHOLDER
  5
F0
102
{ACAD_REACTORS
330
EF
102
}
330
EF
  0
TABLESTYLE
  5
165
102
{ACAD_REACTORS
330
164
102
}
330
164
100
AcDbTableStyle
  3
Standard
 70
     0
 71
     0
 40
0.06
 41
0.06
280
     0
281
     0
  7
STANDARD
140
0.18
170
     2
 62
     0
 63
     7
283
     0
 90
        4
 91
        0
  1

274
    -2
284
     1
 64
     0
275
    -2
285
     1
 65
     0
276
    -2
286
     1
 66
     0
277
    -2
287
     1
 67
     0
278
    -2
288
     1
 68
     0
279
    -2
289
     1
 69
     0
  7
STANDARD
140
0.25
170
     5
 62
     0
 63
     7
283
     0
 90
        4
 91
        0
  1

274
    -2
284
     1
 64
     0
275
    -2
285
     1
 65
     0
276
    -2
286
     1
 66
     0
277
    -2
287
     1
 67
     0
278
    -2
288
     1
 68
     0
279
    -2
289
     1
 69
     0
  7
STANDARD
140
0.18
170
     5
 62
     0
 63
     7
283
     0
 90
        4
 91
        0
  1

274
    -2
284
     1
 64
     0
275
    -2
285
     1
 65
     0
276
    -2
286
     1
 66
     0
277
    -2
287
     1
 67
     0
278
    -2
288
     1
 68
     0
279
    -2
289
     1
 69
     0
  0
VISUALSTYLE
  5
688
102
{ACAD_REACTORS
330
682
102
}
330
682
100
AcDbVisualStyle
  2
2dWireframe
 70
     4
 71
     0
 72
     2
 73
     0
 90
        0
 40
-0.6
 41
-30.0
 62
     5
 63
     7
421
 16777215
 74
     1
 91
        4
 64
     7
 65
   257
 75
     1
175
     1
 42
1.0
 92
        0
 66
   257
 43
1.0
 76
     1
 77
     6
 78
     2
 67
     7
 79
     5
170
     0
171
     0
290
     0
174
     0
 93
        1
 44
0.0
173
     0
291
     0
 45
0.0
  0
VISUALSTYLE
  5
68A
102
{ACAD_REACTORS
330
682
102
}
330
682
100
AcDbVisualStyle
  2
3D Hidden
 70
     6
 71
     1
 72
     2
 73
     2
 90
        0
 40
-0.6
 41
-30.0
 62
     5
 63
     7
421
 16777215
 74
     2
 91
        2
 64
     7
 65
   257
 75
     2
175
     1
 42
40.0
 92
        0
 66
   257
 43
1.0
 76
     1
 77
     6
 78
     2
 67
     7
 79
     3
170
     0
171
     0
290
     0
174
     0
 93
        1
 44
0.0
173
     0
291
     0
 45
0.0
  0
VISUALSTYLE
  5
689
102
{ACAD_REACTORS
330
682
102
}
330
682
100
AcDbVisualStyle
  2
3dWireframe
 70
     5
 71
     0
 72
     2
 73
     0
 90
        0
 40
-0.6
 41
-30.0
 62
     5
 63
     7
421
 16777215
 74
     1
 91
        4
 64
     7
 65
   257
 75
     1
175
     1
 42
1.0
 92
        0
 66
   257
 43
1.0
 76
     1
 77
     6
 78
     2
 67
     7
 79
     5
170
     0
171
     0
290
     0
174
     0
 93
        1
 44
0.0
173
     0
291
     0
 45
0.0
  0
VISUALSTYLE
  5
687
102
{ACAD_REACTORS
330
682
102
}
330
682
100
AcDbVisualStyle
  2
Basic
 70
     7
 71
     1
 72
     0
 73
     1
 90
        0
 40
-0.6
 41
-30.0
 62
     5
 63
     7
421
 16777215
 74
     0
 91
        4
 64
     7
 65
   257
 75
     1
175
     1
 42
1.0
 92
        8
 66
     7
 43
1.0
 76
     1
 77
     6
 78
     2
 67
     7
 79
     5
170
     0
171
     0
290
     0
174
     0
 93
        1
 44
0.0
173
     0
291
     1
 45
0.0
  0
VISUALSTYLE
  5
68E
102
{ACAD_REACTORS
330
682
102
}
330
682
100
AcDbVisualStyle
  2
Brighten
 70
    12
 71
     2
 72
     2
 73
     0
 90
        0
 40
-0.6
 41
-30.0
 62
     5
 63
     7
421
 16777215
 74
     1
 91
        4
 64
     7
 65
   257
 75
     1
175
     1
 42
1.0
 92
        8
 66
     7
 43
1.0
 76
     1
 77
     6
 78
     2
 67
     7
 79
     5
170
     0
171
     0
290
     0
174
     0
 93
        1
 44
50.0
173
     0
291
     1
 45
0.0
  0
VISUALSTYLE
  5
692
102
{ACAD_REACTORS
330
682
102
}
330
682
100
AcDbVisualStyle
  2
ColorChange
 70
    16
 71
     2
 72
     2
 73
     3
 90
        0
 40
-0.6
 41
-30.0
 62
     5
 63
     8
421
  8421504
 74
     1
 91
        4
 64
     7
 65
   257
 75
     1
175
     1
 42
1.0
 92
        8
 66
     8
424
  8421504
 43
1.0
 76
     1
 77
     6
 78
     2
 67
     7
 79
     5
170
     0
171
     0
290
     0
174
     0
 93
        1
 44
0.0
173
     0
291
     1
 45
0.0
  0
VISUALSTYLE
  5
68B
102
{ACAD_REACTORS
330
682
102
}
330
682
100
AcDbVisualStyle
  2
Conceptual
 70
     9
 71
     3
 72
     2
 73
     0
 90
        0
 40
-0.6
 41
-30.0
 62
     5
 63
     7
421
 16777215
 74
     2
 91
        2
 64
     7
 65
   257
 75
     1
175
     1
 42
40.0
 92
        8
 66
     7
 43
1.0
 76
     1
 77
     6
 78
     2
 67
     7
 79
     3
170
     0
171
     0
290
     0
174
     0
 93
        1
 44
0.0
173
     0
291
     0
 45
0.0
  0
VISUALSTYLE
  5
68D
102
{ACAD_REACTORS
330
682
102
}
330
682
100
AcDbVisualStyle
  2
Dim
 70
    11
 71
     2
 72
     2
 73
     0
 90
        0
 40
-0.6
 41
-30.0
 62
     5
 63
     7
421
 16777215
 74
     1
 91
        4
 64
     7
 65
   257
 75
     1
175
     1
 42
1.0
 92
        8
 66
     7
 43
1.0
 76
     1
 77
     6
 78
     2
 67
     7
 79
     5
170
     0
171
     0
290
     0
174
     0
 93
        1
 44
-50.0
173
     0
291
     1
 45
0.0
  0
VISUALSTYLE
  5
691
102
{ACAD_REACTORS
330
682
102
}
330
682
100
AcDbVisualStyle
  2
Facepattern
 70
    15
 71
     2
 72
     2
 73
     0
 90
        0
 40
-0.6
 41
-30.0
 62
     5
 63
     7
421
 16777215
 74
     1
 91
        4
 64
     7
 65
   257
 75
     1
175
     1
 42
1.0
 92
        8
 66
     7
 43
1.0
 76
     1
 77
     6
 78
     2
 67
     7
 79
     5
170
     0
171
     0
290
     0
174
     0
 93
        1
 44
0.0
173
     0
291
     1
 45
0.0
  0
VISUALSTYLE
  5
683
102
{ACAD_REACTORS
330
682
102
}
330
682
100
AcDbVisualStyle
  2
Flat
 70
     0
 71
     2
 72
     1
 73
     1
 90
        2
 40
-0.6
 41
30.0
 62
     5
 63
     7
421
 16777215
 74
     0
 91
        4
 64
     7
 65
   257
 75
     1
175
     1
 42
1.0
 92
        8
 66
     7
 43
1.0
 76
     1
 77
     6
 78
     2
 67
     7
 79
     5
170
     0
171
     0
290
     0
174
     0
 93
       13
 44
0.0
173
     0
291
     1
 45
0.0
  0
VISUALSTYLE
  5
684
102
{ACAD_REACTORS
330
682
102
}
330
682
100
AcDbVisualStyle
  2
FlatWithEdges
 70
     1
 71
     2
 72
     1
 73
     1
 90
        2
 40
-0.6
 41
30.0
 62
     5
 63
     7
421
 16777215
 74
     1
 91
        4
 64
     7
 65
   257
 75
     1
175
     1
 42
1.0
 92
        0
 66
   257
 43
1.0
 76
     1
 77
     6
 78
     2
 67
     7
 79
     5
170
     0
171
     0
290
     0
174
     0
 93
       13
 44
0.0
173
     0
291
     1
 45
0.0
  0
VISUALSTYLE
  5
685
102
{ACAD_REACTORS
330
682
102
}
330
682
100
AcDbVisualStyle
  2
Gouraud
 70
     2
 71
     2
 72
     2
 73
     1
 90
        2
 40
-0.6
 41
30.0
 62
     5
 63
     7
421
 16777215
 74
     0
 91
        4
 64
     7
 65
   257
 75
     1
175
     1
 42
1.0
 92
        0
 66
     7
 43
1.0
 76
     1
 77
     6
 78
     2
 67
     7
 79
     5
170
     0
171
     0
290
     0
174
     0
 93
       13
 44
0.0
173
     0
291
     1
 45
0.0
  0
VISUALSTYLE
  5
686
102
{ACAD_REACTORS
330
682
102
}
330
682
100
AcDbVisualStyle
  2
GouraudWithEdges
 70
     3
 71
     2
 72
     2
 73
     1
 90
        2
 40
-0.6
 41
30.0
 62
     5
 63
     7
421
 16777215
 74
     1
 91
        4
 64
     7
 65
   257
 75
     1
175
     1
 42
1.0
 92
        0
 66
   257
 43
1.0
 76
     1
 77
     6
 78
     2
 67
     7
 79
     5
170
     0
171
     0
290
     0
174
     0
 93
       13
 44
0.0
173
     0
291
     1
 45
0.0
  0
VISUALSTYLE
  5
690
102
{ACAD_REACTORS
330
682
102
}
330
682
100
AcDbVisualStyle
  2
Linepattern
 70
    14
 71
     2
 72
     2
 73
     0
 90
        0
 40
-0.6
 41
-30.0
 62
     5
 63
     7
421
 16777215
 74
     1
 91
        4
 64
     7
 65
   257
 75
     7
175
     7
 42
1.0
 92
        8
 66
     7
 43
1.0
 76
     1
 77
     6
 78
     2
 67
     7
 79
     5
170
     0
171
     0
290
     0
174
     0
 93
        1
 44
0.0
173
     0
291
     1
 45
0.0
  0
VISUALSTYLE
  5
68C
102
{ACAD_REACTORS
330
682
102
}
330
682
100
AcDbVisualStyle
  2
Realistic
 70
     8
 71
     2
 72
     2
 73
     0
 90
        0
 40
-0.6
 41
-30.0
 62
     5
 63
     7
421
 16777215
 74
     1
 91
        0
 64
     7
 65
   257
 75
     1
175
     1
 42
1.0
 92
        8
 66
     8
424
  7895160
 43
1.0
 76
     1
 77
     6
 78
     2
 67
     7
 79
     5
170
     0
171
     0
290
     0
174
     0
 93
       13
 44
0.0
173
     0
291
     0
 45
0.0
  0
VISUALSTYLE
  5
68F
102
{ACAD_REACTORS
330
682
102
}
330
682
100
AcDbVisualStyle
  2
Thicken
 70
    13
 71
     2
 72
     2
 73
     0
 90
        0
 40
-0.6
 41
-30.0
 62
     5
 63
     7
421
 16777215
 74
     1
 91
        4
 64
     7
 65
   257
 75
     1
175
     1
 42
1.0
 92
       12
 66
     7
 43
1.0
 76
     1
 77
     6
 78
     2
 67
     7
 79
     5
170
     0
171
     0
290
     0
174
     0
 93
        1
 44
0.0
173
     0
291
     1
 45
0.0
  0
DICTIONARYVAR
  5
3B2
102
{ACAD_REACTORS
330
149
102
}
330
149
100
DictionaryVariables
280
     0
  1
STANDARD
  0
DICTIONARYVAR
  5
14A
102
{ACAD_REACTORS
330
149
102
}
330
149
100
DictionaryVariables
280
     0
  1
1
  0
XRECORD
  5
6BD
102
{ACAD_REACTORS
330
6BC
102
}
330
6BC
100
AcDbXrecord
280
     1
  0
DICTIONARY
  5
6AF
330
F4
100
AcDbDictionary
280
     1
281
     1
  3
ADSK_XREC_LAYOUTTHUMBNAIL
360
6B0
  0
XRECORD
  5
6B0
102
{ACAD_REACTORS
330
6AF
102
}
330
6AF
100
AcDbXrecord
280
     1
310
280000006B0000008C0000000100080000000000103B000000000000000000000001000000000000FFFFFF0000000000FFFFFF000000000000000000000000000000000000000000000000000000000000000000330000006600000099000000CC000000FF00000000330000333300006633000099330000CC330000FF3300
310
0000660000336600006666000099660000CC660000FF66000000990000339900006699000099990000CC990000FF99000000CC000033CC000066CC000099CC0000CCCC0000FFCC000000FF000033FF000066FF000099FF0000CCFF0000FFFF000000003300330033006600330099003300CC003300FF003300003333003333
310
33006633330099333300CC333300FF33330000663300336633006666330099663300CC663300FF66330000993300339933006699330099993300CC993300FF99330000CC330033CC330066CC330099CC3300CCCC3300FFCC330000FF330033FF330066FF330099FF3300CCFF3300FFFF330000006600330066006600660099
310
006600CC006600FF00660000336600333366006633660099336600CC336600FF33660000666600336666006666660099666600CC666600FF66660000996600339966006699660099996600CC996600FF99660000CC660033CC660066CC660099CC6600CCCC6600FFCC660000FF660033FF660066FF660099FF6600CCFF6600
310
FFFF660000009900330099006600990099009900CC009900FF00990000339900333399006633990099339900CC339900FF33990000669900336699006666990099669900CC669900FF66990000999900339999006699990099999900CC999900FF99990000CC990033CC990066CC990099CC9900CCCC9900FFCC990000FF99
310
0033FF990066FF990099FF9900CCFF9900FFFF99000000CC003300CC006600CC009900CC00CC00CC00FF00CC000033CC003333CC006633CC009933CC00CC33CC00FF33CC000066CC003366CC006666CC009966CC00CC66CC00FF66CC000099CC003399CC006699CC009999CC00CC99CC00FF99CC0000CCCC0033CCCC0066CC
310
CC0099CCCC00CCCCCC00FFCCCC0000FFCC0033FFCC0066FFCC0099FFCC00CCFFCC00FFFFCC000000FF003300FF006600FF009900FF00CC00FF00FF00FF000033FF003333FF006633FF009933FF00CC33FF00FF33FF000066FF003366FF006666FF009966FF00CC66FF00FF66FF000099FF003399FF006699FF009999FF00CC
310
99FF00FF99FF0000CCFF0033CCFF0066CCFF0099CCFF00CCCCFF00FFCCFF0000FFFF0033FFFF0066FFFF0099FFFF00CCFFFF00FFFFFF00000000000D0D0D001A1A1A00282828003535350043434300505050005D5D5D006B6B6B00787878008686860093939300A1A1A100AEAEAE00BBBBBB00C9C9C900D6D6D600E4E4E400
310
F1F1F100FFFFFF0000000000000000000000000000000000000000000000000000000000000000000000000000000000E2E2E2E2E2E2E2E2E2E2E2E2E2E2E2E2E2E2E2E2E2E2E2E2E2E2E2E2E2E2E2E2E2E2E2E2E2E2E2E2E2E2E2E2E2E2E2E2E2E2E2E2E2E2E2E2E2E2E2E2E2E2E2E2E2E2E2E2E2E2E2E2E2E2E2E2E2E2E2
310
E2E2E2E2E2E2E2E2E2E2E2E2E2E2E2E2E2E2E2E2E2E2E2E2E2E2E2E200E2F5F5F5F5F5F5F5F5F5F5F5F5F5F5F5F5F5F5F5F5F5F5F5F5F5F5F5F5F5F5F5F5F5F5F5F5F5F5F5F5F5F5F5F5F5F5F5F5F5F5F5F5F5F5F5F5F5F5F5F5F5F5F5F5F5F5F5F5F5F5F5F5F5F5F5F5F5F5F5F5F5F5F5F5F5F5F5F5F5F5F5F5F5F5F5F5F5
310
F5F5F5F5F5F5F5F5E200E2F5F5F5F5F5F5F5F5F5F5F5F5F5F5F5F5F5F5F5F5F5F5F5F5F5F5F5F5F5F5F5F5F5F5F5F5F5F5F5F5F5F5F5F5F5F5F5F5F5F5F5F5F5F5F5F5F5F5F5F5F5F5F5F5F5F5F5F5F5F5F5F5F5F5F5F5F5F5F5F5F5F5F5F5F5F5F5F5F5F5F5F5F5F5F5F5F5F5F5F5F5F5F5F5F5E200E2F5F5F5F5F5F5F5F5
310
F5F5F5F5F5F5F5F5F5F5F5F5F5F5F5F5F5F5F5F5F5F5F5F5F5F5F5F5F5F5F5F5F5F5F5F5F5F5F5F5F5F5F5F5F5F5F5F5F5F5F5F5F5F5F5F5F5F5F5F5F5F5F5F5F5F5F5F5F5F5F5F5F5F5F5F5F5F5F5F5F5F5F5F5F5F5F5F5F5F5F5F5F5F5F5F5F5E200E2F5F5BEBEBEBEBEBEBEBEBEBEBEBEBEBEBEBEBEBEBEBEBEBEBEBEBE
310
BEBEBEBEBEBEBEBEBEBEBEBEBEBEBEBEBEBEBEBEBEBEBEBEBEBEBEBEBEBEBEBEBEBEBEBEBEBEBEBEBEBEBEBEBEBEBEBEBEBEBEBEBEBEBEBEBEBEBEBEBEBEBEBEBEBEBEBEBEBEBEBEBEBEBEBEF5F5E200E2F5F5BEF5F5F5F5F5F5F5F5F5F5F5F5F5F5F5F5F5F5F5F5F5F5F5F5F5F5F5F5F5F5F5F5F5F5F5F5F5F5F5F5F5F5F5
310
F5F5F5F5F5F5F5F5F5F5F5F5F5F5F5F5F5F5F5F5F5F5F5F5F5F5F5F5F5F5F5F5F5F5F5F5F5F5F5F5F5F5F5F5F5F5F5F5F5F5F5F5F5F5F5F5BEF5F5E200E2F5F5BEE2E2E2E2E2E2E2E2E2E2E2E2E2E2E2E2E2E2E2E2E2E2E2E2E2E2E2E2E2E2E2E2E2E2E2E2E2E2E2E2E2E2E2E2E2E2E2E2E2E2E2E2E2E2E2E2E2E2E2E2E2E2
310
E2E2E2E2E2E2E2E2E2E2E2E2E2E2E2E2E2E2E2E2E2E2E2E2E2E2E2E2E2E2E2E2E2E2E2E2E2BEF5F5E200E2F5F5BEE2F5F5F5F5F5F5F5F5F5F5F5F5F5F5F5F5F5F5F5F5F5F5F5F5F5F5F5F5F5F5F5F5F5F5F5F5F5F5F5F5F5F5F5F5F5F5F5F5F5F5F5F5F5F5F5F5F5F5F5F5F5F5F5F5F5F5F5F5F5F5F5F5F5F5F5F5F5F5F5F5
310
F5F5F5F5F5F5F5F5F5F5F5F5F5F5F5F5F5E2BEF5F5E20BE2F5F5BEE2F5F5F5F5F5F5F5F5F5F5F5F5F5F5F5F5F5F5F5F5F5F5F5F5F5F5F5F5F5F5F5F5F5F5F5F5F5F5F5F5F5F5F5F5F5F5F5F5F5F5F5F5F5F5F5F5F5F5F5F5F5F5F5F5F5F5F5F5F5F5F5F5F5F5F5F5F5F5F5F5F5F5F5F5F5F5F5F5F5F5F5F5F5F5F5F5F5E2BE
310
F5F5E200E2F5F5BEE2F5E2E2E2E2E2E2E2E2E2E2E2E2E2E2E2E2E2E2E2E2E2E2E2E2E2E2E2E2E2E2E2E2E2E2E2E2E2E2E2E2E2E2E2E2E2E2E2E2E2E2E2E2E2E2E2E2E2E2E2E2E2E2E2E2E2E2E2E2E2E2E2E2E2E2E2E2E2E2E2E2E2E2E2E2E2E2E2E2E2E2E2E2E2E2E2F5E2BEF5F5E200E2F5F5BEE2F5E2F5F5F5F5F5F5F5F5
310
F5F5F5F5F5F5F5F5F5F5F5F5F5F5F5E2F5F5F5F5F5F5F5F5F5F5F5F5F5F5F5F5F5F5F5F5F5F5F5F5F5F5F5F5F5F5F5F5F5F5E2F5F5F5F5F5F5E2E2E2E2E2F5F5F5F5F5F5F5F5F5F5F5E2F5F5F5E2E2F5F5F5F5F5F5E2F5E2BEF5F5E233E2F5F5BEE2F5E2F5F5F5F5F5F5F5F5F5F5F5F5F5F5F5F5F5F5F5F5F5F5F5E2F5F5F5
310
F5F5F5F5F5F5F5F5F5F5F5F5F5F5F5F5F5F5F5F5F5F5F5F5F5F5F5F5F5F5F5E2E2E2E2E2E2F5E2E2E2E2E2F5F5F5F5F5F5F5F5F5F5F5E2E2E2E2E2E2F5F5F5F5F5F5E2F5E2BEF5F5E20BE2F5F5BEE2F5E2F5F5F5F5F5F5F5F5F5F5F5F5F5F5F5F5F5F5F5F5F5F5F5E2F5F5F5F5F5F5F5F5F5F5F5F5F5F5F5F5F5F5F5F5F5F5
310
F5F5F5F5F5F5F5F5F5F5F5F5E2E2E2E2E2E2F5E2E2E2E2E2F5F5F5F5F5F5F5F5F5F5F5E2E2E2E2F5E2F5F5F5F5F5F5E2F5E2BEF5F5E200E2F5F5BEE2F5E2E2E2E2E2E2E2E2E2E2E2E2E2E2E2E2E2E2E2E2E2E2E2E2E2E2E2E2E2E2E2E2E2E2E2E2E2E2E2E2E2E2E2E2E2E2F5F5F5F5F5F5F5F5F5F5F5F5F5E2E2E2E2E2E2E2
310
E2E2E2E2E2E2E2E2E2E2E2E2E2E2E2E2E2E2E2E2E2E2E2E2E2E2E2E2E2F5E2BEF5F5E200E2F5F5BEE2F5E2F5F5F5F5F5F5F5F5F5F5F5F5F5F5F5F5F5F5F5F5F5F5F5E2E2E2E2E2E2E2E2E2E2E2E2E2E2E2E2E2E2E2E2E2E2E2E2E2E2E2E2E2E2E2E2E2E2E2E2F5F5F5F5F5F5F5F5F5F5F5F5F5F5F5F5F5F5F5F5F5F5F5F5F5
310
F5F5F5F5F5F5F5F5F5E2F5E2BEF5F5E233E2F5F5BEE2F5E2F5E2E2E2E2E2E2E2E2E2E2E2E2E2E2E2E2E2E2E2E2E2F5E2E2E2E2E2E2E2E2E2E2E2E2E2E2E2E2E2E2E2E2E2E2E2E2E2E2E2E2E2E2E2E2E2E2F5E2F5F5F5F5F5E2E2E2E2F5E2E2E2E2E2E2E2E2F5F5F5F5F5F5F5F5F5F5F5F5F5F5F5F5E2F5E2BEF5F5E20BE2F5
310
F5BEE2F5E2F5F5F5F5F5F5F5F5F5F5F5F5F5F5F5F5F5F5F5F5F5F5F5E2E2E2E2E2E2E2E2E2E2E2E2E2E2E2E2E2E2E2E2E2E2E2E2E2E2E2E2E2E2E2E2E2E2F5E2F5F5F5F5F5E2E2E2E2F5E2E2E2E2E2E2E2E2F5F5F5F5F5F5F5F5F5F5F5F5F5F5F5F5E2F5E2BEF5F5E200E2F5F5BEE2F5E2F5F5F5F5F5F5F5F5F5F5F5F5F5F5
310
F5F5F5F5F5F5F5F5F5E2E2E2E2E2E2E2E2E2E2E2E2E2E2E2E2E2E2E2E2E2E2E2E2E2E2E2E2E2E2E2E2E2E2E2E2F5F5F5F5F5E2E2E2E2E2E2E2E2E2E2E2E2E2F5F5F5F5F5F5F5F5F5F5F5F5F5F5F5F5E2F5E2BEF5F5E200E2F5F5BEE2F5E2F5F5F5F5F5F5F5F5F5F5F5F5F5F5F5F5F5F5F5F5F5F5F5E2E2E2E2E2E2E2E2E2E2
310
E2E2E2E2E2E2E2E2E2E2E2E2E2E2E2E2E2E2E2E2E2E2E2F5F5E2F5F5F5F5F5E2E2E2E2F5E2F5E2E2E2E2E2F5F5F5F5F5F5F5F5F5F5F5F5F5F5F5F5F5E2F5E2BEF5F5E233E2F5F5BEE2F5E2E2E2E2E2F5F5F5F5F5F5F5F5F5F5F5F5F5F5F5F5F5F5F5E2E2E2E2E2E2E2E2E2E2E2E2E2E2E2E2E2E2E2E2E2E2E2E2E2E2E2E2E2
310
E2E2E2E2E2E2E2F5F5F5F5F5E2E2E2E2F5E2E2E2E2E2E2E2F5F5F5F5F5F5F5F5F5F5F5F5F5F5F5F5F5E2F5E2BEF5F5E20BE2F5F5BEE2F5E2E2E2E2E2F5F5F5F5F5F5F5F5F5F5F5F5F5F5F5F5F5F5F5E2F5F5F5F5F5F5F5F5F5F5E2F5F5F5F5F5F5F5F5F5F5F5E2F5F5F5F5F5F5F5F5F5F5F5E2F5F5F5F5F5E2E2E2E2F5E2E2
310
E2E2E2E2E2F5F5F5F5F5F5F5F5F5F5F5F5F5F5F5F5F5E2F5E2BEF5F5E200E2F5F5BEE2F5E2F5E2E2E2E2E2E2E2E2E2E2E2E2E2E2E2E2E2E2E2E2E2F5E2E2E2F5F5F5F5F5F5F5F5E2F5F5F5F5F5F5F5F5F5F5F5E2F5F5F5F5F5F5F5F5F5F5F5E2E2E2E2F5E2E2E2E2E2E2E2E2E2E2E2E2E2E2E2E2F5F5F5F5F5F5F5F5F5F5F5
310
F5F5F5E2F5E2BEF5F5E200E2F5F5BEE2F5E2F5F5F5F5F5F5F5F5F5F5F5F5F5F5F5F5F5F5F5F5F5F5F5E2E2E2E2E2E2E2E2E2E2E2E2F5F5F5F5F5F5F5F5F5F5F5E2F5F5F5F5F5F5F5F5F5F5F5E2E2E2E2F5F5E2E2E2E2E2E2E2E2E2E2E2E2E2E2E2F5F5F5F5F5F5F5F5F5F5F5F5F5F5E2F5E2BEF5F5E233E2F5F5BEE2F5E2F5
310
F5F5F5F5F5F5F5F5F5F5F5F5F5F5F5F5F5F5F5F5F5F5E2E2E2F5E2E2F5F5F5F5F5E2F5F5F5F5F5F5F5F5F5F5F5E2F5F5F5F5F5F5F5F5F5F5F5E2E2E2E2E2E2E2E2E2E2E2E2E2E2E2E2E2E2E2E2E2E2E2E2E2E2E2E2E2E2E2E2E2E2E2E2F5E2BEF5F5E20BE2F5F5BEE2F5E2F5F5F5F5F5F5F5F5F5F5F5F5F5F5F5F5F5F5F5F5
310
F5F5F5E2E2E2F5E2F5F5F5F5F5F5E2F5F5F5F5F5E2E2E2E2F5F5E2F5F5F5F5F5F5F5F5F5F5F5E2E2E2E2E2E2E2E2E2F5E2E2E2E2E2E2F5F5F5F5F5F5F5F5F5F5F5F5F5F5F5F5F5F5F5E2F5E2BEF5F5E200E2F5F5BEE2F5E2F5F5F5F5F5F5F5F5F5F5F5F5F5F5F5F5F5F5F5F5F5F5F5E2E2E2E2E2E2E2E2E2E2E2E2F5E2E2E2
310
E2E2E2E2E2E2E2E2E2E2E2E2E2E2E2E2E2E2E2E2E2E2E2E2E2E2E2E2F5E2E2E2E2E2E2F5E2E2E2E2E2E2E2E2E2E2E2E2E2E2E2E2F5F5E2F5E2BEF5F5E27EE2F5F5BEE2F5E2E2E2E2E2E2E2E2E2E2E2E2F5F5F5F5F5F5F5F5F5F5F5F5E2E2E2F5E2E2E2F5F5F5F5E2E2E2E2E2E2E2F5F5E2F5F5E2E2E2E2E2E2E2E2E2E2E2E2
310
E2E2E2E2E2E2E2E2E2E2E2E2E2E2E2E2F5E2E2E2E2E2E2E2E2E2E2E2E2E2E2E2E2F5F5E2F5E2BEF5F5E27EE2F5F5BEE2F5E2E2E2E2E2E2E2E2E2E2E2E2F5F5F5F5F5F5F5F5F5F5F5F5E2E2E2F5E2E2E2F5F5F5F5E2E2E2E2E2F5F5F5F5F5F5F5E2E2E2E2F5F5F5F5F5F5F5F5E2E2E2E2E2E2E2E2E2E2E2E2E2F5F5F5F5F5F5
310
F5F5F5F5F5F5F5F5F5F5F5F5F5F5F5F5E2F5E2BEF5F5E200E2F5F5BEE2F5E2E2E2E2E2E2E2E2E2E2E2E2E2E2E2E2E2E2E2E2E2E2E2E2E2E2E2E2E2E2E2E2E2E2E2E2E2E2E2E2E2E2E2E2E2E2E2E2E2E2E2E2E2E2E2E2E2E2E2E2E2E2E2E2E2E2E2E2E2E2E2E2E2E2E2E2E2E2E2E2E2E2E2E2E2E2E2E2E2E2E2E2E2E2E2F5E2
310
BEF5F5E200E2F5F5BEE2F5E2F5F5F5F5F5F5F5F5F5F5F5F5F5F5F5F5F5F5F5F5F5F5F5F5F5F5F5F5F5F5F5F5F5F5F5F5F5F5F5F5F5F5F5F5F5F5F5F5F5F5F5F5F5F5F5F5F5F5F5F5F5F5F5F5F5F5F5F5F5F5F5F5F5F5F5F5F5F5F5F5F5F5F5F5F5F5F5F5F5F5F5F5F5E2F5E2BEF5F5E200E2F5F5BEE2F5E2F5F5F5F5F5F5F5
310
F5F5F5F5F5F5F5F5F5F5F5F5F5F5F5F5F5F5F5F5F5F5F5F5F5F5F5F5F5F5F5F5F5F5F5F5F5F5F5F5F5F5F5F5F5F5F5F5F5F5F5F5F5F5F5F5F5F5F5F5F5F5F5F5F5F5F5F5F5F5F5F5F5F5F5F5F5F5F5F5F5F5F5F5F5F5E2F5E2BEF5F5E200E2F5F5BEE2F5E2F5F5F5F5F5F5F5F5F5F5F5F5F5F5F5F5F5F5F5F5F5F5F5F5F5F5
310
F5F5F5F5F5F5F5F5F5F5F5F5F5F5F5F5F5F5F5F5F5F5F5F5F5F5F5F5F5F5F5F5F5F5F5F5F5F5F5F5F5F5F5F5F5F5F5F5F5F5F5F5F5F5F5F5F5F5F5F5F5F5F5F5F5F5F5E2F5E2BEF5F5E200E2F5F5BEE2F5E2F5F5F5F5F5F5F5F5F5F5F5F5F5F5F5F5F5F5F5F5F5F5F5F5F5F5F5F5F5F5F5F5F5F5F5F5F5F5F5F5F5F5F5F5F5
310
F5F5F5F5F5F5F5F5F5F5F5F5F5F5F5F5F5F5F5F5F5F5F5F5F5F5F5F5F5F5F5F5F5F5F5F5F5F5F5F5F5F5F5F5F5F5F5F5E2F5E2BEF5F5E200E2F5F5BEE2F5E2F5F5F5F5F5F5F5F5F5F5F5F5F5F5F5F5F5F5F5F5F5F5F5F5F5F5F5F5F5F5F5F5F5F5F5F5F5F5F5F5F5F5F5F5F5F5F5F5F5F5F5F5F5F5F5F5F5F5F5F5F5F5F5F5
310
F5F5F5F5F5F5F5F5F5F5F5F5F5F5F5F5F5F5F5F5F5F5F5F5F5F5F5F5F5E2F5E2BEF5F5E2FFE2F5F5BEE2F5E2F5F5F5F5F5F5F5F5F5F5F5F5F5F5F5F5F5F5F5F5F5F5F5F5F5F5F5F5F5F5F5F5F5F5F5F5F5F5F5F5F5F5F5F5F5F5F5F5F5F5F5F5F5F5F5F5F5F5F5F5F5F5F5F5F5F5F5F5F5F5F5F5F5F5F5F5F5F5F5F5F5F5F5
310
F5F5F5F5F5F5F5F5F5F5E2F5E2BEF5F5E262E2F5F5BEE2F5E2F5F5F5F5F5F5F5F5F5F5F5F5F5F5F5F5F5F5F5F5F5F5F5F5F5F5F5F5F5F5F5F5F5F5F5F5F5F5F5F5F5F5F5F5F5F5F5F5F5F5F5F5F5F5F5F5F5F5F5F5F5F5F5F5F5F5F5F5F5F5F5F5F5F5F5F5F5F5F5F5F5F5F5F5F5F5F5F5F5F5F5F5F5E2F5E2BEF5F5E200E2
310
F5F5BEE2F5E2F5F5F5F5F5F5F5F5F5F5F5F5F5F5F5F5F5F5F5F5F5F5F5F5F5F5F5F5F5F5F5F5F5F5F5F5F5F5F5F5F5F5F5F5F5F5F5F5F5F5F5F5F5F5F5F5F5F5F5F5F5F5F5F5F5F5F5F5F5F5F5F5F5F5F5F5F5F5F5F5F5F5F5F5F5F5F5F5F5F5F5F5F5E2F5E2BEF5F5E200E2F5F5BEE2F5E2F5F5F5F5F5F5F5F5F5F5F5F5F5
310
F5F5F5F5F5F5F5F5F5F5F5F5F5F5F5F5F5F5F5F5F5F5F5F5F5F5F5F5F5F5F5F5F5F5F5F5F5F5F5F5F5F5F5F5F5F5F5F5F5F5F5F5F5F5F5F5F5F5F5F5F5F5F5F5F5F5F5F5F5F5F5F5F5F5F5F5F5F5F5F5E2F5E2BEF5F5E200E2F5F5BEE2F5E2F5F5F5F5F5F5F5F5F5F5F5F5F5F5F5F5F5F5F5F5F5F5F5F5F5F5F5F5F5F5F5F5
310
F5F5F5F5F5F5F5F5F5F5F5F5F5F5F5F5F5F5F5F5F5F5F5F5F5F5F5F5F5F5F5F5F5F5F5F5F5F5F5F5F5F5F5F5F5F5F5F5F5F5F5F5F5F5F5F5F5F5F5F5F5E2F5E2BEF5F5E200E2F5F5BEE2F5E2F5F5F5F5F5F5F5F5F5F5F5F5F5F5F5F5F5F5F5F5F5F5F5F5F5F5F5F5F5F5F5F5F5F5F5F5F5F5F5F5F5F5F5F5F5F5F5F5F5F5F5
310
F5F5F5F5F5F5F5F5F5F5F5F5F5F5F5F5F5F5F5F5F5F5F5F5F5F5F5F5F5F5F5F5F5F5F5F5F5F5F5F5F5F5E2F5E2BEF5F5E200E2F5F5BEE2F5E2F5F5F5F5F5F5F5F5F5F5F5F5F5F5F5F5F5F5F5F5F5F5F5F5F5F5F5F5F5F5F5F5F5F5F5F5F5F5F5F5F5F5F5F5F5F5F5F5F5F5F5F5F5F5F5F5F5F5F5F5F5F5F5F5F5F5F5F5F5F5
310
F5F5F5F5F5F5F5F5F5F5F5F5F5F5F5F5F5F5F5F5F5F5F5E2F5E2BEF5F5E2CDE2F5F5BEE2F5E2F5F5F5F5F5F5F5F5F5F5F5F5F5F5F5F5F5F5F5F5F5F5F5F5F5F5F5F5F5F5F5F5F5BEF5F5F5F5F5F5F5F5F5F5F5F5F5F5F5F5F5F5F5F5F5F5F5F5F5F5F5F5F5F5F5BEF5F5F5F5F5F5F5F5F5F5F5F5F5F5F5F5F5F5F5F5F5F5F5
310
F5F5F5F5E2F5E2BEF5F5E200E2F5F5BEE2F5E2F5F5F5F5F5F5F5F5F5F5F5F5F5F5F5F5F5F5F5F5F5F5F5F5F5F5F5F5F5F5F5F5F5BEBEF5F5F5F5F5F5F5F5BEBEBEF5BEBEBEBEBEBEBEF5F5F5F5F5F5F5F5F5BEF5BEF5F5F5F5F5F5F5F5F5F5F5F5F5F5F5F5F5F5F5F5F5F5F5F5F5F5F5E2F5E2BEF5F5E2CDE2F5F5BEE2F5E2
310
F5F5F5F5F5F5F5F5F5F5F5F5F5F5F5F5F5F5F5F5F5F5F5F5F5F5F5F5F5F5F5F5F5BEBEBEBEBEBEBEBEBEBEBEBEBEBEBEBEBEBEBEBEBEBEBEBEBEBEBEBEBEBEBEBEBEF5F5F5F5F5F5F5F5F5F5F5F5F5F5F5F5F5F5F5F5F5F5F5F5F5F5F5E2F5E2BEF5F5E200E2F5F5BEE2F5E2F5F5F5F5F5F5F5F5F5F5F5F5F5F5F5F5F5F5F5
310
F5F5F5F5F5F5F5F5F5F5F5F5F5F5BEF5F5F5F5F5F5F5F5F5F5F5F5F5F5F5F5F5F5F5F5F5F5F5F5F5F5F5F5F5F5F5BEF5F5F5F5F5F5F5F5F5F5F5F5F5F5F5F5F5F5F5F5F5F5F5F5F5F5F5E2F5E2BEF5F5E2CDE2F5F5BEE2F5E2F5F5F5F5F5F5F5F5F5F5F5F5F5F5F5F5F5F5F5F5F5F5F5F5F5F5F5F5F5F5F5F5F5BEF5F5F5F5
310
F5F5F5F5F5F5F5F5F5F5F5F5F5F5F5F5F5F5F5F5F5F5F5F5F5F5F5BEF5F5F5F5F5F5F5F5F5F5F5F5F5F5F5F5F5F5F5F5F5F5F5F5F5F5F5E2F5E2BEF5F5E200E2F5F5BEE2F5E2F5F5F5F5F5F5F5F5F5F5F5F5F5F5F5F5F5F5F5F5F5F5F5F5F5F5F5F5F5F5F5F5F5BEF5F5F5F5F5F5BEF5F5F5BEBEBEBEF5F5BEBEBEBEF5F5F5
310
F5BEF5F5F5F5F5F5BEF5F5F5F5F5F5F5F5F5F5F5F5F5F5F5F5F5F5F5F5F5F5F5F5F5F5F5E2F5E2BEF5F5E2CDE2F5F5BEE2F5E2F5F5F5F5F5F5F5F5F5F5F5F5F5F5F5F5F5F5F5F5F5F5F5F5F5F5F5F5F5F5F5F5F5BEF5F5F5F5F5F5BEBEBEBEBEBEBEBEBEBEBEBEBEBEBEBEBEBEBEF5F5F5F5F5F5BEF5F5F5F5F5F5F5F5F5F5
310
F5F5F5F5F5F5F5F5F5F5F5F5F5F5F5F5F5E2F5E2BEF5F5E200E2F5F5BEE2F5E2F5F5F5F5F5F5F5F5F5F5F5F5F5F5F5F5F5F5F5F5F5F5F5F5F5F5F5F5F5F5F5F5F5BEF5F5F5F5F5F5BEF5F5F5F5BEBEBEF5BEBEBEBEBEBEF5F5F5BEF5F5F5F5F5F5BEF5F5F5F5F5F5F5F5F5F5F5F5F5F5F5F5F5F5F5F5F5F5F5F5F5F5F5E2F5
310
E2BEF5F5E2CDE2F5F5BEE2F5E2F5F5F5F5F5F5F5F5F5F5F5F5F5F5F5F5F5F5F5F5BEF5F5F5F5F5F5F5F5F5F5F5F5BEF5F5F5F5F5F5BEF5F5F5F5F5F5F5F5F5F5F5F5F5F5F5F5F5BEF5F5F5F5F5F5BEF5F5F5F5F5F5F5F5F5F5F5F5F5F5F5F5F5F5F5F5F5F5F5F5F5F5F5E2F5E2BEF5F5E200E2F5F5BEE2F5E2F5F5F5F5F5F5
310
F5F5F5F5F5F5F5F5F5F5F5F5F5F5BEF5F5F5F5F5F5F5F5F5F5F5F5BEF5F5F5F5F5F5BEF5F5F5F5F5F5F5F5F5F5F5F5F5F5F5F5F5BEF5F5F5F5F5F5BEF5F5F5F5F5F5F5F5F5F5F5F5F5F5F5F5F5F5F5F5F5F5F5F5F5F5F5E2F5E2BEF5F5E2CDE2F5F5BEE2F5E2F5F5F5F5F5F5F5F5F5F5F5F5F5F5F5F5F5F5F5F5BEF5F5F5F5
310
F5F5F5F5F5F5F5F5BEF5F5F5F5F5F5BEF5F5F5F5F5F5F5F5F5F5F5F5F5F5F5F5F5BEF5F5F5F5F5F5BEF5F5F5F5F5F5F5F5F5F5F5F5F5F5F5F5F5F5F5F5F5F5F5F5F5F5F5E2F5E2BEF5F5E200E2F5F5BEE2F5E2F5F5F5F5F5F5BEBEBEBEBEBEBEBEBEBEBEBEBEBEBEBEBEBEBEBEBEBEBEBEBEBEBEC3BEC3C3C3C3C3BEC3C3C3
310
C3C3C3C3C3C3C3C3C3C3C3C3C3C3BEC3C3C3C3C3C3C3F5F5F5F5F5F5F5F5F5F5F5F5F5F5F5F5F5F5F5F5F5F5F5F5F5F5F5E2F5E2BEF5F5E2CDE2F5F5BEE2F5E2F5F5F5F5F5F5F5F5BEF5F5F5F5F5F5BEBEBEBEBEBEBEBEBEBEBEBEF5BEBEF5F5F5C3F5F5F5F5F5F5BEF5F5F5F5F5F5F5F5F5F5F5F5F5F5F5F5F5BEF5F5F5F5
310
F5F5C3F5F5F5F5F5F5F5F5F5F5F5F5F5F5F5F5F5F5F5F5F5F5F5F5F5F5F5E2F5E2BEF5F5E200E2F5F5BEE2F5E2F5F5F5F5F5F5F5F5BEF5F5F5F5F5F5BEBEBEBEBEBEBEBEBEF5BEBEBEBEBEBEF5F5C3F5F5F5F5F5F5BEF5F5F5F5F5F5F5F5F5F5F5F5F5F5F5F5F5BEF5F5F5F5F5F5C3F5F5F5F5F5F5F5F5F5F5F5F5F5F5F5F5
310
F5F5F5F5F5F5F5F5F5F5F5E2F5E2BEF5F5E2CDE2F5F5BEE2F5E2F5F5F5F5F5F5F5F5BEF5F5F5F5F5F5F5F5F5F5F5F5F5F5F5F5F5F5F5F5F5F5F5F5C3F5F5F5F5F5F5BEF5F5F5F5F5F5F5F5F5F5F5F5F5F5F5F5F5BEF5F5F5F5F5F5C3F5F5F5F5F5F5F5F5F5F5F5F5F5F5F5F5F5F5F5F5F5F5F5F5F5F5F5E2F5E2BEF5F5E200
310
E2F5F5BEE2F5E2F5F5F5F5F5F5F5F5BEF5F5F5F5F5F5F5F5F5BEBEBEBEBEBEBEBEBEF5F5F5F5F5F5F5BEC3C3C3C3C3BEF5F5F5F5F5F5F5F5F5F5F5F5F5F5F5F5F5BEC3C3C3C3C3BEBEBEBEBEBEBEBEBEBEBEBEBEBEBEBEBEF5F5F5F5F5F5F5F5F5F5F5F5E2F5E2BEF5F5E2CDE2F5F5BEE2F5E2F5F5F5F5F5F5F5F5BEF5F5F5
310
F5F5F5F5F5F5F5F5BEF5F5F5F5F5F5F5F5F5F5F5F5F5F5F5F5F5F5F5C3F5F5F5F5F5F5F5F5F5F5F5F5F5F5F5F5F5C3F5F5F5F5F5F5F5F5F5F5F5F5F5F5F5F5F5F5F5F5BEF5F5F5F5F5F5F5F5F5F5F5F5F5E2F5E2BEF5F5E200E2F5F5BEE2F5E2F5F5F5F5F5F5F5F5BEF5F5F5F5F5F5F5F5F5F5F5BEF5F5F5F5F5F5F5F5F5F5
310
F5F5F5F5F5F5F5F5F5C3F5F5F5F5F5F5F5F5F5F5F5F5F5F5F5F5F5C3F5F5F5F5F5F5F5F5F5F5F5F5F5F5F5F5F5F5BEBEBEBEBEF5F5F5F5F5F5F5F5F5F5F5E2F5E2BEF5F5E2CDE2F5F5BEE2F5E2F5F5F5F5F5F5F5F5BEF5F5F5F5F5F5F5F5F5F5F5F5F5F5F5F5F5F5F5F5F5F5F5F5F5F5F5F5F5F5F5C3F5F5F5F5F5F5F5F5F5
310
F5F5F5F5F5F5F5F5C3F5F5F5F5F5F5F5F5F5F5F5F5F5F5F5F5F5F5BEBEBEBEBEF5F5F5F5F5F5F5F5F5F5F5E2F5E2BEF5F5E200E2F5F5BEE2F5E2F5F5F5F5F5F5F5F5BEF5F5F5F5F5F5F5F5F5F5F5F5F5F5F5F5F5F5F5F5F5F5F5F5F5F5F5F5F5F5F50FF5F5F5F5F5F5F5F5F5F5F5F5F5F5F5F5F50FF5F5F5F5F5F5F5F5F5F5
310
F5F5F5F5F5F5F5F5BEBEBEBEBEF5F5F5F5F5F5F5F5F5F5F5E2F5E2BEF5F5E2CDE2F5F5BEE2F5E2F5F5F5F5F5F5F5F5BEF5F5F5F5F5F5F5F5F5F5F5F5F5F5F5F5F5F5F5F5F5F5F5F5F5F5F5F5F5F50F0FC3C3C3C3C3C3C3C3C3C3C3C3C3C3C3C3C30F0FF5F5F5F5F5F5F5F5F5F5F5F5F5F5F5F5F5F5F5BEF5F5F5F5F5F5F5F5
310
F5F5F5F5F5E2F5E2BEF5F5E200E2F5F5BEE2F5E2F5F5F5F5F5F5F5F5BEF5F5F5F5F5F5F5F5F5F5F5F5F5F5F5F5F5F5F5F5F5F50F0F0F0F0F0F0F0FF5F5F5F5F5F5F5F5F5F5F5F5F5F5F5F5F5F5F5F5F50FBEBEBEBEBEBEBEBEBEBEBEBEBEBEBEBEBEBEBEBEF5F5F5F5F5F5F5F5F5F5F5F5E2F5E2BEF5F5E2CDE2F5F5BEE2F5
310
E2F5F5F5F5F5F5F5F5BEF5F5F5F5F5F5F5F5F5F5F5F5F5F5F5F5F5F5F5F50F0FF5F5F5F5F5F5F5F5F5F5F5F5F5F5F5F5F5F5F5F5F5F5F5F5F5F5F5F5F5F5F5F5F5F5F5F5F50F0FF5F5F5F5F5F5F5F5F5F5F5F5F5F5F5F5F5F5F5F5F5F5F5E2F5E2BEF5F5E200E2F5F5BEE2F5E2F5F5F5F5F5F5F5F5BEF5F5F5F5F5F5F5F5F5
310
F5F5F5F5F5F5F5F5F50F0FF5F5F5F5F5F5F5F5F5F5F5F5F5F5F5F5F5F5F5F5F5F5F5F5F5F5F5F5F5F5F5F5F5F5F5F5F5F5F5F5F50F0FF5F5F5F5F5F5F5F5F5F5F5F5F5F5F5F5F5F5F5F5F5E2F5E2BEF5F5E2CDE2F5F5BEE2F5E2F5F5F5F5F5F5F5F5BEF5F5F5F5F5F5F5F5F5F5F5F5F5F5F5F5F5F50FF5F5F5F5F5F5F5F5F5
310
F50F0F0F0F0F0F0F0F0F0F0F0F0F0F0F0F0F0F0F0F0F0FF5F5F5F5F5F5F5F5F5F5F5F50FF5F5F5F5F5F5F5F5F5F5F5F5F5F5F5F5F5F5F5F5E2F5E2BEF5F5E200E2F5F5BEE2F5E2F5F5F5F5F5F5F5F5BEF5F5F5F5F5F5F5F5F5F5F5F5F5F5F5F5F50FF5F5F50F0F0F0F0F0F0F0FF5F5F5F5F5F5F5F5F5F5F5F5F5F5F5F5F5F5
310
F5F5F5F50F0F0F0F0F0F0F0F0FF5F5F50FF5F5F5F5F5F5F5F5F5F5F5F5F5F5F5F5F5F5F5F5E2F5E2BEF5F5E2CDE2F5F5BEE2F5E2F5F5F5F5F5F5F5F5BEF5F5F5F5F5F5F5F5F5F5F5F5F5F5F5F5F50FF5F50FF5F5F5F5F5F5F5F5F5F5F5F5F5F5F5F5F5F5F5F5F5F5F5F5F5F5F5F5F5F5F5F5F5F5F5F5F5F50FF5F5F50FF5F5
310
F5F5F5F5F5F5F5F5F5F5F5F5F5F5F5F5F5F5E2F5E2BEF5F5E200E2F5F5BEE2F5E2F5F5F5F5F5F5F5F5BEF5F5F5F5F5F5F5F5F5F5F5F5F5F5F5F5F50FF5F50FF5F5F5F5F5F5F5F5F5F5F5F5F5F5F5F5F5F5F5F5F5F5F5F5F5F5F5F5F5F5F5F5F5F5F5F5F5F5F50FF5F50FF5F5F5F5F5F5F5F5F5F5F5F5F5F5F5F5F5F5F5F5E2
310
F5E2BEF5F5E276E2F5F5BEE2F5E2F5F5F5F5F5F5F5F5BEF5F5F5F5F5F5F5F5F5F5F5F5F5F5F5F5F50FF5F50FF5F5F5F5F5F5F5F5F5F5F5F5F5F5F5F5F5F5F5F5F5F5F5F5F5F5F5F5F5F5F5F5F5F5F5F5F5F5F50FF5F50FF5F5F5F5F5F5F5F5F5F5F5F5F5F5F5F5F5F5F5F5E2F5E2BEF5F5E201E2F5F5BEE2F5E2F5F5F5F5F5
310
F5F5F5BEF5F5F5F5F5F5F5F5F5F5F5F5F5F5F5F5F50FF5F50FF5F5F5F5F5F5F5F5F5F5F5F5F5F5F5F5F5F5F5F5F5F5F5F5F5F5F5F5F5F5F5F5F5F5F5F5F5F5F50FF5F50FF5F5F5BEBEBEBEBEBEBEBEBEBEF5F5F5F5F5F5F5E2F5E2BEF5F5E200E2F5F5BEE2F5E2F5F5F5F5F5F5F5F5BEF5F5F5F5F5F5F5F5F5F5F5F5F5F5F5
310
F5F50FF5F50FF5F5F5F5F5F5F5F5F5F5F5F5F5F5F5F5F5F5F5F5F5F5F5F5F5F5F5F5F5F5F5F5F5F5F5F5BEBEBE0FF5F50FBEBEBEBEBEBEBEBEBEBEBEBEBEF5F5F5F5F5F5F5E2F5E2BEF5F5E200E2F5F5BEE2F5E2F5F5F5F5F5F5F5F5BEF5F5F5F5F5F5F5F5F5F5F5F5F5F5F5F5F50FF5F50FF5F5F5F5F5F5F5F5F5F5F5F5F5
310
F5F5F5F5F5F5F5F5F5F5F5F5F5F5F5F5F5F5F5F5F5F5F5F5F5F50FF5F50FF5F5F5F5F5F5F5F5F5F5F5F5F5F5F5F5F5F5F5F5E2F5E2BEF5F5E200E2F5F5BEE2F5E2F5F5F5BEBEBEBEBEBEBEBEBEBEBEF5F5F5F5F5F5F5F5F5F5F5F50FF5F50FF5F5F5F5F5F5F5F5F5F5F5F5F5F5F5F5F5F5F5F5F5F5F5F5F5F5F5F5F5F5F5F5
310
F5F5F5F5F5F5F50FF5F50FF5F5F5F5F5F5F5F5F5F5F5F5F5F5F5F5F5F5F5F5E2F5E2BEF5F5E200E2F5F5BEE2F5E2F5F5F5F5BEBEBEBEBEBEBEBEBEBEF5F5F5F5F5F5F5F5F5F5F5F50FF5F50FF5F5F5F5F5F5F5F5F5F5F5F5F5F5F5F5F5F5F5F5F5F5F5F5F5F5F5F5F5F5F5F5F5F5F5F5F5F5F50FF5F50FF5F5F5F5F5F5F5F5
310
F5F5F5F5F5F5F5F5F5F5F5F5E2F5E2BEF5F5E200E2F5F5BEE2F5E2F5F5F5F5F5F5F5F5BEF5F5F5F5F5F5F5F5F5F5F5F5F5F5F5F5F50FF5F50FF5F5F5F5F5F5F5F5F5F5F5F5F5F5F5F5F5F5F5F5F5F5F5F5F5F5F5F5F5F5F5F5F5F5F5F5F5F5F50FF5F50FF5F5F5F5F5F5F5F5F5F5F5F5F5F5F5F5F5F5F5F5E2F5E2BEF5F5E2
310
00E2F5F5BEE2F5E2F5F5F5F5F5F5F5F5BEF5F5F5F5F5F5F5F5F5F5F5F5F5F5F5F5F50FF5F5F50FF5F5F5F5F5F5F5F5F5F5F5F5F5F5F5F5F5F5F5F5F5F5F5F5F5F5F5F5F5F5F5F5F5F5F5F5F50FF5F50FBEF5F5F5F5F5F5F5F5F5F5F5F5F5F5F5F5F5F5F5F5E2F5E2BEF5F5E200E2F5F5BEE2F5E2F5F5F5F5F5F5F5F5BEF5F5
310
F5F5F5F5F5F5F5F5F5F5F5F5F5F5F50FF5F5F50FF5F5F5F5F5F5F5F5F5F5F5F5F5F5F5F5F5F5F5F5F5F5F5F5F5F5F5F5F5F5F5F5F5F5F5F5F50FF5F50FBEF5F5F5F5F5F5F5F5F5F5F5F5F5F5F5F5F5F5F5F5E2F5E2BEF5F5E200E2F5F5BEE2F5E2F5F5F5F5F5F5F5F5BEF5F5F5F5F5F5F5F5F5F5F5F5F5F5F5F5F50FF5F5F5
310
0FF5F5F5F5F5F5F5F5F5F5F5F5F5F5F5F5F5F5F5F5F5F5F5F5F5F5F5F5F5F5F5F5F5F5F5F5F50FF5F50FBEF5F5F5F5F5F5F5F5F5F5F5F5F5F5F5F5F5F5F5F5E2F5E2BEF5F5E200E2F5F5BEE2F5E2F5F5F5F5F5F5F5F5BEF5F5F5F5F5F5F5F5F5F5F5F5F5F5F5F5F5BE0FF5F5F50FF5F5F5F5F5F5F5F5F5F5F5F5F5F5F5F5F5
310
F5F5F5F5F5F5F5F5F5F5F5F5F5F5F5F5F5F5F50FF5F50FBEF5F5F5F5F5F5F5F5F5F5F5F5F5F5F5F5F5F5F5F5E2F5E2BEF5F5E200E2F5F5BEE2F5E2F5F5F5F5F5F5F5F5BEF5F5F5F5F5F5F5F5F5F5F5F5F5F5F5F5F5BE0FF5F5F50FF5F5F5F5F5F5F5F5F5F5F5F5F5F5F5F5F5F5F5F5F5F5F5F5F5F5F5F5F5F5F5F5F5F5F50F
310
F5F5F50FBEF5F5F5F5F5F5F5F5F5F5F5F5F5F5F5F5F5F5F5F5E2F5E2BEF5F5E200E2F5F5BEE2F5E2F5F5F5F5F5F5F5F5BEF5F5F5F5F5F5F5F5F5F5F5F5F5F5F5F5F5BEF50FF5F5F50FF5F5F5F5F5F5F5F5F5F5F5F5F5F5F5F5F5F5F5F5F5F5F5F5F5F5F5F5F5F5F5F5F5F50FF5F50FF5BEF5F5F5F5F5F5F5F5F5F5F5F5F5F5
310
F5F5F5F5F5F5E2F5E2BEF5F5E200E2F5F5BEE2F5E2F5F5F5F5F5F5F5F5BEF5F5F5F5F5F5F5F5F5F5F5F5F5F5F5F5F5BEF50FF5F5F50FF5F5F5F5F5F5F5F5F5F5F5F5F5F5F5F5F5F5F5F5F5F5F5F5F5F5F5F5F5F5F5F5F50FF5F5F50FF5BEF5F5F5F5F5F5F5F5F5F5F5F5F5F5F5F5F5F5F5F5E2F5E2BEF5F5E200E2F5F5BEE2
310
F5E2F5F5F5F5F5F5F5F5BEF5F5F5F5F5F5F5F5F5F5F5F5F5F5F5F5F5BEF5F50FF5F5F50FF5F5F5F5F5F5F5F5F5F5F5F5F5F5F5F5F5F5F5F5F5F5F5F5F5F5F5F5F5F5F50FF5F5F50FF5F5BEF5F5F5F5F5F5F5F5F5F5F5F5F5F5F5F5F5F5F5F5E2F5E2BEF5F5E200E2F5F5BEE2F5E2F5F5F5F5F5F5F5F5BEF5F5F5F5F5F5F5F5
310
F5F5F5F5F5F5F5F5F5BEF5F50FF5F5F50FF5F5F5F5F5F5F5F5F5F5F5F5F5F5F5F5F5F5F5F5F5F5F5F5F5F5F5F5F5F5F50FF5F5F50FF5F5BEF5F5F5F5F5F5F5F5F5F5F5F5F5F5F5F5F5F5F5F5E2F5E2BEF5F5E200E2F5F5BEE2F5E2F5F5F5F5F5F5F5F5BEF5F5F5F5F5F5F5F5F5F5F5F5F5F5F5F5F5BEF5F5F50FF5F5F50FF5
310
F5F5F5F5F5F5F5F5F5F5F5F5F5F5F5F5F5F5F5F5F5F5F5F5F5F5F5F50FF5F5F50FF5F5F5BEF5F5F5F5F5F5F5F5F5F5F5F5F5F5F5F5F5F5F5F5E2F5E2BEF5F5E200E2F5F5BEE2F5E2F5F5F5F5F5F5F5F5BEF5F5F5F5F5F5F5F5F5F5F5F5F5F5F5F5F5BEF5F5F50FF5F5F50FF5F5F5F5F5F5F5F5F5F5F5F5F5F5F5F5F5F5F5F5
310
F5F5F5F5F5F5F5F50FF5F5F50FF5F5F5F5BEF5F5F5F5F5F5F5F5F5F5F5F5F5F5F5F5F5F5F5F5E2F5E2BEF5F5E200E2F5F5BEE2F5E2F5F5F5F5F5F5F5F5BEF5F5F5F5F5F5F5F5F5F5F5F5F5F5F5F5F5BEF5F5F5F50FF5F5F50F0FF5F5F5F5F5F5F5F5F5F5F5F5F5F5F5F5F5F5F5F5F5F5F5F5F50FF5F5F50FF5F5F5F5F5BEF5
310
F5F5F5F5F5F5F5F5F5F5F5F5F5F5F5F5F5F5F5E2F5E2BEF5F5E200E2F5F5BEE2F5E2F5F5F5F5F5F5F5F5BEF5F5F5F5F5F5F5F5F5F5F5F5F5F5F5F5F5BEF5F5F5F5F50FF5F5F5F50FF5F5F5F5F5F5F5F5F5F5F5F5F5F5F5F5F5F5F5F5F5F5F50FF5F5F5F50FF5F5F5F5F5BEF5F5F5F5F5F5F5F5F5F5F5F5F5F5F5F5F5F5F5F5
310
E2F5E2BEF5F5E200E2F5F5BEE2F5E2F5F5F5F5F5F5F5F5BEF5F5F5F5F5F5F5F5F5F5F5F5F5F5F5F5F5BEF5F5F5F5F5F50FF5F5F5F50FF5F5F5F5F5F5F5F5F5F5F5F5F5F5F5F5F5F5F5F5F50FF5F5F5F50FF5F5F5F5F5F5BEF5F5F5F5F5F5F5F5F5F5F5F5F5F5F5F5F5F5F5F5E2F5E2BEF5F5E200E2F5F5BEE2F5E2F5F5F5F5
310
F5F5F5F5BEF5F5F5F5F5F5F5F5F5F5F5F5F5F5F5F5F5BEF5F5F5F5F5F5F50FF5F5F5F50F0FF5F5F5F5F5F5F5F5F5F5F5F5F5F5F5F5F50F0FF5F5F5F50FF5F5F5F5F5F5F5BEF5F5F5F5F5F5F5F5F5F5F5F5F5F5F5F5F5F5F5F5E2F5E2BEF5F5E200E2F5F5BEE2F5E2F5F5F5F5F5F5F5F5BEF5F5F5F5F5F5F5F5F5F5F5F5F5F5
310
F5F5F5BEF5F5F5F5F5F5F5F50F0FF5F5F5F50F0F0F0FF5F5F5F5F5F5F5F5F50F0F0F0FF5F5F5F50F0FF5F5F5F5F5F5F5F5BEF5F5F5F5F5F5F5F5F5F5F5F5F5F5F5F5F5F5F5F5E2F5E2BEF5F5E200E2F5F5BEE2F5E2F5F5F5F5F5F5F5F5BEF5F5F5F5F5F5F5F5F5F5F5F5F5F5F5F5F5BEF5F5F5F5F5F5F5F5F5F50F0FF5F5F5
310
F5F5F50F0F0F0F0F0F0F0F0FF5F5F5F5F5F50F0FF5F5F5F5F5F5F5F5F5F5BEF5F5F5F5F5F5F5F5F5F5F5F5F5F5F5F5F5F5F5F5E2F5E2BEF5F5E200E2F5F5BEE2F5E2F5F5F5F5F5F5F5F5BEF5F5F5F5F5F5F5F5F5F5F5F5F5F5F5F5F5BEF5F5F5F5F5F5F5F5F5F5F5F50F0FF5F5F5F5F5F5F5F5F5F5F5F5F5F5F5F5F50F0FF5
310
F5F5F5F5F5F5F5F5F5F5F5BEF5F5F5F5F5F5F5F5F5F5F5F5F5F5F5F5F5F5F5F5E2F5E2BEF5F5E200E2F5F5BEE2F5E2F5F5F5F5F5F5F5F5BEF5F5F5F5F5F5F5F5F5F5F5F5F5F5F5F5F5BEF5F5F5F5F5F5F5F5F5F5F5F5F5F50F0F0FF5F5F5F5F5F5F5F5F5F50F0F0F0FF5F5F5F5F5F5F5F5F5F5F5F5F5F5BEF5F5F5F5F5F5F5
310
F5F5F5F5F5F5F5F5F5F5F5F5F5E2F5E2BEF5F5E2FFE2F5F5BEE2F5E2F5F5F5F5F5F5BEBEBEBEBEBEBEBEBEBEBEBEBEBEBEBEBEBEBEBEBEBEBEBEBEBEBEBEBEBEBEBEBEBEBEBEBEBE0F0F0F0F0F0F0F0F0F0FF5F5F5F5F5F5F5F5F5F5F5F5F5F5F5F5F5F5BEF5F5F5F5F5F5F5F5F5F5F5F5F5F5F5F5F5F5F5F5E2F5E2BEF5F5
310
E200E2F5F5BEE2F5E2F5F5F5F5F5F5F5F5F5F5F5F5F5F5F5F5F5F5F5F5F5F5F5F5F5F5BEF5F5F5F5F5F5F5F5F5F5F5F5F5F5F5F5F5F5F5F5F5F5F5F5F5F5F5F5F5F5F5F5F5F5F5F5F5F5F5F5F5F5F5F5F5BEF5F5F5F5F5F5F5F5F5F5F5F5F5F5F5F5F5F5F5F5E2F5E2BEF5F5E200E2F5F5BEE2F5E2F5F5F5F5F5F5F5F5F5F5
310
F5F5F5F5F5F5F5F5F5F5F5F5F5F5F5F5BEF5F5F5F5F5F5F5F5F5F5F5F5F5F5F5F5F5F5F5F5F5F5F5F5F5F5F5F5F5F5F5F5F5F5F5F5F5F5F5F5F5F5F5F5F5BEF5F5F5F5F5F5F5F5F5F5F5F5F5F5F5F5F5F5F5F5E2F5E2BEF5F5E200E2F5F5BEE2F5E2F5F5F5F5F5F5F5F5F5F5F5F5F5F5F5F5F5F5F5F5F5F5F5F5F5F5BEF5F5
310
F5F5F5F5F5F5F5F5F5F5F5F5F5F5F5F5F5F5F5F5F5F5F5F5F5F5F5F5F5F5F5F5F5F5F5F5F5F5F5F5F5F5F5BEF5F5F5F5F5F5F5F5F5F5F5F5F5F5F5F5F5F5F5F5E2F5E2BEF5F5E200E2F5F5BEE2F5E2F5F5F5F5F5F5F5F5F5F5F5F5F5F5F5F5F5F5F5F5F5F5F5F5F5F5BEF5F5F5F5F5F5F5F5F5F5F5F5F5F5F5F5F5F5F5F5F5
310
F5F5F5F5F5F5F5F5F5F5F5F5F5F5F5F5F5F5F5F5F5F5F5F5BEF5F5F5F5F5F5F5F5F5F5F5F5F5F5F5F5F5F5F5F5E2F5E2BEF5F5E200E2F5F5BEE2F5E2F5F5F5F5F5F5F5F5F5F5F5F5F5F5F5F5F5F5F5F5F5F5F5F5F5F5BEF5F5F5F5F5F5F5F5F5F5F5F5F5F5F5F5F5F5F5F5F5F5F5F5F5F5F5F5F5F5F5F5F5F5F5F5F5F5F5F5
310
F5F5F5F5F5BEF5F5F5F5F5F5F5F5F5F5F5F5F5F5F5F5F5F5F5F5E2F5E2BEF5F5E23FE2F5F5BEE2F5E2F5F5F5F5F5F5F5F5F5F5F5F5F5F5F5F5F5F5F5F5F5F5F5F5F5F5BEF5F5F5F5F5F5F5F5F5F5F5F5F5F5F5F5F5F5F5F5F5F5F5F5F5F5F5F5F5F5F5F5F5F5F5F5F5F5F5F5F5F5F5F5F5BEF5F5F5F5F5F5F5F5F5F5F5F5F5
310
F5F5F5F5F5F5F5E2F5E2BEF5F5E200E2F5F5BEE2F5E2F5F5F5F5F5F5F5F5F5F5F5F5F5F5F5F5F5F5F5F5F5F5F5F5F5F5BEF5F5F5F5F5F5F5F5F5F5F5F5F5F5F5F5F5F5F5F5F5F5F5F5F5F5F5F5F5F5F5F5F5F5F5F5F5F5F5F5F5F5F5F5F5BEF5F5F5F5F5F5F5F5F5F5F5F5F5F5F5F5F5F5F5F5E2F5E2BEF5F5E200E2F5F5BE
310
E2F5E2F5F5F5F5F5F5F5F5F5F5F5F5F5F5F5F5F5F5F5F5F5F5F5F5F5F5BEBEBEBEBEBEBEBEBEBEBEBEBEBEBEBEBEBEBEBEBEBEBEBEBEBEBEBEBEBEBEBEBEBEBEBEBEBEBEBEBEBEBEBEBEBEBEF5F5F5F5F5F5F5F5F5F5F5F5F5F5F5F5F5F5F5F5E2F5E2BEF5F5E200E2F5F5BEE2F5E2F5F5F5F5F5F5F5F5F5F5F5F5F5F5F5F5
310
F5F5F5F5F5F5F5F5F5F5BEBEF5F5F5F5F5F5F5F5F5F5F5F5F5F5F5F5BEBEBEBEBEBEBEBEBEF5F5F5F5F5F5F5F5F5F5F5F5F5F5F5F5F5F5BEBEF5F5F5F5F5F5F5F5F5F5F5F5F5F5F5F5F5F5F5F5E2F5E2BEF5F5E240E2F5F5BEE2F5E2F5F5F5F5F5F5F5F5F5F5F5F5F5F5F5F5F5F5F5F5F5F5F5F5F5F5BEF5F5F5F5F5F5F5F5
310
F5F5F5F5F5F5F5F5F5F5F5F5F5F5F5F5F5F5F5F5F5F5F5F5F5F5F5F5F5F5F5F5F5F5F5F5F5BEF5F5F5F5F5F5F5F5F5F5F5F5F5F5F5F5F5F5F5F5E2F5E2BEF5F5E200E2F5F5BEE2F5E2F5F5F5F5F5F5F5F5F5F5F5F5F5F5F5F5F5F5F5F5F5F5F5F5F5F5F5F5F5F5F5F5F5F5F5F5F5F5F5F5F5F5F5F5F5F5F5F5F5F5F5F5F5F5
310
F5F5F5F5F5F5F5F5F5F5F5F5F5F5F5F5F5F5F5F5F5F5F5F5F5F5F5F5F5F5F5F5F5F5F5F5F5F5F5E2F5E2BEF5F5E200E2F5F5BEE2F5E2F5F5F5F5F5F5F5F5F5F5F5F5F5F5F5F5F5F5F5F5F5F5F5F5F5F5F5F5F5F5F5F5F5F5F5F5F5F5F5F5F5F5F5F5F5F5F5F5F5F5F5F5F5F5F5F5F5F5F5F5F5F5F5F5F5F5F5F5F5F5F5F5F5
310
F5F5F5F5F5F5F5F5F5F5F5F5F5F5F5F5F5F5F5F5E2F5E2BEF5F5E200E2F5F5BEE2F5E2F5F5F5F5F5F5F5F5F5F5F5F5F5F5F5F5F5F5F5F5F5F5F5F5F5F5F5F5F5F5F5F5F5F5F5F5F5F5F5F5F5F5F5F5F5F5F5F5F5F5F5F5F5F5F5F5F5F5F5F5F5F5F5F5F5F5F5F5F5F5F5F5F5F5F5F5F5F5F5F5F5F5F5F5F5F5F5F5F5F5F5F5
310
F5E2F5E2BEF5F5E264E2F5F5BEE2F5E2F5F5F5F5F5F5F5F5F5F5F5F5F5F5F5F5F5F5F5F5F5F5F5F5F5F5F5F5F5F5F5F5F5F5F5F5F5F5F5F5F5F5F5F5F5F5F5F5F5F5F5F5F5F5F5F5F5F5F5F5F5F5F5F5F5F5F5F5F5F5F5F5F5F5F5F5F5F5F5F5F5F5F5F5F5F5F5F5F5F5F5F5F5E2F5E2BEF5F5E200E2F5F5BEE2F5E2F5F5F5
310
F5F5F5F5F5F5F5F5F5F5F5F5F5F5F5F5F5F5F5F5F5F5F5F5F5F5F5F5F5F5F5F5F5F5F5F5F5F5F5F5F5F5F5F5F5F5F5F5F5F5F5F5F5F5F5F5F5F5F5F5F5F5F5F5F5F5F5F5F5F5F5F5F5F5F5F5F5F5F5F5F5F5F5F5F5F5F5F5F5F5E2F5E2BEF5F5E200E2F5F5BEE2F5E2F5F5F5F5F5F5F5F5F5F5F5F5F5F5F5F5F5F5F5F5F5F5
310
F5F5F5F5F5F5F5F5F5F5F5F5F5F5F5F5F5F5F5F5F5F5F5F5F5F5F5F5F5F5F5F5F5F5F5F5F5F5F5F5F5F5F5F5F5F5F5F5F5F5F5F5F5F5F5F5F5F5F5F5F5F5F5F5F5F5F5F5F5F5F5E2F5E2BEF5F5E200E2F5F5BEE2F5E2F5F5F5F5F5F5F5F5F5F5F5F5F5F5F5F5F5F5F5F5F5F5F5F5F5F5F5F5F5F5F5F5F5F5F5F5F5F5F5F5F5
310
F5F5F5F5F5F5F5F5F5F5F5F5F5F5F5F5F5F5F5F5F5F5F5F5F5F5F5F5F5F5F5F5F5F5F5F5F5F5F5F5F5F5F5F5F5F5F5F5F5F5F5F5E2F5E2BEF5F5E200E2F5F5BEE2F5E2F5F5F5F5F5F5F5F5F5F5F5F5F5F5F5F5F5F5F5F5F5F5F5F5F5F5F5F5F5F5F5F5F5F5F5F5F5F5F5F5F5F5F5F5F5F5F5F5F5F5F5F5F5F5F5F5F5F5F5F5
310
F5F5F5F5F5F5F5F5F5F5F5F5F5F5F5F5F5F5F5F5F5F5F5F5F5F5F5F5F5F5F5F5F5E2F5E2BEF5F5E200E2F5F5BEE2F5E2F5F5F5F5F5F5F5F5F5F5F5F5F5F5F5F5F5F5F5F5F5F5F5F5F5F5F5F5F5F5F5F5F5F5F5F5F5F5F5F5F5F5F5F5F5F5F5F5F5F5F5F5F5F5F5F5F5F5F5F5F5F5F5F5F5F5F5F5F5F5F5F5F5F5F5F5F5F5F5
310
F5F5F5F5F5F5F5F5F5F5F5F5F5F5E2F5E2BEF5F5E200E2F5F5BEE2F5E2F5F5F5F5F5F5F5F5F5F5F5F5F5F5F5F5F5F5F5F5F5F5F5F5F5F5F5F5F5F5F5F5F5F5F5F5F5F5F5F5F5F5F5F5F5F5F5F5F5F5F5F5F5F5F5F5F5F5F5F5F5F5F5F5F5F5F5F5F5F5F5F5F5F5F5F5F5F5F5F5F5F5F5F5F5F5F5F5F5F5F5F5F5E2F5E2BEF5
310
F5E200E2F5F5BEE2F5E2F5F5F5F5F5F5F5F5F5F5F5F5F5F5F5F5F5F5F5F5F5F5F5F5F5F5F5F5F5F5F5F5F5F5F5F5F5F5F5F5F5F5F5F5F5F5F5F5F5F5F5F5F5F5F5F5F5F5F5F5F5F5F5F5F5F5F5F5F5F5F5F5F5F5F5F5F5F5F5F5F5F5F5F5F5F5F5F5F5F5F5F5F5E2F5E2BEF5F5E200E2F5F5BEE2F5E2F5F5F5F5F5F5F5F5F5
310
F5F5F5F5F5F5F5F5F5F5F5F5F5F5F5F5F5F5F5F5F5F5F5F5F5F5F5F5F5F5F5F5F5F5F5F5F5F5F5F5F5F5F5F5F5F5F5F5F5F5F5F5F5F5F5F5F5F5F5F5F5F5F5F5F5F5F5F5F5F5F5F5F5F5F5F5F5F5F5F5F5F5F5F5E2F5E2BEF5F5E200E2F5F5BEE2F5E2F5F5F5F5F5F5F5F5F5F5F5F5F5F5F5F5F5F5F5F5F5F5F5F5F5F5F5F5
310
F5F5F5F5F5F5F5F5F5F5F5F5F5F5F5F5F5F5F5F5F5F5F5F5F5F5F5F5F5F5F5F5F5F5F5F5F5F5F5F5F5F5F5F5F5F5F5F5F5F5F5F5F5F5F5F5F5F5F5F5F5F5F5F5F5E2F5E2BEF5F5E2FFE2F5F5BEE2F5E2F5F5F5F5F5F5F5F5F5F5F5F5F5F5F5F5F5F5F5F5F5F5F5F5F5F5F5F5F5F5F5F5F5F5F5F5F5F5F5F5F5F5F5F5F5F5F5
310
F5F5F5F5F5F5F5F5F5F5F5F5F5F5F5F5F5F5F5F5F5F5F5F5F5F5F5F5F5F5F5F5F5F5F5F5F5F5F5F5F5F5F5F5F5F5E2F5E2BEF5F5E200E2F5F5BEE2F5E2F5F5F5F5F5F5F5F5F5F5F5F5F5F5F5F5F5F5F5F5F5F5F5F5F5F5F5F5F5F5F5F5F5F5F5F5F5F5F5F5F5F5F5F5F5F5F5F5F5F5F5F5F5F5F5F5F5F5F5F5F5F5F5F5F5F5
310
F5F5F5F5F5F5F5F5F5F5F5F5F5F5F5F5F5F5F5F5F5F5F5F5F5F5F5E2F5E2BEF5F5E200E2F5F5BEE2F5E2F5F5F5F5F5F5F5F5F5F5F5F5F5F5F5F5F5F5F5F5F5F5F5F5F5F5F5F5F5F5F5F5F5F5F5F5F5F5F5F5F5F5F5F5F5F5F5F5F5F5F5F5F5F5F5F5F5F5F5F5F5F5F5F5F5F5F5F5F5F5F5F5F5F5F5F5F5F5F5F5F5F5F5F5F5
310
F5F5F5F5F5F5F5F5E2F5E2BEF5F5E2FFE2F5F5BEE2F5E2F5F5F5F5F5F5F5F5F5F5F5F5F5F5F5F5F5F5F5F5F5F5F5F5F5F5F5F5F5F5F5F5F5F5F5F5F5F5F5F5F5F5F5F5F5F5F5F5F5F5F5F5F5F5F5F5F5F5F5F5F5F5F5F5F5F5F5F5F5F5F5F5F5F5F5F5F5F5F5F5F5F5F5F5F5F5F5F5F5F5F5F5F5E2F5E2BEF5F5E200E2F5F5
310
BEE2F5E2F5F5F5F5F5F5F5F5F5F5F5F5F5F5F5F5F5F5F5F5F5F5F5F5F5F5F5F5F5F5F5F5F5F5F5F5F5F5F5F5F5F5F5F5F5F5F5F5F5F5F5F5F5F5F5F5F5F5F5F5F5F5F5F5F5F5F5F5F5F5F5F5F5F5F5F5F5F5F5F5F5F5F5F5F5F5F5F5F5F5F5F5F5E2F5E2BEF5F5E200E2F5F5BEE2F5E2F5F5F5F5F5F5F5F5F5F5F5F5F5F5F5
310
F5F5F5F5F5F5F5F5F5F5F5F5F5F5F5F5F5F5F5F5F5F5F5F5F5F5F5F5F5F5F5F5F5F5F5F5F5F5F5F5F5F5F5F5F5F5F5F5F5F5F5F5F5F5F5F5F5F5F5F5F5F5F5F5F5F5F5F5F5F5F5F5F5F5F5F5F5F5E2F5E2BEF5F5E200E2F5F5BEE2F5E2F5F5F5F5F5F5F5F5F5F5F5F5F5F5F5F5F5F5F5F5F5F5F5F5F5F5F5F5F5F5F5F5F5F5
310
F5F5F5F5F5F5F5F5F5F5F5F5F5F5F5F5F5F5F5F5F5F5F5F5F5F5F5F5F5F5F5F5F5F5F5F5F5F5F5F5F5F5F5F5F5F5F5F5F5F5F5F5F5F5F5F5F5F5F5E2F5E2BEF5F5E200E2F5F5BEE2F5E2F5F5F5F5F5F5F5F5F5F5F5F5F5F5F5F5F5F5F5F5F5F5F5F5F5F5F5F5F5F5F5F5F5F5F5F5F5F5F5F5F5F5F5F5F5F5F5F5F5F5F5F5F5
310
F5F5F5F5F5F5F5F5F5F5F5F5F5F5F5F5F5F5F5F5F5F5F5F5F5F5F5F5F5F5F5F5F5F5F5F5F5F5F5F5E2F5E2BEF5F5E200E2F5F5BEE2F5E2F5F5F5F5F5F5F5F5F5F5F5F5F5F5F5F5F5F5F5F5F5F5F5F5F5F5F5F5F5F5F5F5F5F5F5F5F5F5F5F5F5F5F5F5F5F5F5F5F5F5F5F5F5F5F5F5F5F5F5F5F5F5F5F5F5F5F5F5F5F5F5F5
310
F5F5F5F5F5F5F5F5F5F5F5F5F5F5F5F5F5F5F5F5F5E2F5E2BEF5F5E200E2F5F5BEE2F5E2F5F5F5F5F5F5F5F5F5F5F5F5F5F5F5F5F5F5F5F5F5F5F5F5F5F5F5F5F5F5F5F5F5F5F5F5F5F5F5F5F5F5F5F5F5F5F5F5F5F5F5F5F5F5F5F5F5F5F5F5F5F5F5F5F5F5F5F5F5F5F5F5F5F5F5F5F5F5F5F5F5F5F5F5F5F5F5F5F5F5F5
310
F5F5E2F5E2BEF5F5E240E2F5F5BEE2F5E2F5F5F5F5F5F5F5F5F5F5F5F5F5F5F5F5F5F5F5F5F5F5F5F5F5F5F5F5F5F5F5F5F5F5F5F5F5F5F5F5F5F5F5F5F5F5F5F5F5F5F5F5F5F5F5F5F5F5F5F5F5F5F5F5F5F5F5F5F5F5F5F5F5F5F5F5F5F5F5F5F5F5F5F5F5F5F5F5F5F5F5F5F5E2F5E2BEF5F5E200E2F5F5BEE2F5E2E2E2
310
E2E2E2E2E2E2E2E2E2E2E2E2E2E2E2E2E2E2E2E2E2E2E2E2E2E2E2E2E2E2E2E2E2E2E2E2E2E2E2E2E2E2E2E2E2E2E2E2E2E2E2E2E2E2E2E2E2E2E2E2E2E2E2E2E2E2E2E2E2E2E2E2E2E2E2E2E2E2E2E2E2E2E2E2E2E2E2E2E2E2E2E2F5E2BEF5F5E200E2F5F5BEE2F5F5F5F5F5F5F5F5F5F5F5F5F5F5F5F5F5F5F5F5F5F5F5
310
F5F5F5F5F5F5F5F5F5F5F5F5F5F5F5F5F5F5F5F5F5F5F5F5F5F5F5F5F5F5F5F5F5F5F5F5F5F5F5F5F5F5F5F5F5F5F5F5F5F5F5F5F5F5F5F5F5F5F5F5F5F5F5F5F5F5F5F5F5F5F5F5F5F5E2BEF5F5E200E2F5F5BEE2E2E2E2E2E2E2E2E2E2E2E2E2E2E2E2E2E2E2E2E2E2E2E2E2E2E2E2E2E2E2E2E2E2E2E2E2E2E2E2E2E2E2
310
E2E2E2E2E2E2E2E2E2E2E2E2E2E2E2E2E2E2E2E2E2E2E2E2E2E2E2E2E2E2E2E2E2E2E2E2E2E2E2E2E2E2E2E2E2E2E2E2E2E2E2E2E2E2E2E2BEF5F5E200E2F5F5BEF5F5F5F5F5F5F5F5F5F5F5F5F5F5F5F5F5F5F5F5F5F5F5F5F5F5F5F5F5F5F5F5F5F5F5F5F5F5F5F5F5F5F5F5F5F5F5F5F5F5F5F5F5F5F5F5F5F5F5F5F5F5
310
F5F5F5F5F5F5F5F5F5F5F5F5F5F5F5F5F5F5F5F5F5F5F5F5F5F5F5F5F5F5F5F5F5F5F5F5F5BEF5F5E200E2F5F5BEBEBEBEBEBEBEBEBEBEBEBEBEBEBEBEBEBEBEBEBEBEBEBEBEBEBEBEBEBEBEBEBEBEBEBEBEBEBEBEBEBEBEBEBEBEBEBEBEBEBEBEBEBEBEBEBEBEBEBEBEBEBEBEBEBEBEBEBEBEBEBEBEBEBEBEBEBEBEBEBEBE
310
BEBEBEBEBEBEBEBEBEBEBEBEBEBEBEBEBEBEBEF5F5E200E2F5F5F5F5F5F5F5F5F5F5F5F5F5F5F5F5F5F5F5F5F5F5F5F5F5F5F5F5F5F5F5F5F5F5F5F5F5F5F5F5F5F5F5F5F5F5F5F5F5F5F5F5F5F5F5F5F5F5F5F5F5F5F5F5F5F5F5F5F5F5F5F5F5F5F5F5F5F5F5F5F5F5F5F5F5F5F5F5F5F5F5F5F5F5F5F5F5F5F5F5F5F5F5
310
F5F5E2FFE2F5F5F5F5F5F5F5F5F5F5F5F5F5F5F5F5F5F5F5F5F5F5F5F5F5F5F5F5F5F5F5F5F5F5F5F5F5F5F5F5F5F5F5F5F5F5F5F5F5F5F5F5F5F5F5F5F5F5F5F5F5F5F5F5F5F5F5F5F5F5F5F5F5F5F5F5F5F5F5F5F5F5F5F5F5F5F5F5F5F5F5F5F5F5F5F5F5F5F5F5F5F5F5F5F5E27EE2F5F5F5F5F5F5F5F5F5F5F5F5F5F5
310
F5F5F5F5F5F5F5F5F5F5F5F5F5F5F5F5F5F5F5F5F5F5F5F5F5F5F5F5F5F5F5F5F5F5F5F5F5F5F5F5F5F5F5F5F5F5F5F5F5F5F5F5F5F5F5F5F5F5F5F5F5F5F5F5F5F5F5F5F5F5F5F5F5F5F5F5F5F5F5F5F5F5F5F5F5F5F5F5F5F5F5E200E2E2E2E2E2E2E2E2E2E2E2E2E2E2E2E2E2E2E2E2E2E2E2E2E2E2E2E2E2E2E2E2E2E2
310
E2E2E2E2E2E2E2E2E2E2E2E2E2E2E2E2E2E2E2E2E2E2E2E2E2E2E2E2E2E2E2E2E2E2E2E2E2E2E2E2E2E2E2E2E2E2E2E2E2E2E2E2E2E2E2E2E2E2E2E2E2E2E2E2E2E2E2E2E2E2E2E2E200EFEFEFEFEFEFEFEFEFEFEFEFEFEFEFEFEFEFEFEFEFEFEFEFEFEFEFEFEFEFEFEFEFEFEFEFEFEFEFEFEFEFEFEFEFEFEFEFEFEFEFEFEF
310
EFEFEFEFEFEFEFEFEFEFEFEFEFEFEFEFEFEFEFEFEFEFEFEFEFEFEFEFEFEFEFEFEFEFEFEFEFEFEFEFEFEFEFEFEFEFEFEFEFEFEFEFEFEF3F
  0
ENDSEC
  0
EOF
