  0
SECTION
  2
HEADER
  9
$ACADVER
  1
AC1021
  9
$ACADMAINTVER
 70
     2
  9
$DWGCODEPAGE
  3
ANSI_1252
  9
$LASTSAVEDBY
  1
CAB
  9
$INSBASE
 10
0.0
 20
0.0
 30
0.0
  9
$EXTMIN
 10
0.0
 20
0.0
 30
0.0
  9
$EXTMAX
 10
1.699999999999999
 20
2.2
 30
0.0
  9
$LIMMIN
 10
0.0
 20
0.0
  9
$LIMMAX
 10
0.0
 20
0.0
  9
$ORTHOMODE
 70
     0
  9
$REGENMODE
 70
     1
  9
$FILLMODE
 70
     1
  9
$QTEXTMODE
 70
     0
  9
$MIRRTEXT
 70
     1
  9
$LTSCALE
 40
1.0
  9
$ATTMODE
 70
     1
  9
$TEXTSIZE
 40
0.2
  9
$TRACEWID
 40
0.05
  9
$TEXTSTYLE
  7
STANDARD
  9
$CLAYER
  8
0
  9
$CELTYPE
  6
CONTINUOUS
  9
$CECOLOR
 62
     1
  9
$CELTSCALE
 40
1.0
  9
$DISPSILH
 70
     0
  9
$DIMSCALE
 40
1.0
  9
$DIMASZ
 40
0.18
  9
$DIMEXO
 40
0.0625
  9
$DIMDLI
 40
0.38
  9
$DIMRND
 40
0.0
  9
$DIMDLE
 40
0.0
  9
$DIMEXE
 40
0.25
  9
$DIMTP
 40
0.003
  9
$DIMTM
 40
-0.003
  9
$DIMTXT
 40
0.025
  9
$DIMCEN
 40
0.09
  9
$DIMTSZ
 40
0.0
  9
$DIMTOL
 70
     0
  9
$DIMLIM
 70
     0
  9
$DIMTIH
 70
     1
  9
$DIMTOH
 70
     1
  9
$DIMSE1
 70
     0
  9
$DIMSE2
 70
     0
  9
$DIMTAD
 70
     0
  9
$DIMZIN
 70
     0
  9
$DIMBLK
  1

  9
$DIMASO
 70
     1
  9
$DIMSHO
 70
     1
  9
$DIMPOST
  1

  9
$DIMAPOST
  1

  9
$DIMALT
 70
     0
  9
$DIMALTD
 70
     2
  9
$DIMALTF
 40
25.4
  9
$DIMLFAC
 40
1.0
  9
$DIMTOFL
 70
     0
  9
$DIMTVP
 40
0.0
  9
$DIMTIX
 70
     0
  9
$DIMSOXD
 70
     0
  9
$DIMSAH
 70
     0
  9
$DIMBLK1
  1

  9
$DIMBLK2
  1

  9
$DIMSTYLE
  2
STANDARD
  9
$DIMCLRD
 70
     0
  9
$DIMCLRE
 70
     0
  9
$DIMCLRT
 70
     1
  9
$DIMTFAC
 40
1.0
  9
$DIMGAP
 40
0.09
  9
$DIMJUST
 70
     0
  9
$DIMSD1
 70
     0
  9
$DIMSD2
 70
     0
  9
$DIMTOLJ
 70
     1
  9
$DIMTZIN
 70
     0
  9
$DIMALTZ
 70
     0
  9
$DIMALTTZ
 70
     0
  9
$DIMUPT
 70
     0
  9
$DIMDEC
 70
     4
  9
$DIMTDEC
 70
     4
  9
$DIMALTU
 70
     2
  9
$DIMALTTD
 70
     2
  9
$DIMTXSTY
  7
STANDARD
  9
$DIMAUNIT
 70
     0
  9
$DIMADEC
 70
     0
  9
$DIMALTRND
 40
0.0
  9
$DIMAZIN
 70
     0
  9
$DIMDSEP
 70
    46
  9
$DIMATFIT
 70
     3
  9
$DIMFRAC
 70
     0
  9
$DIMLDRBLK
  1

  9
$DIMLUNIT
 70
     2
  9
$DIMLWD
 70
    -2
  9
$DIMLWE
 70
    -2
  9
$DIMTMOVE
 70
     0
  9
$DIMFXL
 40
1.0
  9
$DIMFXLON
 70
     0
  9
$DIMJOGANG
 40
0.7853981633974483
  9
$DIMTFILL
 70
     0
  9
$DIMTFILLCLR
 70
     0
  9
$DIMARCSYM
 70
     0
  9
$DIMLTYPE
  6

  9
$DIMLTEX1
  6

  9
$DIMLTEX2
  6

  9
$LUNITS
 70
     2
  9
$LUPREC
 70
    10
  9
$SKETCHINC
 40
0.1
  9
$FILLETRAD
 40
0.0
  9
$AUNITS
 70
     0
  9
$AUPREC
 70
     0
  9
$MENU
  1
acad
  9
$ELEVATION
 40
0.0
  9
$PELEVATION
 40
0.0
  9
$THICKNESS
 40
0.0
  9
$LIMCHECK
 70
     0
  9
$CHAMFERA
 40
0.0
  9
$CHAMFERB
 40
0.0
  9
$CHAMFERC
 40
0.0
  9
$CHAMFERD
 40
0.0
  9
$SKPOLY
 70
     0
  9
$TDCREATE
 40
2444971.791666667
  9
$TDUCREATE
 40
2444972.000000000
  9
$TDUPDATE
 40
2454418.599259514
  9
$TDUUPDATE
 40
2454418.807592848
  9
$TDINDWG
 40
0.1234562500
  9
$TDUSRTIMER
 40
0.1234562500
  9
$USRTIMER
 70
     1
  9
$ANGBASE
 50
0.0
  9
$ANGDIR
 70
     0
  9
$PDMODE
 70
     2
  9
$PDSIZE
 40
0.0
  9
$PLINEWID
 40
0.0
  9
$SPLFRAME
 70
     0
  9
$SPLINETYPE
 70
     6
  9
$SPLINESEGS
 70
     8
  9
$HANDSEED
  5
DBE
  9
$SURFTAB1
 70
     6
  9
$SURFTAB2
 70
     6
  9
$SURFTYPE
 70
     6
  9
$SURFU
 70
     6
  9
$SURFV
 70
     6
  9
$UCSBASE
  2

  9
$UCSNAME
  2

  9
$UCSORG
 10
0.0
 20
0.0
 30
0.0
  9
$UCSXDIR
 10
1.0
 20
0.0
 30
0.0
  9
$UCSYDIR
 10
0.0
 20
1.0
 30
0.0
  9
$UCSORTHOREF
  2

  9
$UCSORTHOVIEW
 70
     0
  9
$UCSORGTOP
 10
0.0
 20
0.0
 30
0.0
  9
$UCSORGBOTTOM
 10
0.0
 20
0.0
 30
0.0
  9
$UCSORGLEFT
 10
0.0
 20
0.0
 30
0.0
  9
$UCSORGRIGHT
 10
0.0
 20
0.0
 30
0.0
  9
$UCSORGFRONT
 10
0.0
 20
0.0
 30
0.0
  9
$UCSORGBACK
 10
0.0
 20
0.0
 30
0.0
  9
$PUCSBASE
  2

  9
$PUCSNAME
  2

  9
$PUCSORG
 10
0.0
 20
0.0
 30
0.0
  9
$PUCSXDIR
 10
1.0
 20
0.0
 30
0.0
  9
$PUCSYDIR
 10
0.0
 20
1.0
 30
0.0
  9
$PUCSORTHOREF
  2

  9
$PUCSORTHOVIEW
 70
     0
  9
$PUCSORGTOP
 10
0.0
 20
0.0
 30
0.0
  9
$PUCSORGBOTTOM
 10
0.0
 20
0.0
 30
0.0
  9
$PUCSORGLEFT
 10
0.0
 20
0.0
 30
0.0
  9
$PUCSORGRIGHT
 10
0.0
 20
0.0
 30
0.0
  9
$PUCSORGFRONT
 10
0.0
 20
0.0
 30
0.0
  9
$PUCSORGBACK
 10
0.0
 20
0.0
 30
0.0
  9
$USERI1
 70
     0
  9
$USERI2
 70
     0
  9
$USERI3
 70
     0
  9
$USERI4
 70
     0
  9
$USERI5
 70
     0
  9
$USERR1
 40
0.0
  9
$USERR2
 40
0.0
  9
$USERR3
 40
0.0
  9
$USERR4
 40
0.0
  9
$USERR5
 40
0.0
  9
$WORLDVIEW
 70
     1
  9
$SHADEDGE
 70
     3
  9
$SHADEDIF
 70
    70
  9
$TILEMODE
 70
     0
  9
$MAXACTVP
 70
    16
  9
$PINSBASE
 10
0.0
 20
0.0
 30
0.0
  9
$PLIMCHECK
 70
     0
  9
$PEXTMIN
 10
0.0137573790166243
 20
0.0000165982637554
 30
0.0
  9
$PEXTMAX
 10
7.986242369867099
 20
10.49998316704296
 30
0.0
  9
$PLIMMIN
 10
-0.2499999962453767
 20
-0.2499999962453767
  9
$PLIMMAX
 10
8.249999763458733
 20
10.74999976345873
  9
$UNITMODE
 70
     0
  9
$VISRETAIN
 70
     0
  9
$PLINEGEN
 70
     1
  9
$PSLTSCALE
 70
     0
  9
$TREEDEPTH
 70
  3020
  9
$CMLSTYLE
  2
STANDARD
  9
$CMLJUST
 70
     0
  9
$CMLSCALE
 40
1.0
  9
$PROXYGRAPHICS
 70
     1
  9
$MEASUREMENT
 70
     0
  9
$CELWEIGHT
370
    -1
  9
$ENDCAPS
280
     0
  9
$JOINSTYLE
280
     0
  9
$LWDISPLAY
290
     0
  9
$INSUNITS
 70
     0
  9
$HYPERLINKBASE
  1

  9
$STYLESHEET
  1

  9
$XEDIT
290
     1
  9
$CEPSNTYPE
380
     0
  9
$PSTYLEMODE
290
     1
  9
$FINGERPRINTGUID
  2
{03930EB6-8CD5-11D6-8A02-00902758FDDF}
  9
$VERSIONGUID
  2
{AB2B5DD3-9559-469F-AABC-C9A31B2E5D7B}
  9
$EXTNAMES
290
     1
  9
$PSVPSCALE
 40
0.0
  9
$OLESTARTUP
290
     0
  9
$SORTENTS
280
   127
  9
$INDEXCTL
280
     0
  9
$HIDETEXT
280
     0
  9
$XCLIPFRAME
290
     0
  9
$HALOGAP
280
     0
  9
$OBSCOLOR
 70
   257
  9
$OBSLTYPE
280
     0
  9
$INTERSECTIONDISPLAY
280
     0
  9
$INTERSECTIONCOLOR
 70
   257
  9
$DIMASSOC
280
     1
  9
$PROJECTNAME
  1

  9
$CAMERADISPLAY
290
     0
  9
$LENSLENGTH
 40
50.0
  9
$CAMERAHEIGHT
 40
0.0
  9
$STEPSPERSEC
 40
2.0
  9
$STEPSIZE
 40
6.0
  9
$3DDWFPREC
 40
2.0
  9
$PSOLWIDTH
 40
0.25
  9
$PSOLHEIGHT
 40
4.0
  9
$LOFTANG1
 40
1.570796326794896
  9
$LOFTANG2
 40
1.570796326794896
  9
$LOFTMAG1
 40
0.0
  9
$LOFTMAG2
 40
0.0
  9
$LOFTPARAM
 70
     7
  9
$LOFTNORMALS
280
     1
  9
$LATITUDE
 40
37.795
  9
$LONGITUDE
 40
-122.394
  9
$NORTHDIRECTION
 40
0.0
  9
$TIMEZONE
 70
 -8000
  9
$LIGHTGLYPHDISPLAY
280
     1
  9
$TILEMODELIGHTSYNCH
280
     1
  9
$CMATERIAL
347
D7F
  9
$SOLIDHIST
280
     1
  9
$SHOWHIST
280
     1
  9
$DWFFRAME
280
     2
  9
$DGNFRAME
280
     0
  9
$REALWORLDSCALE
290
     1
  9
$INTERFERECOLOR
 62
     1
  9
$INTERFEREOBJVS
345
D8C
  9
$INTERFEREVPVS
346
D89
  9
$CSHADOW
280
     0
  9
$SHADOWPLANELOCATION
 40
0.0
  0
ENDSEC
  0
SECTION
  2
CLASSES
  0
CLASS
  1
IMAGE
  2
AcDbRasterImage
  3
ISM
 90
     2175
 91
        0
280
     0
281
     1
  0
CLASS
  1
DICTIONARYVAR
  2
AcDbDictionaryVar
  3
ObjectDBX Classes
 90
        0
 91
        2
280
     0
281
     0
  0
CLASS
  1
RASTERVARIABLES
  2
AcDbRasterVariables
  3
ISM
 90
        0
 91
        0
280
     0
281
     0
  0
CLASS
  1
IMAGEDEF
  2
AcDbRasterImageDef
  3
ISM
 90
        0
 91
        0
280
     0
281
     0
  0
CLASS
  1
IMAGEDEF_REACTOR
  2
AcDbRasterImageDefReactor
  3
ISM
 90
        1
 91
        0
280
     0
281
     0
  0
CLASS
  1
IDBUFFER
  2
AcDbIdBuffer
  3
ObjectDBX Classes
 90
        0
 91
        0
280
     0
281
     0
  0
CLASS
  1
SPATIAL_FILTER
  2
AcDbSpatialFilter
  3
ObjectDBX Classes
 90
        0
 91
        0
280
     0
281
     0
  0
CLASS
  1
SORTENTSTABLE
  2
AcDbSortentsTable
  3
ObjectDBX Classes
 90
        0
 91
        0
280
     0
281
     0
  0
CLASS
  1
LAYER_INDEX
  2
AcDbLayerIndex
  3
ObjectDBX Classes
 90
        0
 91
        0
280
     0
281
     0
  0
CLASS
  1
SPATIAL_INDEX
  2
AcDbSpatialIndex
  3
ObjectDBX Classes
 90
        0
 91
        0
280
     0
281
     0
  0
CLASS
  1
OBJECT_PTR
  2
CAseDLPNTableRecord
  3
ASE-LPNTableRecord
 90
        1
 91
        0
280
     0
281
     0
  0
CLASS
  1
ACDBDICTIONARYWDFLT
  2
AcDbDictionaryWithDefault
  3
ObjectDBX Classes
 90
        0
 91
        1
280
     0
281
     0
  0
CLASS
  1
TABLESTYLE
  2
AcDbTableStyle
  3
ObjectDBX Classes
 90
     4095
 91
        1
280
     0
281
     0
  0
CLASS
  1
VAACXREFPANELOBJECT
  2
VaAcXREFPanelObject
  3
VAAC_ADDIN
 90
        0
 91
        0
280
     0
281
     0
  0
CLASS
  1
VAACIMAGEINVENTORY
  2
VaAcImageInventory
  3
VAAC_ADDIN
 90
        0
 91
        0
280
     0
281
     0
  0
CLASS
  1
MATERIAL
  2
AcDbMaterial
  3
ObjectDBX Classes
 90
     1153
 91
        3
280
     0
281
     0
  0
CLASS
  1
VISUALSTYLE
  2
AcDbVisualStyle
  3
ObjectDBX Classes
 90
     4095
 91
       16
280
     0
281
     0
  0
CLASS
  1
EXACXREFPANELOBJECT
  2
ExAcXREFPanelObject
  3
EXAC_ESW
 90
     1025
 91
        1
280
     0
281
     0
  0
CLASS
  1
NPOCOLLECTION
  2
AcDbImpNonPersistentObjectsCollection
  3
ObjectDBX Classes
 90
     1153
 91
        1
280
     0
281
     0
  0
ENDSEC
  0
SECTION
  2
TABLES
  0
TABLE
  2
VPORT
  5
7
330
0
100
AcDbSymbolTable
 70
     1
  0
VPORT
  5
D7D
330
7
100
AcDbSymbolTableRecord
100
AcDbViewportTableRecord
  2
*Active
 70
     0
 10
0.0
 20
0.0
 11
1.0
 21
1.0
 12
0.8500000039581205
 22
1.100000005122273
 13
0.0
 23
0.0
 14
1.0
 24
1.0
 15
0.0
 25
0.0
 16
0.0
 26
0.0
 36
1.0
 17
0.0
 27
0.0
 37
0.0
 40
2.224490007351402
 41
1.739371534195933
 42
50.0
 43
0.0
 44
0.0
 50
0.0
 51
0.0
 71
     0
 72
   100
 73
     1
 74
     1
 75
     0
 76
     0
 77
     0
 78
     0
281
     0
 65
     1
110
0.0
120
0.0
130
0.0
111
1.0
121
0.0
131
0.0
112
0.0
122
1.0
132
0.0
 79
     0
146
0.0
348
D88
 60
     3
 61
     5
292
     1
282
     1
141
0.0
142
0.0
 63
   250
421
  3355443
  0
ENDTAB
  0
TABLE
  2
LTYPE
  5
4
330
0
100
AcDbSymbolTable
 70
     4
  0
LTYPE
  5
11
330
4
100
AcDbSymbolTableRecord
100
AcDbLinetypeTableRecord
  2
BYBLOCK
 70
     0
  3

 72
    65
 73
     0
 40
0.0
  0
LTYPE
  5
12
330
4
100
AcDbSymbolTableRecord
100
AcDbLinetypeTableRecord
  2
BYLAYER
 70
     0
  3

 72
    65
 73
     0
 40
0.0
  0
LTYPE
  5
13
330
4
100
AcDbSymbolTableRecord
100
AcDbLinetypeTableRecord
  2
CONTINUOUS
 70
     0
  3
Solid line
 72
    65
 73
     0
 40
0.0
  0
LTYPE
  5
1D
330
4
100
AcDbSymbolTableRecord
100
AcDbLinetypeTableRecord
  2
DASHED
 70
     0
  3
_ _ _ _ _ _ _ _ _ _ _ _ _ _ _ _
 72
    65
 73
     2
 40
0.2
 49
0.1
 74
     0
 49
-0.1
 74
     0
  0
LTYPE
  5
1E
330
4
100
AcDbSymbolTableRecord
100
AcDbLinetypeTableRecord
  2
CENTER
 70
     0
  3
___ _ ___ _ ___ _ ___ _ ___ _ ___ _ ___ _ ___ _
 72
    65
 73
     4
 40
0.95
 49
0.625
 74
     0
 49
-0.125
 74
     0
 49
0.075
 74
     0
 49
-0.125
 74
     0
  0
LTYPE
  5
1F
330
4
100
AcDbSymbolTableRecord
100
AcDbLinetypeTableRecord
  2
PHANTOM
 70
     0
  3
______  __  __  ______  __  __  ______  __  __  
 72
    65
 73
     6
 40
1.024999999999999
 49
0.625
 74
     0
 49
-0.125
 74
     0
 49
0.075
 74
     0
 49
-0.125
 74
     0
 49
0.075
 74
     0
 49
-0.125
 74
     0
  0
ENDTAB
  0
TABLE
  2
LAYER
  5
2
102
{ACAD_XDICTIONARY
360
DAC
102
}
330
0
100
AcDbSymbolTable
 70
     8
  0
LAYER
  5
14
330
2
100
AcDbSymbolTableRecord
100
AcDbLayerTableRecord
  2
0
 70
     0
 62
     7
  6
CONTINUOUS
370
    -3
390
160
347
D81
  0
LAYER
  5
21
330
2
100
AcDbSymbolTableRecord
100
AcDbLayerTableRecord
  2
NOTE
 70
     0
 62
     7
  6
CONTINUOUS
370
    -3
390
160
347
D81
  0
LAYER
  5
22
330
2
100
AcDbSymbolTableRecord
100
AcDbLayerTableRecord
  2
RIGID
 70
     0
 62
     7
  6
CONTINUOUS
370
    -3
390
160
347
D81
  0
LAYER
  5
23
330
2
100
AcDbSymbolTableRecord
100
AcDbLayerTableRecord
  2
FLEXIBLE
 70
     0
 62
     7
  6
CONTINUOUS
370
    -3
390
160
347
D81
  0
LAYER
  5
24
330
2
100
AcDbSymbolTableRecord
100
AcDbLayerTableRecord
  2
AREA
 70
     0
 62
     7
  6
CONTINUOUS
370
    -3
390
160
347
D81
  0
LAYER
  5
25
330
2
100
AcDbSymbolTableRecord
100
AcDbLayerTableRecord
  2
DIMENSIONS
 70
     0
 62
     7
  6
CONTINUOUS
370
    -3
390
160
347
D81
  0
LAYER
  5
26
330
2
100
AcDbSymbolTableRecord
100
AcDbLayerTableRecord
  2
TITLE_BLOCK
 70
     0
 62
     7
  6
CONTINUOUS
370
    -3
390
160
347
D81
  0
LAYER
  5
2C
330
2
100
AcDbSymbolTableRecord
100
AcDbLayerTableRecord
  2
DEFPOINTS
 70
     0
 62
    -7
  6
CONTINUOUS
290
     0
370
    -3
390
160
347
D81
  0
ENDTAB
  0
TABLE
  2
STYLE
  5
3
330
0
100
AcDbSymbolTable
 70
     1
  0
STYLE
  5
17
330
3
100
AcDbSymbolTableRecord
100
AcDbTextStyleTableRecord
  2
STANDARD
 70
     0
 40
0.0
 41
1.0
 50
0.0
 71
     0
 42
0.2
  3
txt
  4

  0
ENDTAB
  0
TABLE
  2
VIEW
  5
5
330
0
100
AcDbSymbolTable
 70
     0
  0
ENDTAB
  0
TABLE
  2
UCS
  5
6
330
0
100
AcDbSymbolTable
 70
     1
  0
UCS
  5
20
330
6
100
AcDbSymbolTableRecord
100
AcDbUCSTableRecord
  2
CK_VIEW_1
 70
     0
 10
0.0
 20
0.0
 30
1.0
 11
1.0
 21
0.0
 31
0.0
 12
0.0
 22
1.0
 32
0.0
 79
     0
146
0.0
  0
ENDTAB
  0
TABLE
  2
APPID
  5
8
330
0
100
AcDbSymbolTable
 70
     3
  0
APPID
  5
16
330
8
100
AcDbSymbolTableRecord
100
AcDbRegAppTableRecord
  2
ACAD
 70
     0
  0
APPID
  5
1A6
330
8
100
AcDbSymbolTableRecord
100
AcDbRegAppTableRecord
  2
DCO15
 70
     0
  0
APPID
  5
D9C
330
8
100
AcDbSymbolTableRecord
100
AcDbRegAppTableRecord
  2
ACAD_PSEXT
 70
     0
  0
ENDTAB
  0
TABLE
  2
DIMSTYLE
  5
9
330
0
100
AcDbSymbolTable
 70
    14
100
AcDbDimStyleTable
 71
     6
340
18
340
104
340
140
340
28
340
122
340
4B
  0
DIMSTYLE
105
18
330
9
100
AcDbSymbolTableRecord
100
AcDbDimStyleTableRecord
  2
STANDARD
 70
     0
289
     0
340
17
  0
DIMSTYLE
105
28
102
{ACAD_REACTORS
330
2B
330
313
330
B79
330
BAD
102
}
330
9
100
AcDbSymbolTableRecord
100
AcDbDimStyleTableRecord
  2
DIMSTYLE1
 70
     0
 41
0.025
 44
0.025
140
0.025
289
     0
340
17
  0
DIMSTYLE
105
3C
330
9
100
AcDbSymbolTableRecord
100
AcDbDimStyleTableRecord
  2
DIMSTYLE2
 70
     0
 41
0.025
 44
0.025
140
0.025
289
     0
340
17
  0
DIMSTYLE
105
4B
102
{ACAD_REACTORS
330
4E
330
9D9
102
}
330
9
100
AcDbSymbolTableRecord
100
AcDbDimStyleTableRecord
  2
DIMSTYLE3
 70
     0
 41
0.025
 44
0.025
140
0.025
289
     0
340
17
  0
DIMSTYLE
105
5B
330
9
100
AcDbSymbolTableRecord
100
AcDbDimStyleTableRecord
  2
DIMSTYLE4
 70
     0
 41
0.025
 44
0.025
140
0.025
289
     0
340
17
  0
DIMSTYLE
105
6C
330
9
100
AcDbSymbolTableRecord
100
AcDbDimStyleTableRecord
  2
DIMSTYLE5
 70
     0
 41
0.025
 44
0.025
140
0.025
289
     0
340
17
  0
DIMSTYLE
105
7B
330
9
100
AcDbSymbolTableRecord
100
AcDbDimStyleTableRecord
  2
DIMSTYLE6
 70
     0
 41
0.025
 44
0.025
140
0.025
289
     0
340
17
  0
DIMSTYLE
105
D1
102
{ACAD_REACTORS
330
D4
102
}
330
9
100
AcDbSymbolTableRecord
100
AcDbDimStyleTableRecord
  2
DIMSTYLE7
 70
     0
 41
0.025
 44
0.025
140
0.025
289
     0
340
17
  0
DIMSTYLE
105
E2
330
9
100
AcDbSymbolTableRecord
100
AcDbDimStyleTableRecord
  2
DIMSTYLE8
 70
     0
 41
0.025
 44
0.025
140
0.025
289
     0
340
17
  0
DIMSTYLE
105
104
102
{ACAD_REACTORS
330
107
330
C71
102
}
330
9
100
AcDbSymbolTableRecord
100
AcDbDimStyleTableRecord
  2
DIMSTYLE9
 70
     0
 41
0.025
 44
0.025
140
0.025
289
     0
340
17
  0
DIMSTYLE
105
113
330
9
100
AcDbSymbolTableRecord
100
AcDbDimStyleTableRecord
  2
DIMSTYLE10
 70
     0
 41
0.025
 44
0.025
140
0.025
289
     0
340
17
  0
DIMSTYLE
105
122
102
{ACAD_REACTORS
330
9AB
330
99C
102
}
330
9
100
AcDbSymbolTableRecord
100
AcDbDimStyleTableRecord
  2
DIMSTYLE11
 70
     0
 41
0.025
 44
0.025
140
0.025
289
     0
340
17
  0
DIMSTYLE
105
131
330
9
100
AcDbSymbolTableRecord
100
AcDbDimStyleTableRecord
  2
DIMSTYLE12
 70
     0
 41
0.025
 44
0.025
140
0.025
289
     0
340
17
  0
DIMSTYLE
105
140
102
{ACAD_REACTORS
330
143
102
}
330
9
100
AcDbSymbolTableRecord
100
AcDbDimStyleTableRecord
  2
DIMSTYLE13
 70
     0
 41
0.025
 44
0.025
140
0.025
289
     0
340
17
  0
ENDTAB
  0
TABLE
  2
BLOCK_RECORD
  5
1
330
0
100
AcDbSymbolTable
 70
    12
  0
BLOCK_RECORD
  5
A
330
1
100
AcDbSymbolTableRecord
100
AcDbBlockTableRecord
  2
*MODEL_SPACE
340
163
 70
     0
280
     1
281
     0
  0
BLOCK_RECORD
  5
B
330
1
100
AcDbSymbolTableRecord
100
AcDbBlockTableRecord
  2
*PAPER_SPACE
340
164
 70
     0
280
     1
281
     0
  0
BLOCK_RECORD
  5
29
330
1
100
AcDbSymbolTableRecord
100
AcDbBlockTableRecord
  2
*D0
340
0
 70
     0
280
     1
281
     0
  0
BLOCK_RECORD
  5
4C
330
1
100
AcDbSymbolTableRecord
100
AcDbBlockTableRecord
  2
*D1
340
0
 70
     0
280
     1
281
     0
  0
BLOCK_RECORD
  5
D2
330
1
100
AcDbSymbolTableRecord
100
AcDbBlockTableRecord
  2
*D2
340
0
 70
     0
280
     1
281
     0
  0
BLOCK_RECORD
  5
105
330
1
100
AcDbSymbolTableRecord
100
AcDbBlockTableRecord
  2
*D3
340
0
 70
     0
280
     1
281
     0
  0
BLOCK_RECORD
  5
141
330
1
100
AcDbSymbolTableRecord
100
AcDbBlockTableRecord
  2
*D4
340
0
 70
     0
280
     1
281
     0
  0
BLOCK_RECORD
  5
314
330
1
100
AcDbSymbolTableRecord
100
AcDbBlockTableRecord
  2
*D5
340
0
 70
     0
280
     1
281
     0
  0
BLOCK_RECORD
  5
99D
330
1
100
AcDbSymbolTableRecord
100
AcDbBlockTableRecord
  2
*D6
340
0
 70
     0
280
     1
281
     0
  0
BLOCK_RECORD
  5
9AC
330
1
100
AcDbSymbolTableRecord
100
AcDbBlockTableRecord
  2
*D7
340
0
 70
     0
280
     1
281
     0
  0
BLOCK_RECORD
  5
9DA
330
1
100
AcDbSymbolTableRecord
100
AcDbBlockTableRecord
  2
*D8
340
0
 70
     0
280
     1
281
     0
  0
BLOCK_RECORD
  5
B7A
330
1
100
AcDbSymbolTableRecord
100
AcDbBlockTableRecord
  2
*D9
340
0
 70
     0
280
     1
281
     0
  0
BLOCK_RECORD
  5
BAE
330
1
100
AcDbSymbolTableRecord
100
AcDbBlockTableRecord
  2
*D10
340
0
 70
     0
280
     1
281
     0
  0
BLOCK_RECORD
  5
C72
330
1
100
AcDbSymbolTableRecord
100
AcDbBlockTableRecord
  2
*D11
340
0
 70
     0
280
     1
281
     0
  0
ENDTAB
  0
ENDSEC
  0
SECTION
  2
BLOCKS
  0
BLOCK
  5
D
330
A
100
AcDbEntity
  8
0
100
AcDbBlockBegin
  2
*MODEL_SPACE
 70
     0
 10
0.0
 20
0.0
 30
0.0
  3
*MODEL_SPACE
  1

  0
ENDBLK
  5
E
330
A
100
AcDbEntity
  8
0
100
AcDbBlockEnd
  0
BLOCK
  5
F
330
B
100
AcDbEntity
 67
     1
  8
0
100
AcDbBlockBegin
  2
*PAPER_SPACE
 70
     0
 10
0.0
 20
0.0
 30
0.0
  3
*PAPER_SPACE
  1

  0
ENDBLK
  5
10
330
B
100
AcDbEntity
 67
     1
  8
0
100
AcDbBlockEnd
  0
BLOCK
  5
2A
330
29
100
AcDbEntity
  8
0
100
AcDbBlockBegin
  2
*D0
 70
     1
 10
0.0
 20
0.0
 30
0.0
  3
*D0
  1

  0
LINE
  5
6C7
330
29
100
AcDbEntity
  8
DIMENSIONS
  6
Continuous
 62
     0
370
    -2
100
AcDbLine
 10
0.5412080390825805
 20
1.44598415211406
 30
0.0
 11
0.4326762143637685
 21
1.536457978857767
 31
0.0
  0
LINE
  5
6C8
330
29
100
AcDbEntity
  8
DIMENSIONS
  6
Continuous
 62
     0
370
    -2
100
AcDbLine
 10
0.528401791779802
 20
1.430621859641253
 30
0.0
 11
0.41986996706099
 21
1.52109568638496
 31
0.0
  0
LINE
  5
6C9
330
29
100
AcDbEntity
  8
DIMENSIONS
  6
Continuous
 62
     0
370
    -2
100
AcDbLine
 10
0.467886889083251
 20
1.539653035320303
 30
0.0
 11
0.4838946982117245
 21
1.558855900911312
 31
0.0
  0
LINE
  5
6CA
330
29
100
AcDbEntity
  8
DIMENSIONS
  6
Continuous
 62
     0
370
    -2
100
AcDbLine
 10
0.4230650235235259
 20
1.485885011665478
 30
0.0
 11
0.4070572143950523
 21
1.466682146074469
 31
0.0
  0
MTEXT
  5
6CB
330
29
100
AcDbEntity
  8
DIMENSIONS
  6
Continuous
 62
     0
100
AcDbMText
 10
0.3693963612275651
 20
1.439652617268404
 30
0.0
 40
0.025
 41
0.0
 46
0.0
 71
     5
 72
     1
  1
\A1;.020±.004
 73
     1
 44
1.0
  0
SOLID
  5
6CC
330
29
100
AcDbEntity
  8
DIMENSIONS
  6
Continuous
 62
     0
100
AcDbTrace
 10
0.4646864114847494
 20
1.542321003508382
 30
0.0
 11
0.4710873666817525
 21
1.536985067132224
 31
0.0
 12
0.4518790799547777
 22
1.520450169729294
 32
0.0
 13
0.4518790799547777
 23
1.520450169729294
 33
0.0
  0
SOLID
  5
6CD
330
29
100
AcDbEntity
  8
DIMENSIONS
  6
Continuous
 62
     0
100
AcDbTrace
 10
0.4198645459250244
 20
1.488552979853557
 30
0.0
 11
0.4262655011220275
 21
1.483217043477399
 31
0.0
 12
0.4390728326519992
 22
1.505087877256487
 32
0.0
 13
0.4390728326519992
 23
1.505087877256487
 33
0.0
  0
POINT
  5
6CE
330
29
100
AcDbEntity
  8
DEFPOINTS
  6
Continuous
 62
     0
100
AcDbPoint
 10
0.5892152030601033
 20
1.405964629292876
 30
0.0
  0
POINT
  5
6CF
330
29
100
AcDbEntity
  8
DEFPOINTS
  6
Continuous
 62
     0
100
AcDbPoint
 10
0.5764089557573249
 20
1.390602336820069
 30
0.0
  0
POINT
  5
6D0
330
29
100
AcDbEntity
  8
DEFPOINTS
  6
Continuous
 62
     0
100
AcDbPoint
 10
0.4390728326519992
 20
1.505087877256487
 30
0.0
  0
ENDBLK
  5
37
330
29
100
AcDbEntity
  8
0
100
AcDbBlockEnd
  0
BLOCK
  5
4D
330
4C
100
AcDbEntity
  8
0
100
AcDbBlockBegin
  2
*D1
 70
     1
 10
0.0
 20
0.0
 30
0.0
  3
*D1
  1

  0
LINE
  5
D4D
330
4C
100
AcDbEntity
  8
DIMENSIONS
  6
Continuous
 62
     0
370
    -2
100
AcDbLine
 10
1.122312079408714
 20
1.088750567735152
 30
0.0
 11
1.466104798651341
 21
1.088750567735152
 31
0.0
  0
LINE
  5
D4E
330
4C
100
AcDbEntity
  8
DIMENSIONS
  6
Continuous
 62
     0
370
    -2
100
AcDbLine
 10
1.122312079408714
 20
1.275750567735152
 30
0.0
 11
1.466104798651341
 21
1.275750567735152
 31
0.0
  0
LINE
  5
D4F
330
4C
100
AcDbEntity
  8
DIMENSIONS
  6
Continuous
 62
     0
370
    -2
100
AcDbLine
 10
1.441104798651341
 20
1.063750567735152
 30
0.0
 11
1.441104798651341
 21
1.038750567735152
 31
0.0
  0
LINE
  5
D50
330
4C
100
AcDbEntity
  8
DIMENSIONS
  6
Continuous
 62
     0
370
    -2
100
AcDbLine
 10
1.441104798651341
 20
1.300750567735152
 30
0.0
 11
1.441104798651341
 21
1.325750567735152
 31
0.0
  0
SOLID
  5
D51
330
4C
100
AcDbEntity
  8
DIMENSIONS
  6
Continuous
 62
     0
100
AcDbTrace
 10
1.436938131984675
 20
1.063750567735152
 30
0.0
 11
1.445271465318008
 21
1.063750567735152
 31
0.0
 12
1.441104798651341
 22
1.088750567735152
 32
0.0
 13
1.441104798651341
 23
1.088750567735152
 33
0.0
  0
SOLID
  5
D52
330
4C
100
AcDbEntity
  8
DIMENSIONS
  6
Continuous
 62
     0
100
AcDbTrace
 10
1.436938131984675
 20
1.300750567735152
 30
0.0
 11
1.445271465318008
 21
1.300750567735152
 31
0.0
 12
1.441104798651341
 22
1.275750567735152
 32
0.0
 13
1.441104798651341
 23
1.275750567735152
 33
0.0
  0
MTEXT
  5
D53
330
4C
100
AcDbEntity
  8
DIMENSIONS
  6
Continuous
 62
     0
100
AcDbMText
 10
1.441104798651341
 20
1.182250567735152
 30
0.0
 40
0.025
 41
0.0
 46
0.0
 71
     5
 72
     1
  1
\A1;.187±.007
 73
     1
 44
1.0
  0
POINT
  5
D54
330
4C
100
AcDbEntity
  8
DEFPOINTS
  6
Continuous
 62
     0
100
AcDbPoint
 10
1.059812079408714
 20
1.088750567735152
 30
0.0
  0
POINT
  5
D55
330
4C
100
AcDbEntity
  8
DEFPOINTS
  6
Continuous
 62
     0
100
AcDbPoint
 10
1.059812079408714
 20
1.275750567735152
 30
0.0
  0
POINT
  5
D56
330
4C
100
AcDbEntity
  8
DEFPOINTS
  6
Continuous
 62
     0
100
AcDbPoint
 10
1.441104798651341
 20
1.275750567735152
 30
0.0
  0
ENDBLK
  5
5A
330
4C
100
AcDbEntity
  8
0
100
AcDbBlockEnd
  0
BLOCK
  5
D3
330
D2
100
AcDbEntity
  8
0
100
AcDbBlockBegin
  2
*D2
 70
     1
 10
0.0
 20
0.0
 30
0.0
  3
*D2
  1

  0
LINE
  5
8EA
330
D2
100
AcDbEntity
  8
RIGID
  6
Continuous
 62
     0
370
    -2
100
AcDbLine
 10
0.8095620794087146
 20
1.313612799594035
 30
0.0
 11
0.8372028426939804
 21
1.313612799594035
 31
0.0
  0
LINE
  5
8EB
330
D2
100
AcDbEntity
  8
RIGID
  6
Continuous
 62
     0
370
    -2
100
AcDbLine
 10
0.8095620794087146
 20
1.345612799594035
 30
0.0
 11
0.8372028426939804
 21
1.345612799594035
 31
0.0
  0
LINE
  5
8EC
330
D2
100
AcDbEntity
  8
RIGID
  6
Continuous
 62
     0
370
    -2
100
AcDbLine
 10
0.8622028426939804
 20
1.288612799594035
 30
0.0
 11
0.8622028426939804
 21
1.263612799594035
 31
0.0
  0
LINE
  5
8ED
330
D2
100
AcDbEntity
  8
RIGID
  6
Continuous
 62
     0
370
    -2
100
AcDbLine
 10
0.8622028426939804
 20
1.370612799594035
 30
0.0
 11
0.8622028426939804
 21
1.395612799594035
 31
0.0
  0
MTEXT
  5
8EE
330
D2
100
AcDbEntity
  8
RIGID
  6
Continuous
 62
     0
100
AcDbMText
 10
0.8575658195870499
 20
1.460638632701543
 30
0.0
 40
0.025
 41
0.0
 46
0.0
 71
     5
 72
     1
  1
\A1;.032±.005
 73
     1
 44
1.0
  0
SOLID
  5
8EF
330
D2
100
AcDbEntity
  8
RIGID
  6
Continuous
 62
     0
100
AcDbTrace
 10
0.8580361760273138
 20
1.288612799594035
 30
0.0
 11
0.866369509360647
 21
1.288612799594035
 31
0.0
 12
0.8622028426939804
 22
1.313612799594035
 32
0.0
 13
0.8622028426939804
 23
1.313612799594035
 33
0.0
  0
SOLID
  5
8F0
330
D2
100
AcDbEntity
  8
RIGID
  6
Continuous
 62
     0
100
AcDbTrace
 10
0.8580361760273138
 20
1.370612799594035
 30
0.0
 11
0.866369509360647
 21
1.370612799594035
 31
0.0
 12
0.8622028426939804
 22
1.345612799594035
 32
0.0
 13
0.8622028426939804
 23
1.345612799594035
 33
0.0
  0
POINT
  5
8F1
330
D2
100
AcDbEntity
  8
DEFPOINTS
  6
Continuous
 62
     0
100
AcDbPoint
 10
0.8720620794087146
 20
1.313612799594035
 30
0.0
  0
POINT
  5
8F2
330
D2
100
AcDbEntity
  8
DEFPOINTS
  6
Continuous
 62
     0
100
AcDbPoint
 10
0.8720620794087146
 20
1.345612799594035
 30
0.0
  0
POINT
  5
8F3
330
D2
100
AcDbEntity
  8
DEFPOINTS
  6
Continuous
 62
     0
100
AcDbPoint
 10
0.8622028426939804
 20
1.345612799594035
 30
0.0
  0
ENDBLK
  5
E1
330
D2
100
AcDbEntity
  8
0
100
AcDbBlockEnd
  0
BLOCK
  5
106
330
105
100
AcDbEntity
  8
0
100
AcDbBlockBegin
  2
*D3
 70
     1
 10
0.0
 20
0.0
 30
0.0
  3
*D3
  1

  0
LINE
  5
8C8
330
105
100
AcDbEntity
  8
RIGID
  6
Continuous
 62
     0
370
    -2
100
AcDbLine
 10
0.7628120794087146
 20
1.345612799594035
 30
0.0
 11
0.4642030483382241
 21
1.345612799594035
 31
0.0
  0
LINE
  5
8C9
330
105
100
AcDbEntity
  8
RIGID
  6
Continuous
 62
     0
370
    -2
100
AcDbLine
 10
0.7628120794087146
 20
1.020612799594035
 30
0.0
 11
0.4642030483382241
 21
1.020612799594035
 31
0.0
  0
LINE
  5
8CA
330
105
100
AcDbEntity
  8
RIGID
  6
Continuous
 62
     0
370
    -2
100
AcDbLine
 10
0.4892030483382241
 20
1.320612799594035
 30
0.0
 11
0.4892030483382241
 21
1.256971618410378
 31
0.0
  0
LINE
  5
8CB
330
105
100
AcDbEntity
  8
RIGID
  6
Continuous
 62
     0
370
    -2
100
AcDbLine
 10
0.4892030483382241
 20
1.045612799594035
 30
0.0
 11
0.4892030483382241
 21
1.051971618410378
 31
0.0
  0
SOLID
  5
8CC
330
105
100
AcDbEntity
  8
RIGID
  6
Continuous
 62
     0
100
AcDbTrace
 10
0.4850363816715575
 20
1.320612799594035
 30
0.0
 11
0.4933697150048908
 21
1.320612799594035
 31
0.0
 12
0.4892030483382241
 22
1.345612799594035
 32
0.0
 13
0.4892030483382241
 23
1.345612799594035
 33
0.0
  0
SOLID
  5
8CD
330
105
100
AcDbEntity
  8
RIGID
  6
Continuous
 62
     0
100
AcDbTrace
 10
0.4850363816715574
 20
1.045612799594035
 30
0.0
 11
0.4933697150048907
 21
1.045612799594035
 31
0.0
 12
0.4892030483382241
 22
1.020612799594035
 32
0.0
 13
0.4892030483382241
 23
1.020612799594035
 33
0.0
  0
MTEXT
  5
8CE
330
105
100
AcDbEntity
  8
RIGID
  6
Continuous
 62
     0
100
AcDbMText
 10
0.489203048338224
 20
1.154471618410378
 30
0.0
 40
0.025
 41
0.0
 46
0.0
 71
     5
 72
     1
  1
\A1;.325±.015
 73
     1
 44
1.0
  0
POINT
  5
8CF
330
105
100
AcDbEntity
  8
DEFPOINTS
  6
Continuous
 62
     0
100
AcDbPoint
 10
0.8253120794087145
 20
1.345612799594035
 30
0.0
  0
POINT
  5
8D0
330
105
100
AcDbEntity
  8
DEFPOINTS
  6
Continuous
 62
     0
100
AcDbPoint
 10
0.8253120794087145
 20
1.020612799594035
 30
0.0
  0
POINT
  5
8D1
330
105
100
AcDbEntity
  8
DEFPOINTS
  6
Continuous
 62
     0
100
AcDbPoint
 10
0.4892030483382241
 20
1.020612799594035
 30
0.0
  0
ENDBLK
  5
112
330
105
100
AcDbEntity
  8
0
100
AcDbBlockEnd
  0
BLOCK
  5
142
330
141
100
AcDbEntity
  8
0
100
AcDbBlockBegin
  2
*D4
 70
     1
 10
0.0
 20
0.0
 30
0.0
  3
*D4
  1

  0
LINE
  5
8D2
330
141
100
AcDbEntity
  8
RIGID
  6
Continuous
 62
     0
370
    -2
100
AcDbLine
 10
0.8753120794087141
 20
0.9606127995940354
 30
0.0
 11
0.2506450505152232
 21
0.9606127995940354
 31
0.0
  0
LINE
  5
8D3
330
141
100
AcDbEntity
  8
RIGID
  6
Continuous
 62
     0
370
    -2
100
AcDbLine
 10
0.9003120794087147
 20
1.390612799594035
 30
0.0
 11
0.2506450505152232
 21
1.390612799594035
 31
0.0
  0
LINE
  5
8D4
330
141
100
AcDbEntity
  8
RIGID
  6
Continuous
 62
     0
370
    -2
100
AcDbLine
 10
0.2756450505152232
 20
0.9856127995940354
 30
0.0
 11
0.2756450505152232
 21
1.048004977749233
 31
0.0
  0
LINE
  5
8D5
330
141
100
AcDbEntity
  8
RIGID
  6
Continuous
 62
     0
370
    -2
100
AcDbLine
 10
0.2756450505152232
 20
1.365612799594035
 30
0.0
 11
0.2756450505152232
 21
1.253004977749233
 31
0.0
  0
SOLID
  5
8D6
330
141
100
AcDbEntity
  8
RIGID
  6
Continuous
 62
     0
100
AcDbTrace
 10
0.2714783838485566
 20
0.9856127995940354
 30
0.0
 11
0.2798117171818899
 21
0.9856127995940354
 31
0.0
 12
0.2756450505152232
 22
0.9606127995940354
 32
0.0
 13
0.2756450505152232
 23
0.9606127995940354
 33
0.0
  0
SOLID
  5
8D7
330
141
100
AcDbEntity
  8
RIGID
  6
Continuous
 62
     0
100
AcDbTrace
 10
0.2714783838485566
 20
1.365612799594035
 30
0.0
 11
0.2798117171818899
 21
1.365612799594035
 31
0.0
 12
0.2756450505152233
 22
1.390612799594035
 32
0.0
 13
0.2756450505152233
 23
1.390612799594035
 33
0.0
  0
MTEXT
  5
8D8
330
141
100
AcDbEntity
  8
RIGID
  6
Continuous
 62
     0
100
AcDbMText
 10
0.275645050515223
 20
1.150504977749233
 30
0.0
 40
0.025
 41
0.0
 46
0.0
 71
     5
 72
     1
  1
\A1;.430±.020
 73
     1
 44
1.0
  0
POINT
  5
8D9
330
141
100
AcDbEntity
  8
DEFPOINTS
  6
Continuous
 62
     0
100
AcDbPoint
 10
0.9378120794087141
 20
0.9606127995940354
 30
0.0
  0
POINT
  5
8DA
330
141
100
AcDbEntity
  8
DEFPOINTS
  6
Continuous
 62
     0
100
AcDbPoint
 10
0.9628120794087147
 20
1.390612799594035
 30
0.0
  0
POINT
  5
8DB
330
141
100
AcDbEntity
  8
DEFPOINTS
  6
Continuous
 62
     0
100
AcDbPoint
 10
0.2756450505152233
 20
1.390612799594035
 30
0.0
  0
ENDBLK
  5
14E
330
141
100
AcDbEntity
  8
0
100
AcDbBlockEnd
  0
BLOCK
  5
31F
330
314
100
AcDbEntity
  8
0
 62
     1
100
AcDbBlockBegin
  2
*D5
 70
     1
 10
0.0
 20
0.0
 30
0.0
  3
*D5
  1

  0
LINE
  5
B9C
330
314
100
AcDbEntity
  8
0
  6
Continuous
 62
     0
370
    -2
100
AcDbLine
 10
0.9748120794087141
 20
1.362651599137287
 30
0.0
 11
0.9748120794087141
 21
1.608246824684469
 31
0.0
  0
LINE
  5
B9D
330
314
100
AcDbEntity
  8
0
  6
Continuous
 62
     0
370
    -2
100
AcDbLine
 10
1.099812079408714
 20
1.41680412808635
 30
0.0
 11
1.099812079408714
 21
1.608246824684469
 31
0.0
  0
LINE
  5
B9E
330
314
100
AcDbEntity
  8
0
  6
Continuous
 62
     0
370
    -2
100
AcDbLine
 10
0.9498120794087141
 20
1.583246824684469
 30
0.0
 11
0.9248120794087141
 21
1.583246824684469
 31
0.0
  0
LINE
  5
B9F
330
314
100
AcDbEntity
  8
0
  6
Continuous
 62
     0
370
    -2
100
AcDbLine
 10
1.124812079408714
 20
1.583246824684469
 30
0.0
 11
1.149812079408714
 21
1.583246824684469
 31
0.0
  0
MTEXT
  5
BA0
330
314
100
AcDbEntity
  8
0
  6
Continuous
 62
     0
100
AcDbMText
 10
1.242899051182913
 20
1.586203545662217
 30
0.0
 40
0.025
 41
0.0
 46
0.0
 71
     5
 72
     1
  1
\A1;.125±.010
 73
     1
 44
1.0
  0
SOLID
  5
BA1
330
314
100
AcDbEntity
  8
0
  6
Continuous
 62
     0
100
AcDbTrace
 10
0.9498120794087141
 20
1.587413491351136
 30
0.0
 11
0.9498120794087141
 21
1.579080158017803
 31
0.0
 12
0.9748120794087141
 22
1.583246824684469
 32
0.0
 13
0.9748120794087141
 23
1.583246824684469
 33
0.0
  0
SOLID
  5
BA2
330
314
100
AcDbEntity
  8
0
  6
Continuous
 62
     0
100
AcDbTrace
 10
1.124812079408714
 20
1.587413491351136
 30
0.0
 11
1.124812079408714
 21
1.579080158017803
 31
0.0
 12
1.099812079408714
 22
1.583246824684469
 32
0.0
 13
1.099812079408714
 23
1.583246824684469
 33
0.0
  0
POINT
  5
BA3
330
314
100
AcDbEntity
  8
DEFPOINTS
  6
Continuous
 62
     0
100
AcDbPoint
 10
0.9748120794087141
 20
1.300151599137287
 30
0.0
  0
POINT
  5
BA4
330
314
100
AcDbEntity
  8
DEFPOINTS
  6
Continuous
 62
     0
100
AcDbPoint
 10
1.099812079408714
 20
1.35430412808635
 30
0.0
  0
POINT
  5
BA5
330
314
100
AcDbEntity
  8
DEFPOINTS
  6
Continuous
 62
     0
100
AcDbPoint
 10
1.099812079408714
 20
1.583246824684469
 30
0.0
  0
ENDBLK
  5
320
330
314
100
AcDbEntity
  8
0
 62
     1
100
AcDbBlockEnd
  0
BLOCK
  5
9A8
330
99D
100
AcDbEntity
  8
0
 62
     1
100
AcDbBlockBegin
  2
*D6
 70
     1
 10
0.0
 20
0.0
 30
0.0
  3
*D6
  1

  0
LINE
  5
BD8
330
99D
100
AcDbEntity
  8
RIGID
  6
Continuous
 62
     0
370
    -2
100
AcDbLine
 10
0.9748120794087142
 20
0.9081127995940352
 30
0.0
 11
0.9748120794087142
 21
0.6166059920486097
 31
0.0
  0
LINE
  5
BD9
330
99D
100
AcDbEntity
  8
RIGID
  6
Continuous
 62
     0
370
    -2
100
AcDbLine
 10
0.6628120794087146
 20
0.9081127995940352
 30
0.0
 11
0.6628120794087146
 21
0.6166059920486097
 31
0.0
  0
LINE
  5
BDA
330
99D
100
AcDbEntity
  8
RIGID
  6
Continuous
 62
     0
370
    -2
100
AcDbLine
 10
0.9498120794087142
 20
0.6416059920486097
 30
0.0
 11
0.6878120794087146
 21
0.6416059920486097
 31
0.0
  0
MTEXT
  5
BDB
330
99D
100
AcDbEntity
  8
RIGID
  6
Continuous
 62
     0
100
AcDbMText
 10
0.8188120794087144
 20
0.6038590009825838
 30
0.0
 40
0.025
 41
0.0
 46
0.0
 71
     5
 72
     1
  1
\A1;.312±.015
 73
     1
 44
1.0
  0
SOLID
  5
BDC
330
99D
100
AcDbEntity
  8
RIGID
  6
Continuous
 62
     0
100
AcDbTrace
 10
0.9498120794087142
 20
0.6457726587152763
 30
0.0
 11
0.9498120794087142
 21
0.6374393253819431
 31
0.0
 12
0.9748120794087142
 22
0.6416059920486097
 32
0.0
 13
0.9748120794087142
 23
0.6416059920486097
 33
0.0
  0
SOLID
  5
BDD
330
99D
100
AcDbEntity
  8
RIGID
  6
Continuous
 62
     0
100
AcDbTrace
 10
0.6878120794087146
 20
0.6457726587152763
 30
0.0
 11
0.6878120794087146
 21
0.6374393253819431
 31
0.0
 12
0.6628120794087146
 22
0.6416059920486097
 32
0.0
 13
0.6628120794087146
 23
0.6416059920486097
 33
0.0
  0
POINT
  5
BDE
330
99D
100
AcDbEntity
  8
DEFPOINTS
  6
Continuous
 62
     0
100
AcDbPoint
 10
0.9748120794087142
 20
0.9706127995940352
 30
0.0
  0
POINT
  5
BDF
330
99D
100
AcDbEntity
  8
DEFPOINTS
  6
Continuous
 62
     0
100
AcDbPoint
 10
0.6628120794087146
 20
0.9706127995940352
 30
0.0
  0
POINT
  5
BE0
330
99D
100
AcDbEntity
  8
DEFPOINTS
  6
Continuous
 62
     0
100
AcDbPoint
 10
0.6628120794087146
 20
0.6416059920486097
 30
0.0
  0
ENDBLK
  5
9A9
330
99D
100
AcDbEntity
  8
0
 62
     1
100
AcDbBlockEnd
  0
BLOCK
  5
9B7
330
9AC
100
AcDbEntity
  8
0
 62
     1
100
AcDbBlockBegin
  2
*D7
 70
     1
 10
0.0
 20
0.0
 30
0.0
  3
*D7
  1

  0
LINE
  5
D2F
330
9AC
100
AcDbEntity
  8
RIGID
  6
Continuous
 62
     0
370
    -2
100
AcDbLine
 10
0.6628120794087146
 20
1.120612799594035
 30
0.0
 11
0.6628120794087146
 21
0.7771787887150218
 31
0.0
  0
LINE
  5
D30
330
9AC
100
AcDbEntity
  8
RIGID
  6
Continuous
 62
     0
370
    -2
100
AcDbLine
 10
0.6868120794087146
 20
1.120612799594035
 30
0.0
 11
0.6868120794087146
 21
0.7771787887150218
 31
0.0
  0
LINE
  5
D31
330
9AC
100
AcDbEntity
  8
RIGID
  6
Continuous
 62
     0
370
    -2
100
AcDbLine
 10
0.6378120794087146
 20
0.8021787887150217
 30
0.0
 11
0.6128120794087146
 21
0.8021787887150217
 31
0.0
  0
LINE
  5
D32
330
9AC
100
AcDbEntity
  8
RIGID
  6
Continuous
 62
     0
370
    -2
100
AcDbLine
 10
0.7118120794087146
 20
0.8021787887150217
 30
0.0
 11
0.7368120794087147
 21
0.8021787887150217
 31
0.0
  0
MTEXT
  5
D33
330
9AC
100
AcDbEntity
  8
RIGID
  6
Continuous
 62
     0
100
AcDbMText
 10
0.8325519029256085
 20
0.8021787887150217
 30
0.0
 40
0.025
 41
0.0
 46
0.0
 71
     5
 72
     1
  1
\A1;.024±.004
 73
     1
 44
1.0
  0
SOLID
  5
D34
330
9AC
100
AcDbEntity
  8
RIGID
  6
Continuous
 62
     0
100
AcDbTrace
 10
0.6378120794087146
 20
0.8063454553816884
 30
0.0
 11
0.6378120794087146
 21
0.7980121220483552
 31
0.0
 12
0.6628120794087146
 22
0.8021787887150217
 32
0.0
 13
0.6628120794087146
 23
0.8021787887150217
 33
0.0
  0
SOLID
  5
D35
330
9AC
100
AcDbEntity
  8
RIGID
  6
Continuous
 62
     0
100
AcDbTrace
 10
0.7118120794087146
 20
0.8063454553816884
 30
0.0
 11
0.7118120794087146
 21
0.7980121220483552
 31
0.0
 12
0.6868120794087146
 22
0.8021787887150217
 32
0.0
 13
0.6868120794087146
 23
0.8021787887150217
 33
0.0
  0
POINT
  5
D36
330
9AC
100
AcDbEntity
  8
DEFPOINTS
  6
Continuous
 62
     0
100
AcDbPoint
 10
0.6628120794087146
 20
1.183112799594035
 30
0.0
  0
POINT
  5
D37
330
9AC
100
AcDbEntity
  8
DEFPOINTS
  6
Continuous
 62
     0
100
AcDbPoint
 10
0.6868120794087146
 20
1.183112799594035
 30
0.0
  0
POINT
  5
D38
330
9AC
100
AcDbEntity
  8
DEFPOINTS
  6
Continuous
 62
     0
100
AcDbPoint
 10
0.6868120794087146
 20
0.8021787887150217
 30
0.0
  0
ENDBLK
  5
9B8
330
9AC
100
AcDbEntity
  8
0
 62
     1
100
AcDbBlockEnd
  0
BLOCK
  5
9E5
330
9DA
100
AcDbEntity
  8
0
 62
     1
100
AcDbBlockBegin
  2
*D8
 70
     1
 10
0.0
 20
0.0
 30
0.0
  3
*D8
  1

  0
LINE
  5
CDF
330
9DA
100
AcDbEntity
  8
DIMENSIONS
  6
Continuous
 62
     0
370
    -2
100
AcDbLine
 10
0.9748120794087142
 20
1.102250567735152
 30
0.0
 11
0.9748120794087142
 21
0.9682747208916339
 31
0.0
  0
LINE
  5
CE0
330
9DA
100
AcDbEntity
  8
DIMENSIONS
  6
Continuous
 62
     0
370
    -2
100
AcDbLine
 10
1.031812079408714
 20
1.102250567735152
 30
0.0
 11
1.031812079408714
 21
0.9682747208916339
 31
0.0
  0
LINE
  5
CE1
330
9DA
100
AcDbEntity
  8
DIMENSIONS
  6
Continuous
 62
     0
370
    -2
100
AcDbLine
 10
0.9498120794087142
 20
0.9932747208916339
 30
0.0
 11
0.9248120794087142
 21
0.9932747208916339
 31
0.0
  0
LINE
  5
CE2
330
9DA
100
AcDbEntity
  8
DIMENSIONS
  6
Continuous
 62
     0
370
    -2
100
AcDbLine
 10
1.056812079408714
 20
0.9932747208916339
 30
0.0
 11
1.081812079408714
 21
0.9932747208916339
 31
0.0
  0
SOLID
  5
CE3
330
9DA
100
AcDbEntity
  8
DIMENSIONS
  6
Continuous
 62
     0
100
AcDbTrace
 10
0.9498120794087142
 20
0.9974413875583005
 30
0.0
 11
0.9498120794087142
 21
0.9891080542249673
 31
0.0
 12
0.9748120794087142
 22
0.9932747208916339
 32
0.0
 13
0.9748120794087142
 23
0.9932747208916339
 33
0.0
  0
SOLID
  5
CE4
330
9DA
100
AcDbEntity
  8
DIMENSIONS
  6
Continuous
 62
     0
100
AcDbTrace
 10
1.056812079408714
 20
0.9974413875583005
 30
0.0
 11
1.056812079408714
 21
0.9891080542249673
 31
0.0
 12
1.031812079408714
 22
0.9932747208916339
 32
0.0
 13
1.031812079408714
 23
0.9932747208916339
 33
0.0
  0
MTEXT
  5
CE5
330
9DA
100
AcDbEntity
  8
DIMENSIONS
  6
Continuous
 62
     0
100
AcDbMText
 10
1.25722874607538
 20
0.9932747208916339
 30
0.0
 40
0.025
 41
0.0
 46
0.0
 71
     5
 72
     1
  1
\A1;.057±.005
 73
     1
 44
1.0
  0
POINT
  5
CE6
330
9DA
100
AcDbEntity
  8
DEFPOINTS
  6
Continuous
 62
     0
100
AcDbPoint
 10
0.9748120794087142
 20
1.164750567735152
 30
0.0
  0
POINT
  5
CE7
330
9DA
100
AcDbEntity
  8
DEFPOINTS
  6
Continuous
 62
     0
100
AcDbPoint
 10
1.031812079408714
 20
1.164750567735152
 30
0.0
  0
POINT
  5
CE8
330
9DA
100
AcDbEntity
  8
DEFPOINTS
  6
Continuous
 62
     0
100
AcDbPoint
 10
1.031812079408714
 20
0.9932747208916339
 30
0.0
  0
ENDBLK
  5
9E6
330
9DA
100
AcDbEntity
  8
0
 62
     1
100
AcDbBlockEnd
  0
BLOCK
  5
B86
330
B7A
100
AcDbEntity
  8
0
 62
     1
100
AcDbBlockBegin
  2
*D9
 70
     1
 10
0.0
 20
0.0
 30
0.0
  3
*D9
  1

  0
LINE
  5
D5F
330
B7A
100
AcDbEntity
  8
0
  6
Continuous
 62
     0
370
    -2
100
AcDbLine
 10
1.087812079408714
 20
1.343612799594035
 30
0.0
 11
1.204995594501081
 21
1.343612799594035
 31
0.0
  0
LINE
  5
D60
330
B7A
100
AcDbEntity
  8
0
  6
Continuous
 62
     0
370
    -2
100
AcDbLine
 10
1.087812079408714
 20
1.390612799594035
 30
0.0
 11
1.204995594501081
 21
1.390612799594035
 31
0.0
  0
LINE
  5
D61
330
B7A
100
AcDbEntity
  8
0
  6
Continuous
 62
     0
370
    -2
100
AcDbLine
 10
1.179995594501081
 20
1.318612799594035
 30
0.0
 11
1.179995594501081
 21
1.293612799594035
 31
0.0
  0
LINE
  5
D62
330
B7A
100
AcDbEntity
  8
0
  6
Continuous
 62
     0
370
    -2
100
AcDbLine
 10
1.179995594501081
 20
1.415612799594035
 30
0.0
 11
1.179995594501081
 21
1.440612799594035
 31
0.0
  0
MTEXT
  5
D63
330
B7A
100
AcDbEntity
  8
0
  6
Continuous
 62
     0
100
AcDbMText
 10
1.300021595167688
 20
1.366079334035956
 30
0.0
 40
0.025
 41
0.0
 46
0.0
 71
     5
 72
     1
  1
\A1;.047±.005
 73
     1
 44
1.0
  0
SOLID
  5
D64
330
B7A
100
AcDbEntity
  8
0
  6
Continuous
 62
     0
100
AcDbTrace
 10
1.175828927834414
 20
1.318612799594035
 30
0.0
 11
1.184162261167747
 21
1.318612799594035
 31
0.0
 12
1.179995594501081
 22
1.343612799594035
 32
0.0
 13
1.179995594501081
 23
1.343612799594035
 33
0.0
  0
SOLID
  5
D65
330
B7A
100
AcDbEntity
  8
0
  6
Continuous
 62
     0
100
AcDbTrace
 10
1.175828927834414
 20
1.415612799594035
 30
0.0
 11
1.184162261167747
 21
1.415612799594035
 31
0.0
 12
1.179995594501081
 22
1.390612799594035
 32
0.0
 13
1.179995594501081
 23
1.390612799594035
 33
0.0
  0
POINT
  5
D66
330
B7A
100
AcDbEntity
  8
DEFPOINTS
  6
Continuous
 62
     0
100
AcDbPoint
 10
1.025312079408714
 20
1.343612799594035
 30
0.0
  0
POINT
  5
D67
330
B7A
100
AcDbEntity
  8
DEFPOINTS
  6
Continuous
 62
     0
100
AcDbPoint
 10
1.025312079408714
 20
1.390612799594035
 30
0.0
  0
POINT
  5
D68
330
B7A
100
AcDbEntity
  8
DEFPOINTS
  6
Continuous
 62
     0
100
AcDbPoint
 10
1.179995594501081
 20
1.390612799594035
 30
0.0
  0
ENDBLK
  5
B87
330
B7A
100
AcDbEntity
  8
0
 62
     1
100
AcDbBlockEnd
  0
BLOCK
  5
BB9
330
BAE
100
AcDbEntity
  8
0
 62
     1
100
AcDbBlockBegin
  2
*D10
 70
     1
 10
0.0
 20
0.0
 30
0.0
  3
*D10
  1

  0
LINE
  5
C14
330
BAE
100
AcDbEntity
  8
0
  6
Continuous
 62
     0
370
    -2
100
AcDbLine
 10
0.5728120794087147
 20
1.418112799594035
 30
0.0
 11
0.5728120794087147
 21
1.671062662541925
 31
0.0
  0
LINE
  5
C15
330
BAE
100
AcDbEntity
  8
0
  6
Continuous
 62
     0
370
    -2
100
AcDbLine
 10
0.9748120794087146
 20
1.418112799594035
 30
0.0
 11
0.9748120794087146
 21
1.671062662541925
 31
0.0
  0
LINE
  5
C16
330
BAE
100
AcDbEntity
  8
0
  6
Continuous
 62
     0
370
    -2
100
AcDbLine
 10
0.5978120794087147
 20
1.646062662541925
 30
0.0
 11
0.5983954127420481
 21
1.646062662541925
 31
0.0
  0
LINE
  5
C17
330
BAE
100
AcDbEntity
  8
0
  6
Continuous
 62
     0
370
    -2
100
AcDbLine
 10
0.9498120794087146
 20
1.646062662541925
 30
0.0
 11
0.9492287460753813
 21
1.646062662541925
 31
0.0
  0
MTEXT
  5
C18
330
BAE
100
AcDbEntity
  8
0
  6
Continuous
 62
     0
100
AcDbMText
 10
0.7738120794087147
 20
1.644390905922644
 30
0.0
 40
0.025
 41
0.0
 46
0.0
 71
     5
 72
     1
  1
\A1;.402±.020
 73
     1
 44
1.0
  0
SOLID
  5
C19
330
BAE
100
AcDbEntity
  8
0
  6
Continuous
 62
     0
100
AcDbTrace
 10
0.5978120794087147
 20
1.650229329208592
 30
0.0
 11
0.5978120794087147
 21
1.641895995875259
 31
0.0
 12
0.5728120794087147
 22
1.646062662541925
 32
0.0
 13
0.5728120794087147
 23
1.646062662541925
 33
0.0
  0
SOLID
  5
C1A
330
BAE
100
AcDbEntity
  8
0
  6
Continuous
 62
     0
100
AcDbTrace
 10
0.9498120794087146
 20
1.650229329208592
 30
0.0
 11
0.9498120794087146
 21
1.641895995875259
 31
0.0
 12
0.9748120794087146
 22
1.646062662541925
 32
0.0
 13
0.9748120794087146
 23
1.646062662541925
 33
0.0
  0
POINT
  5
C1B
330
BAE
100
AcDbEntity
  8
DEFPOINTS
  6
Continuous
 62
     0
100
AcDbPoint
 10
0.5728120794087147
 20
1.355612799594035
 30
0.0
  0
POINT
  5
C1C
330
BAE
100
AcDbEntity
  8
DEFPOINTS
  6
Continuous
 62
     0
100
AcDbPoint
 10
0.9748120794087146
 20
1.355612799594035
 30
0.0
  0
POINT
  5
C1D
330
BAE
100
AcDbEntity
  8
DEFPOINTS
  6
Continuous
 62
     0
100
AcDbPoint
 10
0.9748120794087146
 20
1.646062662541925
 30
0.0
  0
ENDBLK
  5
BBA
330
BAE
100
AcDbEntity
  8
0
 62
     1
100
AcDbBlockEnd
  0
BLOCK
  5
C7D
330
C72
100
AcDbEntity
  8
0
 62
     1
100
AcDbBlockBegin
  2
*D11
 70
     1
 10
0.0
 20
0.0
 30
0.0
  3
*D11
  1

  0
LINE
  5
D73
330
C72
100
AcDbEntity
  8
RIGID
  6
Continuous
 62
     0
370
    -2
100
AcDbLine
 10
0.9748120794087142
 20
0.9081127995940352
 30
0.0
 11
0.9748120794087142
 21
0.8550307316198905
 31
0.0
  0
LINE
  5
D74
330
C72
100
AcDbEntity
  8
RIGID
  6
Continuous
 62
     0
370
    -2
100
AcDbLine
 10
0.9398120794087141
 20
0.9081127995940352
 30
0.0
 11
0.9398120794087141
 21
0.8550307316198905
 31
0.0
  0
LINE
  5
D75
330
C72
100
AcDbEntity
  8
RIGID
  6
Continuous
 62
     0
370
    -2
100
AcDbLine
 10
0.9148120794087141
 20
0.8800307316198905
 30
0.0
 11
0.8898120794087141
 21
0.8800307316198905
 31
0.0
  0
LINE
  5
D76
330
C72
100
AcDbEntity
  8
RIGID
  6
Continuous
 62
     0
370
    -2
100
AcDbLine
 10
0.9998120794087142
 20
0.8800307316198905
 30
0.0
 11
1.024812079408714
 21
0.8800307316198905
 31
0.0
  0
SOLID
  5
D77
330
C72
100
AcDbEntity
  8
RIGID
  6
Continuous
 62
     0
100
AcDbTrace
 10
0.9148120794087141
 20
0.8841973982865571
 30
0.0
 11
0.9148120794087141
 21
0.8758640649532239
 31
0.0
 12
0.9398120794087141
 22
0.8800307316198905
 32
0.0
 13
0.9398120794087141
 23
0.8800307316198905
 33
0.0
  0
SOLID
  5
D78
330
C72
100
AcDbEntity
  8
RIGID
  6
Continuous
 62
     0
100
AcDbTrace
 10
0.9998120794087142
 20
0.8841973982865571
 30
0.0
 11
0.9998120794087142
 21
0.8758640649532239
 31
0.0
 12
0.9748120794087142
 22
0.8800307316198905
 32
0.0
 13
0.9748120794087142
 23
0.8800307316198905
 33
0.0
  0
MTEXT
  5
D79
330
C72
100
AcDbEntity
  8
RIGID
  6
Continuous
 62
     0
100
AcDbMText
 10
1.20022874607538
 20
0.8800307316198905
 30
0.0
 40
0.025
 41
0.0
 46
0.0
 71
     5
 72
     1
  1
\A1;.035±.005
 73
     1
 44
1.0
  0
POINT
  5
D7A
330
C72
100
AcDbEntity
  8
DEFPOINTS
  6
Continuous
 62
     0
100
AcDbPoint
 10
0.9748120794087142
 20
0.9706127995940352
 30
0.0
  0
POINT
  5
D7B
330
C72
100
AcDbEntity
  8
DEFPOINTS
  6
Continuous
 62
     0
100
AcDbPoint
 10
0.9398120794087141
 20
0.9706127995940352
 30
0.0
  0
POINT
  5
D7C
330
C72
100
AcDbEntity
  8
DEFPOINTS
  6
Continuous
 62
     0
100
AcDbPoint
 10
0.9398120794087141
 20
0.8800307316198905
 30
0.0
  0
ENDBLK
  5
C7E
330
C72
100
AcDbEntity
  8
0
 62
     1
100
AcDbBlockEnd
  0
ENDSEC
  0
SECTION
  2
ENTITIES
  0
DIMENSION
  5
2B
330
A
100
AcDbEntity
  8
DIMENSIONS
  6
Continuous
 62
     1
100
AcDbDimension
  2
*D0
 10
0.4390728326519992
 20
1.505087877256487
 30
0.0
 11
0.3693963612275651
 21
1.439652617268404
 31
0.0
 70
   160
 71
     5
 42
0.0199999999999996
 73
     0
 74
     0
 75
     0
  3
DIMSTYLE1
100
AcDbAlignedDimension
 13
0.5892152030601034
 23
1.405964629292876
 33
0.0
 14
0.576408955757325
 24
1.390602336820069
 34
0.0
 50
230.1848842741982
100
AcDbRotatedDimension
1001
ACAD
1000
DSTYLE
1002
{
1070
   284
1070
     4
1070
   272
1070
     3
1070
    47
1040
0.004
1070
   147
1040
0.09
1070
    48
1040
0.004
1070
    72
1070
     0
1070
    71
1070
     1
1070
    78
1070
     4
1070
   271
1070
     3
1070
   279
1070
     2
1002
}
  0
ARC
  5
38
330
A
100
AcDbEntity
  8
FLEXIBLE
  6
Continuous
 62
     5
100
AcDbCircle
 10
0.6798547537376924
 20
1.284839966116229
 30
0.0
 40
0.015
100
AcDbArc
 50
325.03256275336
 51
50.18488427419865
  0
ARC
  5
39
330
A
100
AcDbEntity
  8
FLEXIBLE
  6
Continuous
 62
     5
100
AcDbCircle
 10
0.7140594802413274
 20
1.32142082242171
 30
0.0
 40
0.015
100
AcDbArc
 50
230.1848842741978
 51
308.8126018379646
  0
LINE
  5
3A
330
A
100
AcDbEntity
  8
FLEXIBLE
  6
Continuous
 62
     5
100
AcDbLine
 10
0.5892152030601037
 20
1.405964629292877
 30
0.0
 11
0.7044547947642434
 21
1.309899103067104
 31
0.0
  0
ARC
  5
3B
330
A
100
AcDbEntity
  8
FLEXIBLE
  6
Continuous
 62
     5
100
AcDbCircle
 10
0.5828079606064567
 20
1.39828451263358
 30
0.0
 40
0.01
100
AcDbArc
 50
50.18488427419824
 51
230.1848842741983
  0
DIMENSION
  5
4E
330
A
100
AcDbEntity
  8
DIMENSIONS
  6
Continuous
 62
     1
100
AcDbDimension
  2
*D1
 10
1.441104798651341
 20
1.275750567735152
 30
0.0
 11
1.441104798651341
 21
1.182250567735152
 31
0.0
 70
   160
 71
     5
 42
0.1869999999999998
 73
     0
 74
     0
 75
     0
  3
DIMSTYLE3
100
AcDbAlignedDimension
 13
1.059812079408714
 23
1.088750567735152
 33
0.0
 14
1.059812079408714
 24
1.275750567735152
 34
0.0
 50
90.0
100
AcDbRotatedDimension
1001
ACAD
1000
DSTYLE
1002
{
1070
   284
1070
     4
1070
   272
1070
     3
1070
    47
1040
0.007
1070
   147
1040
0.09
1070
    48
1040
0.007
1070
    72
1070
     0
1070
    71
1070
     1
1070
    78
1070
     4
1070
   271
1070
     3
1002
}
  0
LINE
  5
8C
330
A
100
AcDbEntity
  8
TITLE_BLOCK
  6
Continuous
 62
     7
100
AcDbLine
 10
0.8499999999999996
 20
0.2250000000000001
 30
0.0
 11
1.049999999999999
 21
0.2250000000000001
 31
0.0
  0
TEXT
  5
8D
330
A
100
AcDbEntity
  8
TITLE_BLOCK
  6
Continuous
 62
     7
100
AcDbText
 10
0.8625
 20
0.3500000000000001
 30
0.0
 40
0.0125
  1
COLOR:
 41
0.5
100
AcDbText
  0
TEXT
  5
8E
330
A
100
AcDbEntity
  8
TITLE_BLOCK
  6
Continuous
 62
     7
100
AcDbText
 10
0.6624999999999998
 20
0.35
 30
0.0
 40
0.0125
  1
MATERIAL:
 41
0.5
100
AcDbText
  0
TEXT
  5
8F
330
A
100
AcDbEntity
  8
TITLE_BLOCK
  6
Continuous
 62
     7
100
AcDbText
 10
0.6703124999999997
 20
0.3197500000000002
 30
0.0
 40
0.01875
  1
RIGID & FLEX. PVC
 41
0.5
100
AcDbText
  0
TEXT
  5
90
330
A
100
AcDbEntity
  8
TITLE_BLOCK
  6
Continuous
 62
     7
100
AcDbText
 10
0.8703125
 20
0.3197500000000002
 30
0.0
 40
0.01875
  1
ANY STANDARD COLOR
 41
0.5
100
AcDbText
  0
TEXT
  5
91
330
A
100
AcDbEntity
  8
TITLE_BLOCK
  6
Continuous
 62
     7
100
AcDbText
 10
1.153675731497246
 20
0.2548319241301585
 30
0.0
 40
0.0375
  1
.300 HIGH D-BULB
 41
0.5
100
AcDbText
  0
TEXT
  5
92
330
A
100
AcDbEntity
  8
TITLE_BLOCK
  6
Continuous
 62
     7
100
AcDbText
 10
1.153675731497246
 20
0.1964972647360866
 30
0.0
 40
0.0375
  1
.187 OFFSET T-SLOT
 41
0.5
100
AcDbText
  0
TEXT
  5
93
330
A
100
AcDbEntity
  8
TITLE_BLOCK
  6
Continuous
 62
     7
100
AcDbText
 10
1.170382786572905
 20
0.1337693923660521
 30
0.0
 40
0.0375
  1
PART DRAWING
 41
0.5
100
AcDbText
  0
LINE
  5
94
330
A
100
AcDbEntity
  8
TITLE_BLOCK
  6
Continuous
 62
     7
100
AcDbLine
 10
1.699999999999999
 20
0.0
 30
0.0
 11
1.699999999999999
 21
2.2
 31
0.0
  0
TEXT
  5
95
330
A
100
AcDbEntity
  8
TITLE_BLOCK
  6
Continuous
 62
     7
100
AcDbText
 10
1.181249999999999
 20
0.0687500000000001
 30
0.0
 40
0.0375
  1
E274
 41
0.5
100
AcDbText
  0
TEXT
  5
9A
330
A
100
AcDbEntity
  8
TITLE_BLOCK
  6
Continuous
 62
     7
100
AcDbText
 10
0.5250000000000003
 20
0.2374999999999998
 30
0.0
 40
0.025
  1
1 of 1
 41
0.5
100
AcDbText
  0
TEXT
  5
9B
330
A
100
AcDbEntity
  8
TITLE_BLOCK
  6
Continuous
 62
     7
100
AcDbText
 10
0.5250000000000002
 20
0.2875000000000001
 30
0.0
 40
0.025
  1
A
 41
0.5
100
AcDbText
  0
TEXT
  5
9C
330
A
100
AcDbEntity
  8
TITLE_BLOCK
  6
Continuous
 62
     7
100
AcDbText
 10
0.525
 20
0.3374999999999999
 30
0.0
 40
0.025
  1
5:1
 41
0.5
100
AcDbText
  0
TEXT
  5
9D
330
A
100
AcDbEntity
  8
TITLE_BLOCK
  6
Continuous
 62
     7
100
AcDbText
 10
0.4624999999999997
 20
0.3500000000000001
 30
0.0
 40
0.0125
  1
SCALE:
 41
0.5
100
AcDbText
  0
LINE
  5
A0
330
A
100
AcDbEntity
  8
TITLE_BLOCK
  6
Continuous
 62
     7
100
AcDbLine
 10
0.45
 20
0.375
 30
0.0
 11
0.45
 21
0.0499999999999998
 31
0.0
  0
LINE
  5
A1
330
A
100
AcDbEntity
  8
TITLE_BLOCK
  6
Continuous
 62
     7
100
AcDbLine
 10
1.05
 20
0.375
 30
0.0
 11
1.05
 21
0.0499999999999998
 31
0.0
  0
TEXT
  5
AC
330
A
100
AcDbEntity
  8
TITLE_BLOCK
  6
Continuous
 62
     7
100
AcDbText
 10
0.4624999999999998
 20
0.25
 30
0.0
 40
0.0125
  1
SHEET:
 41
0.5
100
AcDbText
  0
LINE
  5
AD
330
A
100
AcDbEntity
  8
TITLE_BLOCK
  6
Continuous
 62
     7
100
AcDbLine
 10
0.075
 20
0.1499999999999999
 30
0.0
 11
0.425
 21
0.1499999999999999
 31
0.0
  0
TEXT
  5
AE
330
A
100
AcDbEntity
  8
TITLE_BLOCK
  6
Continuous
 62
     7
100
AcDbText
 10
0.0625
 20
0.2250000000000001
 30
0.0
 40
0.02
  1
DATE:
 41
0.5
100
AcDbText
  0
LINE
  5
AF
330
A
100
AcDbEntity
  8
TITLE_BLOCK
  6
Continuous
 62
     7
100
AcDbLine
 10
0.075
 20
0.2625000000000001
 30
0.0
 11
0.425
 21
0.2625000000000001
 31
0.0
  0
TEXT
  5
B0
330
A
100
AcDbEntity
  8
TITLE_BLOCK
  6
Continuous
 62
     7
100
AcDbText
 10
0.0625000000000002
 20
0.3374999999999999
 30
0.0
 40
0.02
  1
CUSTOMER APPROVAL:
 41
0.5
100
AcDbText
  0
TEXT
  5
B2
330
A
100
AcDbEntity
  8
TITLE_BLOCK
  6
Continuous
 62
     7
100
AcDbText
 10
0.4624999999999997
 20
0.2999999999999998
 30
0.0
 40
0.0125
  1
SIZE:
 41
0.5
100
AcDbText
  0
LINE
  5
B3
330
A
100
AcDbEntity
  8
TITLE_BLOCK
  6
Continuous
 62
     7
100
AcDbLine
 10
0.8499999999999998
 20
0.2250000000000001
 30
0.0
 11
1.05
 21
0.2250000000000001
 31
0.0
  0
LINE
  5
B4
330
A
100
AcDbEntity
  8
TITLE_BLOCK
  6
Continuous
 62
     7
100
AcDbLine
 10
0.45
 20
0.2749999999999999
 30
0.0
 11
0.65
 21
0.2749999999999999
 31
0.0
  0
LINE
  5
B5
330
A
100
AcDbEntity
  8
TITLE_BLOCK
  6
Continuous
 62
     7
100
AcDbLine
 10
0.45
 20
0.3250000000000001
 30
0.0
 11
0.65
 21
0.3250000000000001
 31
0.0
  0
TEXT
  5
B9
330
A
100
AcDbEntity
  8
TITLE_BLOCK
  6
Continuous
 62
     7
100
AcDbText
 10
1.4625
 20
0.0874999999999999
 30
0.0
 40
0.02
  1
REV.:
 41
0.5
100
AcDbText
  0
TEXT
  5
BA
330
A
100
AcDbEntity
  8
TITLE_BLOCK
  6
Continuous
 62
     7
100
AcDbText
 10
1.062499999999999
 20
0.0874999999999999
 30
0.0
 40
0.02
  1
PART NO.:
 41
0.5
100
AcDbText
  0
TEXT
  5
BB
330
A
100
AcDbEntity
  8
TITLE_BLOCK
  6
Continuous
 62
     7
100
AcDbText
 10
1.062499999999999
 20
0.2624999999999993
 30
0.0
 40
0.02
  1
TITLE:
 41
0.5
100
AcDbText
  0
TEXT
  5
BC
330
A
100
AcDbEntity
  8
TITLE_BLOCK
  6
Continuous
 62
     7
100
AcDbText
 10
1.342696675152356
 20
0.3289410051685566
 30
0.0
 40
0.02
  1
Extruded Components Division
 41
0.5
100
AcDbText
  0
TEXT
  5
BD
330
A
100
AcDbEntity
  8
TITLE_BLOCK
  6
Continuous
 62
     7
100
AcDbText
 10
1.317404283610913
 20
0.3080935327869509
 30
0.0
 40
0.0375
  1
INC
 50
90.00000000000005
 41
0.5
100
AcDbText
  0
TEXT
  5
BE
330
A
100
AcDbEntity
  8
TITLE_BLOCK
  6
Continuous
 62
     7
100
AcDbText
 10
1.074999999999999
 20
0.3125
 30
0.0
 40
0.05
  1
ULTRAFAB
 41
0.5
100
AcDbText
  0
LINE
  5
C0
330
A
100
AcDbEntity
  8
TITLE_BLOCK
  6
Continuous
 62
     7
100
AcDbLine
 10
0.45
 20
0.2250000000000001
 30
0.0
 11
0.8499999999999998
 21
0.2250000000000001
 31
0.0
  0
LINE
  5
C1
330
A
100
AcDbEntity
  8
TITLE_BLOCK
  6
Continuous
 62
     7
100
AcDbLine
 10
0.65
 20
0.375
 30
0.0
 11
0.65
 21
0.225
 31
0.0
  0
LINE
  5
C3
330
A
100
AcDbEntity
  8
TITLE_BLOCK
  6
Continuous
 62
     7
100
AcDbLine
 10
1.449999999999999
 20
0.125
 30
0.0
 11
1.449999999999999
 21
0.0499999999999998
 31
0.0
  0
LINE
  5
C4
330
A
100
AcDbEntity
  8
TITLE_BLOCK
  6
Continuous
 62
     7
100
AcDbLine
 10
1.05
 20
0.125
 30
0.0
 11
1.649999999999999
 21
0.125
 31
0.0
  0
LINE
  5
C5
330
A
100
AcDbEntity
  8
TITLE_BLOCK
  6
Continuous
 62
     7
100
AcDbLine
 10
0.8499999999999998
 20
0.375
 30
0.0
 11
0.85
 21
0.2250000000000001
 31
0.0
  0
LINE
  5
C6
330
A
100
AcDbEntity
  8
TITLE_BLOCK
  6
Continuous
 62
     7
100
AcDbLine
 10
1.05
 20
0.2999999999999998
 30
0.0
 11
1.649999999999999
 21
0.2999999999999998
 31
0.0
  0
LINE
  5
C7
330
A
100
AcDbEntity
  8
TITLE_BLOCK
  6
Continuous
 62
     7
100
AcDbLine
 10
0.05
 20
0.375
 30
0.0
 11
1.649999999999999
 21
0.375
 31
0.0
  0
LINE
  5
C8
330
A
100
AcDbEntity
  8
TITLE_BLOCK
  6
Continuous
 62
     7
100
AcDbLine
 10
0.05
 20
0.0499999999999998
 30
0.0
 11
0.05
 21
2.149999999999999
 31
0.0
  0
LINE
  5
C9
330
A
100
AcDbEntity
  8
TITLE_BLOCK
  6
Continuous
 62
     7
100
AcDbLine
 10
1.649999999999999
 20
0.0499999999999998
 30
0.0
 11
0.05
 21
0.0499999999999998
 31
0.0
  0
LINE
  5
CA
330
A
100
AcDbEntity
  8
TITLE_BLOCK
  6
Continuous
 62
     7
100
AcDbLine
 10
1.649999999999999
 20
2.149999999999999
 30
0.0
 11
1.649999999999999
 21
0.0499999999999998
 31
0.0
  0
LINE
  5
CB
330
A
100
AcDbEntity
  8
TITLE_BLOCK
  6
Continuous
 62
     7
100
AcDbLine
 10
0.05
 20
2.149999999999999
 30
0.0
 11
1.649999999999999
 21
2.149999999999999
 31
0.0
  0
LINE
  5
CC
330
A
100
AcDbEntity
  8
TITLE_BLOCK
  6
Continuous
 62
     7
100
AcDbLine
 10
0.0
 20
0.0
 30
0.0
 11
0.0
 21
2.2
 31
0.0
  0
LINE
  5
CD
330
A
100
AcDbEntity
  8
TITLE_BLOCK
  6
Continuous
 62
     7
100
AcDbLine
 10
1.699999999999999
 20
2.2
 30
0.0
 11
0.0
 21
2.2
 31
0.0
  0
LINE
  5
CE
330
A
100
AcDbEntity
  8
TITLE_BLOCK
  6
Continuous
 62
     7
100
AcDbLine
 10
1.699999999999999
 20
0.0
 30
0.0
 11
0.0
 21
0.0
 31
0.0
  0
LINE
  5
CF
330
A
100
AcDbEntity
  8
TITLE_BLOCK
  6
Continuous
 62
     7
100
AcDbLine
 10
1.699999999999999
 20
2.2
 30
0.0
 11
0.0
 21
2.2
 31
0.0
  0
LINE
  5
D0
330
A
100
AcDbEntity
  8
TITLE_BLOCK
  6
Continuous
 62
     7
100
AcDbLine
 10
1.699999999999999
 20
0.0
 30
0.0
 11
1.699999999999999
 21
2.2
 31
0.0
  0
DIMENSION
  5
D4
330
A
100
AcDbEntity
  8
RIGID
  6
Continuous
 62
     1
100
AcDbDimension
  2
*D2
 10
0.8622028426939804
 20
1.345612799594035
 30
0.0
 11
0.8575658195870499
 21
1.460638632701543
 31
0.0
 70
   160
 71
     5
 42
0.032
 73
     0
 74
     0
 75
     0
  3
DIMSTYLE7
100
AcDbAlignedDimension
 13
0.8720620794087146
 23
1.313612799594035
 33
0.0
 14
0.8720620794087146
 24
1.345612799594035
 34
0.0
 50
90.0
100
AcDbRotatedDimension
1001
ACAD
1000
DSTYLE
1002
{
1070
   284
1070
     4
1070
   272
1070
     3
1070
    47
1040
0.005
1070
   147
1040
0.09
1070
    48
1040
0.005
1070
    72
1070
     0
1070
    71
1070
     1
1070
    78
1070
     4
1070
   271
1070
     3
1070
   279
1070
     2
1002
}
  0
ARC
  5
F1
330
A
100
AcDbEntity
  8
RIGID
  6
Continuous
 62
     5
100
AcDbCircle
 10
0.8173120794087147
 20
1.183112799594035
 30
0.0
 40
0.1305000000000001
100
AcDbArc
 50
90.0
 51
270.0
  0
LINE
  5
F2
330
A
100
AcDbEntity
  8
RIGID
  6
Continuous
 62
     5
100
AcDbLine
 10
0.9288120794087141
 20
1.052612799594035
 30
0.0
 11
0.8173120794087147
 21
1.052612799594035
 31
0.0
  0
LINE
  5
F3
330
A
100
AcDbEntity
  8
RIGID
  6
Continuous
 62
     5
100
AcDbLine
 10
0.9288120794087145
 20
1.313612799594035
 30
0.0
 11
0.8173120794087147
 21
1.313612799594035
 31
0.0
  0
ARC
  5
F5
330
A
100
AcDbEntity
  8
RIGID
  6
Continuous
 62
     6
100
AcDbCircle
 10
1.089948858485896
 20
1.353417918214437
 30
0.0
 40
0.0099029538476858
100
AcDbArc
 50
192.4135490445318
 51
5.134236089287706
  0
LINE
  5
F6
330
A
100
AcDbEntity
  8
RIGID
  6
Continuous
 62
     6
100
AcDbLine
 10
1.099812079408714
 20
1.354304128086355
 30
0.0
 11
1.099812079408714
 21
1.369304128086355
 31
0.0
  0
ARC
  5
F7
330
A
100
AcDbEntity
  8
RIGID
  6
Continuous
 62
     6
100
AcDbCircle
 10
0.9748120794087146
 20
1.355612799594035
 30
0.0
 40
0.035
100
AcDbArc
 50
90.0
 51
180.0
  0
LINE
  5
F9
330
A
100
AcDbEntity
  8
RIGID
  6
Continuous
 62
     6
100
AcDbLine
 10
0.9398120794087144
 20
1.355612799594035
 30
0.0
 11
0.9398120794087141
 21
0.9706127995940352
 31
0.0
  0
LINE
  5
FA
330
A
100
AcDbEntity
  8
RIGID
  6
Continuous
 62
     5
100
AcDbLine
 10
0.927812079408714
 20
1.020612799594035
 30
0.0
 11
0.8253120794087145
 21
1.020612799594035
 31
0.0
  0
ARC
  5
FB
330
A
100
AcDbEntity
  8
RIGID
  6
Continuous
 62
     5
100
AcDbCircle
 10
0.8253120794087145
 20
1.183112799594035
 30
0.0
 40
0.1625
100
AcDbArc
 50
145.0325627533599
 51
270.0
  0
LINE
  5
FC
330
A
100
AcDbEntity
  8
RIGID
  6
Continuous
 62
     5
100
AcDbLine
 10
0.9278120794087145
 20
1.345612799594035
 30
0.0
 11
0.8253120794087145
 21
1.345612799594035
 31
0.0
  0
ARC
  5
FD
330
A
100
AcDbEntity
  8
RIGID
  6
Continuous
 62
     5
100
AcDbCircle
 10
0.8253120794087145
 20
1.183112799594035
 30
0.0
 40
0.1625
100
AcDbArc
 50
90.0
 51
128.8126018379642
  0
LINE
  5
FE
330
A
100
AcDbEntity
  8
RIGID
  6
Continuous
 62
     5
100
AcDbLine
 10
0.576408955757325
 20
1.390602336820069
 30
0.0
 11
0.6894594392147763
 21
1.296361685470835
 31
0.0
  0
LINE
  5
100
330
A
100
AcDbEntity
  8
RIGID
  6
Continuous
 62
     6
100
AcDbLine
 10
0.9748120794087142
 20
0.9706127995940352
 30
0.0
 11
0.9748120794087142
 21
1.164750567735152
 31
0.0
  0
LINE
  5
101
330
A
100
AcDbEntity
  8
RIGID
  6
Continuous
 62
     6
100
AcDbLine
 10
0.9648120794087143
 20
0.9606127995940354
 30
0.0
 11
0.9498120794087141
 21
0.9606127995940354
 31
0.0
  0
ARC
  5
102
330
A
100
AcDbEntity
  8
RIGID
  6
Continuous
 62
     6
100
AcDbCircle
 10
0.9498120794087141
 20
0.9706127995940352
 30
0.0
 40
0.01
100
AcDbArc
 50
180.0
 51
270.0
  0
ARC
  5
103
330
A
100
AcDbEntity
  8
RIGID
  6
Continuous
 62
     6
100
AcDbCircle
 10
0.9648120794087143
 20
0.9706127995940352
 30
0.0
 40
0.01
100
AcDbArc
 50
270.0
 51
0.0
  0
DIMENSION
  5
107
330
A
100
AcDbEntity
  8
RIGID
  6
Continuous
 62
     1
100
AcDbDimension
  2
*D3
 10
0.4892030483382241
 20
1.020612799594035
 30
0.0
 11
0.489203048338224
 21
1.154471618410378
 31
0.0
 70
   160
 71
     5
 42
0.3250000000000002
 73
     0
 74
     0
 75
     0
  3
DIMSTYLE9
100
AcDbAlignedDimension
 13
0.8253120794087145
 23
1.345612799594035
 33
0.0
 14
0.8253120794087145
 24
1.020612799594035
 34
0.0
 50
90.0
100
AcDbRotatedDimension
1001
ACAD
1000
DSTYLE
1002
{
1070
   284
1070
     4
1070
   272
1070
     3
1070
    47
1040
0.015
1070
   147
1040
0.09
1070
    48
1040
0.015
1070
    72
1070
     0
1070
    71
1070
     1
1070
    78
1070
     4
1070
   271
1070
     3
1002
}
  0
DIMENSION
  5
143
330
A
100
AcDbEntity
  8
RIGID
  6
Continuous
 62
     1
100
AcDbDimension
  2
*D4
 10
0.2756450505152233
 20
1.390612799594035
 30
0.0
 11
0.275645050515223
 21
1.150504977749233
 31
0.0
 70
   160
 71
     5
 42
0.4299999999999998
 73
     0
 74
     0
 75
     0
  3
DIMSTYLE13
100
AcDbAlignedDimension
 13
0.9378120794087141
 23
0.9606127995940354
 33
0.0
 14
0.9628120794087147
 24
1.390612799594035
 34
0.0
 50
90.0
100
AcDbRotatedDimension
1001
ACAD
1000
DSTYLE
1002
{
1070
   284
1070
     4
1070
   272
1070
     3
1070
    47
1040
0.02
1070
   147
1040
0.09
1070
    48
1040
0.02
1070
    72
1070
     0
1070
    71
1070
     1
1070
    78
1070
     4
1070
   271
1070
     3
1002
}
  0
LINE
  5
14F
330
A
100
AcDbEntity
  8
RIGID
  6
Continuous
 62
     6
100
AcDbLine
 10
0.9748120794087141
 20
1.355612799594035
 30
0.0
 11
1.080277421128001
 21
1.351289117063152
 31
0.0
  0
LINE
  5
150
330
A
100
AcDbEntity
  8
RIGID
  6
Continuous
 62
     6
100
AcDbLine
 10
1.099812079408714
 20
1.369304128086355
 30
0.0
 11
0.9748120794087141
 21
1.390612799594035
 31
0.0
  0
LINE
  5
151
330
A
100
AcDbEntity
  8
RIGID
  6
Continuous
 62
     6
100
AcDbLine
 10
1.031812079408714
 20
1.267750567735152
 30
0.0
 11
1.031812079408714
 21
1.199750567735152
 31
0.0
  0
LINE
  5
154
330
A
100
AcDbEntity
  8
RIGID
  6
Continuous
 62
     6
100
AcDbLine
 10
1.058812079408714
 20
1.088750567735153
 30
0.0
 11
1.039812079408714
 21
1.088750567735153
 31
0.0
  0
LINE
  5
155
330
A
100
AcDbEntity
  8
RIGID
  6
Continuous
 62
     6
100
AcDbLine
 10
1.058812079408714
 20
1.275750567735152
 30
0.0
 11
1.039812079408714
 21
1.275750567735152
 31
0.0
  0
LINE
  5
156
330
A
100
AcDbEntity
  8
RIGID
  6
Continuous
 62
     6
100
AcDbLine
 10
1.066812079408714
 20
1.267750567735152
 30
0.0
 11
1.066812079408714
 21
1.096750567735152
 31
0.0
  0
LINE
  5
157
330
A
100
AcDbEntity
  8
RIGID
  6
Continuous
 62
     6
100
AcDbLine
 10
1.031812079408714
 20
1.164750567735152
 30
0.0
 11
1.031812079408714
 21
1.096750567735152
 31
0.0
  0
ARC
  5
158
330
A
100
AcDbEntity
  8
RIGID
  6
Continuous
 62
     6
100
AcDbCircle
 10
1.039812079408714
 20
1.096750567735153
 30
0.0
 40
0.008
100
AcDbArc
 50
180.0
 51
270.0
  0
ARC
  5
159
330
A
100
AcDbEntity
  8
RIGID
  6
Continuous
 62
     6
100
AcDbCircle
 10
1.058812079408714
 20
1.096750567735153
 30
0.0
 40
0.008
100
AcDbArc
 50
270.0
 51
0.0
  0
ARC
  5
15A
330
A
100
AcDbEntity
  8
RIGID
  6
Continuous
 62
     6
100
AcDbCircle
 10
1.058812079408714
 20
1.267750567735152
 30
0.0
 40
0.008
100
AcDbArc
 50
0.0
 51
90.0
  0
ARC
  5
15B
330
A
100
AcDbEntity
  8
RIGID
  6
Continuous
 62
     6
100
AcDbCircle
 10
1.039812079408714
 20
1.267750567735152
 30
0.0
 40
0.008
100
AcDbArc
 50
90.0
 51
180.0
  0
LINE
  5
1B2
330
A
100
AcDbEntity
  8
TITLE_BLOCK
  6
Continuous
 62
     7
100
AcDbLine
 10
0.45
 20
0.125
 30
0.0
 11
0.05
 21
0.125
 31
0.0
  0
MTEXT
  5
1B9
330
A
100
AcDbEntity
  8
0
  6
Continuous
 62
     2
100
AcDbMText
 10
0.4534073368823774
 20
0.2165717028957009
 30
0.0
 40
0.0125
 41
0.5919304978000001
 46
0.0
 71
     1
 72
     5
  3
{\Fisocp.shx;\C7;NOTICE OF CONFIDENTIAL INFORMATION:  INFORMATION CONTAINED HEREIN IS CONFIDENTIAL AND PROPRIETARY IN NATURE AND SHALL AT ALL TIMES REMAIN THE PROPERTY OF ULTRAFAB, INC. 1050 HOOK ROAD FARMINGTON NY 14425.  BY REVIEWING THE CONTENTS O
  1
F THIS DOCUMENT, YOU HEREBY AGREE TO ALL THE TERMS AND CONDITIONS SET FORTH ABOVE.}
 73
     1
 44
1.0
  0
LINE
  5
1F3
330
A
100
AcDbEntity
  8
0
  6
Continuous
 62
     6
100
AcDbLine
 10
0.9748120794087142
 20
1.199750567735152
 30
0.0
 11
0.9748120794087141
 21
1.355612799594035
 31
0.0
  0
DIMENSION
  5
313
330
A
100
AcDbEntity
  8
0
  6
Continuous
 62
     1
100
AcDbDimension
  2
*D5
 10
1.099812079408714
 20
1.583246824684469
 30
0.0
 11
1.242899051182913
 21
1.586203545662217
 31
0.0
 70
   160
 71
     5
 42
0.1250000000000001
 73
     0
 74
     0
 75
     0
  3
DIMSTYLE1
100
AcDbAlignedDimension
 13
0.9748120794087141
 23
1.300151599137287
 33
0.0
 14
1.099812079408714
 24
1.35430412808635
 34
0.0
100
AcDbRotatedDimension
1001
ACAD
1000
DSTYLE
1002
{
1070
    47
1040
0.01
1070
    48
1040
0.01
1070
    71
1070
     1
1070
    78
1070
     4
1070
   271
1070
     3
1070
   272
1070
     3
1070
   279
1070
     2
1070
   284
1070
     4
1002
}
  0
MTEXT
  5
8E7
330
A
100
AcDbEntity
  8
0
  6
Continuous
 62
     1
100
AcDbMText
 10
1.168809517657551
 20
0.85057324089715
 30
0.0
 40
0.025
 41
0.074357657129978
 46
0.0
 71
     1
 72
     5
  1
TYP
 73
     1
 44
1.0
  0
MTEXT
  5
8F4
330
A
100
AcDbEntity
  8
0
  6
Continuous
 62
     1
100
AcDbMText
 10
0.8273713106449793
 20
1.432252847903253
 30
0.0
 40
0.025
 41
0.0830975148989914
 46
0.0
 71
     1
 72
     5
  1
TYP
 73
     1
 44
1.0
  0
DIMENSION
  5
99C
330
A
100
AcDbEntity
  8
RIGID
  6
Continuous
 62
     1
100
AcDbDimension
  2
*D6
 10
0.6628120794087146
 20
0.6416059920486097
 30
0.0
 11
0.8188120794087144
 21
0.6038590009825838
 31
0.0
 70
   160
 71
     5
 42
0.3119999999999997
 73
     0
 74
     0
 75
     0
  3
DIMSTYLE11
100
AcDbAlignedDimension
 13
0.9748120794087142
 23
0.9706127995940352
 33
0.0
 14
0.6628120794087146
 24
0.9706127995940352
 34
0.0
100
AcDbRotatedDimension
1001
ACAD
1000
DSTYLE
1002
{
1070
   147
1040
0.09
1070
    72
1070
     0
1070
    47
1040
0.015
1070
    48
1040
0.015
1070
    71
1070
     1
1070
    78
1070
     4
1070
   271
1070
     3
1070
   272
1070
     3
1070
   279
1070
     2
1070
   284
1070
     4
1002
}
  0
DIMENSION
  5
9AB
330
A
100
AcDbEntity
  8
RIGID
  6
Continuous
 62
     1
100
AcDbDimension
  2
*D7
 10
0.6868120794087146
 20
0.8021787887150217
 30
0.0
 11
0.8325519029256085
 21
0.8021787887150217
 31
0.0
 70
   160
 71
     5
 42
0.024
 73
     0
 74
     0
 75
     0
  3
DIMSTYLE11
100
AcDbAlignedDimension
 13
0.6628120794087146
 23
1.183112799594035
 33
0.0
 14
0.6868120794087146
 24
1.183112799594035
 34
0.0
100
AcDbRotatedDimension
1001
ACAD
1000
DSTYLE
1002
{
1070
   147
1040
0.09
1070
    72
1070
     0
1070
    47
1040
0.004
1070
    48
1040
0.004
1070
    71
1070
     1
1070
    78
1070
     4
1070
   271
1070
     3
1070
   272
1070
     3
1070
   279
1070
     2
1070
   284
1070
     4
1002
}
  0
LINE
  5
9D7
330
A
100
AcDbEntity
  8
RIGID
  6
Continuous
 62
     6
100
AcDbLine
 10
0.9748120794087142
 20
1.164750567735152
 30
0.0
 11
1.031812079408714
 21
1.164750567735152
 31
0.0
  0
LINE
  5
9D8
330
A
100
AcDbEntity
  8
RIGID
  6
Continuous
 62
     6
100
AcDbLine
 10
0.9748120794087142
 20
1.199750567735152
 30
0.0
 11
1.031812079408714
 21
1.199750567735152
 31
0.0
  0
DIMENSION
  5
9D9
330
A
100
AcDbEntity
  8
DIMENSIONS
  6
Continuous
 62
     1
100
AcDbDimension
  2
*D8
 10
1.031812079408714
 20
0.9932747208916339
 30
0.0
 11
1.25722874607538
 21
0.9932747208916339
 31
0.0
 70
   160
 71
     5
 42
0.057
 73
     0
 74
     0
 75
     0
  3
DIMSTYLE3
100
AcDbAlignedDimension
 13
0.9748120794087142
 23
1.164750567735152
 33
0.0
 14
1.031812079408714
 24
1.164750567735152
 34
0.0
100
AcDbRotatedDimension
1001
ACAD
1000
DSTYLE
1002
{
1070
   147
1040
0.09
1070
    72
1070
     0
1070
    47
1040
0.005
1070
    48
1040
0.005
1070
    71
1070
     1
1070
    78
1070
     4
1070
   271
1070
     3
1070
   272
1070
     3
1070
   284
1070
     4
1002
}
  0
DIMENSION
  5
B79
330
A
100
AcDbEntity
  8
0
  6
Continuous
 62
     1
100
AcDbDimension
  2
*D9
 10
1.179995594501081
 20
1.390612799594035
 30
0.0
 11
1.300021595167688
 21
1.366079334035956
 31
0.0
 70
   160
 71
     5
 42
0.0469999999999999
 73
     0
 74
     0
 75
     0
  3
DIMSTYLE1
100
AcDbAlignedDimension
 13
1.025312079408714
 23
1.343612799594035
 33
0.0
 14
1.025312079408714
 24
1.390612799594035
 34
0.0
 50
270.0
100
AcDbRotatedDimension
1001
ACAD
1000
DSTYLE
1002
{
1070
   147
1040
0.09
1070
    72
1070
     0
1070
    47
1040
0.005
1070
    48
1040
0.005
1070
    71
1070
     1
1070
    78
1070
     4
1070
   271
1070
     3
1070
   272
1070
     3
1070
   279
1070
     2
1070
   284
1070
     4
1002
}
  0
LINE
  5
BA9
330
A
100
AcDbEntity
  8
RIGID
  6
Continuous
 62
     5
100
AcDbLine
 10
0.9278120794087145
 20
1.345612799594035
 30
0.0
 11
0.9398120794087144
 21
1.345612799594035
 31
0.0
  0
LINE
  5
BAA
330
A
100
AcDbEntity
  8
RIGID
  6
Continuous
 62
     5
100
AcDbLine
 10
0.9288120794087145
 20
1.313612799594035
 30
0.0
 11
0.9398120794087144
 21
1.313612799594035
 31
0.0
  0
LINE
  5
BAB
330
A
100
AcDbEntity
  8
RIGID
  6
Continuous
 62
     5
100
AcDbLine
 10
0.9288120794087141
 20
1.052612799594035
 30
0.0
 11
0.9398120794087143
 21
1.052612799594035
 31
0.0
  0
LINE
  5
BAC
330
A
100
AcDbEntity
  8
RIGID
  6
Continuous
 62
     5
100
AcDbLine
 10
0.927812079408714
 20
1.020612799594035
 30
0.0
 11
0.9398120794087143
 21
1.020612799594035
 31
0.0
  0
DIMENSION
  5
BAD
330
A
100
AcDbEntity
  8
0
  6
Continuous
 62
     1
100
AcDbDimension
  2
*D10
 10
0.9748120794087146
 20
1.646062662541925
 30
0.0
 11
0.7738120794087147
 21
1.644390905922644
 31
0.0
 70
   160
 71
     5
 42
0.4020000000000001
 73
     0
 74
     0
 75
     0
  3
DIMSTYLE1
100
AcDbAlignedDimension
 13
0.5728120794087147
 23
1.355612799594035
 33
0.0
 14
0.9748120794087146
 24
1.355612799594035
 34
0.0
100
AcDbRotatedDimension
1001
ACAD
1000
DSTYLE
1002
{
1070
   147
1040
0.09
1070
    72
1070
     0
1070
    47
1040
0.02
1070
    48
1040
0.02
1070
    71
1070
     1
1070
    78
1070
     4
1070
   271
1070
     3
1070
   272
1070
     3
1070
   279
1070
     2
1070
   284
1070
     4
1002
}
  0
DIMENSION
  5
C71
330
A
100
AcDbEntity
  8
RIGID
  6
Continuous
 62
     1
100
AcDbDimension
  2
*D11
 10
0.9398120794087141
 20
0.8800307316198905
 30
0.0
 11
1.20022874607538
 21
0.8800307316198905
 31
0.0
 70
   160
 71
     5
 42
0.0350000000000002
 73
     0
 74
     0
 75
     0
  3
DIMSTYLE9
100
AcDbAlignedDimension
 13
0.9748120794087142
 23
0.9706127995940352
 33
0.0
 14
0.9398120794087141
 24
0.9706127995940352
 34
0.0
100
AcDbRotatedDimension
1001
ACAD
1000
DSTYLE
1002
{
1070
    47
1040
0.005
1070
    48
1040
0.005
1070
    71
1070
     1
1070
    78
1070
     4
1070
   271
1070
     3
1070
   272
1070
     3
1070
   284
1070
     4
1002
}
  0
VIEWPORT
  5
D9B
330
B
100
AcDbEntity
 67
     1
  8
0
  6
Continuous
 62
     1
100
AcDbViewport
 10
4.00003054318953
 20
5.250160239113216
 30
0.0
 40
18.46710855136238
 41
10.61711554334436
 68
     1
 69
     1
 12
4.00003054318953
 22
5.250160239113216
 13
0.0
 23
0.0
 14
0.5
 24
0.5
 15
0.5
 25
0.5
 16
0.0
 26
0.0
 36
1.0
 17
0.0
 27
0.0
 37
0.0
 42
50.0
 43
0.0
 44
0.0
 45
10.61711554334436
 50
0.0
 51
0.0
 72
   100
 90
   819232
  1

281
     0
 71
     1
 74
     0
110
0.0
120
0.0
130
0.0
111
1.0
121
0.0
131
0.0
112
0.0
122
1.0
132
0.0
 79
     0
146
0.0
170
     0
 61
     5
348
D88
292
     1
282
     1
141
0.0
142
0.0
 63
   250
421
  3355443
  0
VIEWPORT
  5
DA8
330
B
100
AcDbEntity
 67
     1
  8
0
  6
Continuous
 62
     1
100
AcDbViewport
 10
3.999999874441861
 20
5.249999882653359
 30
0.0
 40
7.972484990850475
 41
10.49996656877921
 68
     2
 69
     2
 12
0.8500000039581207
 22
1.100000005122273
 13
0.0
 23
0.0
 14
1.0
 24
1.0
 15
0.0
 25
0.0
 16
0.0
 26
0.0
 36
1.0
 17
0.0
 27
0.0
 37
0.0
 42
50.0
 43
0.0
 44
0.0
 45
2.275389526202184
 50
0.0
 51
0.0
 72
   100
 90
   819232
  1

281
     0
 71
     1
 74
     0
110
0.0
120
0.0
130
0.0
111
1.0
121
0.0
131
0.0
112
0.0
122
1.0
132
0.0
 79
     0
146
0.0
170
     0
 61
     5
348
D88
292
     1
282
     1
141
0.0
142
0.0
 63
   250
421
  3355443
  0
ENDSEC
  0
SECTION
  2
OBJECTS
  0
DICTIONARY
  5
19
330
0
100
AcDbDictionary
281
     1
  3
ACAD_COLOR
350
1CD
  3
ACAD_GROUP
350
1A
  3
ACAD_LAYOUT
350
161
  3
ACAD_MATERIAL
350
1CC
  3
ACAD_MLINESTYLE
350
1B
  3
ACAD_PLOTSETTINGS
350
162
  3
ACAD_PLOTSTYLENAME
350
15F
  3
ACAD_TABLESTYLE
350
1CE
  3
ACAD_VISUALSTYLE
350
D82
  3
AcDbVariableDictionary
350
1BB
  3
ASE_INDEX_DICTIONARY
350
DBC
  0
DICTIONARY
  5
DAC
330
2
100
AcDbDictionary
280
     1
281
     1
  3
ACAD_LAYERSTATES
360
DAD
  0
DICTIONARY
  5
1CD
102
{ACAD_REACTORS
330
19
102
}
330
19
100
AcDbDictionary
281
     1
  0
DICTIONARY
  5
1A
102
{ACAD_REACTORS
330
19
102
}
330
19
100
AcDbDictionary
281
     1
  0
DICTIONARY
  5
161
102
{ACAD_REACTORS
330
19
102
}
330
19
100
AcDbDictionary
281
     1
  3
Layout1
350
164
  3
Model
350
163
  0
DICTIONARY
  5
1CC
102
{ACAD_REACTORS
330
19
102
}
330
19
100
AcDbDictionary
281
     1
  3
ByBlock
350
D80
  3
ByLayer
350
D7F
  3
Global
350
D81
  0
DICTIONARY
  5
1B
102
{ACAD_REACTORS
330
19
102
}
330
19
100
AcDbDictionary
281
     1
  3
STANDARD
350
1C
  0
DICTIONARY
  5
162
102
{ACAD_REACTORS
330
19
102
}
330
19
100
AcDbDictionary
281
     1
  0
ACDBDICTIONARYWDFLT
  5
15F
102
{ACAD_REACTORS
330
19
102
}
330
19
100
AcDbDictionary
281
     1
  3
Normal
350
160
100
AcDbDictionaryWithDefault
340
160
  0
DICTIONARY
  5
1CE
102
{ACAD_REACTORS
330
19
102
}
330
19
100
AcDbDictionary
281
     1
  3
Standard
350
1CF
  0
DICTIONARY
  5
D82
102
{ACAD_REACTORS
330
19
102
}
330
19
100
AcDbDictionary
281
     1
  3
2dWireframe
350
D88
  3
3D Hidden
350
D8A
  3
3dWireframe
350
D89
  3
Basic
350
D87
  3
Brighten
350
D8E
  3
ColorChange
350
D92
  3
Conceptual
350
D8B
  3
Dim
350
D8D
  3
Facepattern
350
D91
  3
Flat
350
D83
  3
FlatWithEdges
350
D84
  3
Gouraud
350
D85
  3
GouraudWithEdges
350
D86
  3
Linepattern
350
D90
  3
Realistic
350
D8C
  3
Thicken
350
D8F
  0
DICTIONARY
  5
1BB
102
{ACAD_REACTORS
330
19
102
}
330
19
100
AcDbDictionary
281
     1
  3
CTABLESTYLE
350
2EF
  3
DIMASSOC
350
1BC
  0
DICTIONARY
  5
DBC
102
{ACAD_REACTORS
330
19
102
}
330
19
100
AcDbDictionary
281
     1
  3
ASEBlockHierarchyIndexRecord
350
DBD
1001
DCO15
1040
1608369472.022
  0
DICTIONARY
  5
DAD
102
{ACAD_REACTORS
330
DAC
102
}
330
DAC
100
AcDbDictionary
281
     1
  0
LAYOUT
  5
164
102
{ACAD_XDICTIONARY
360
DAF
102
}
102
{ACAD_REACTORS
330
161
102
}
330
161
100
AcDbPlotSettings
  1

  2
none_device
  4
Letter_(8.50_x_11.00_Inches)
  6

 40
6.349999904632568
 41
6.349999904632568
 42
6.350006103515625
 43
6.350006103515625
 44
215.8999938964844
 45
279.3999938964844
 46
0.0
 47
0.0
 48
0.0
 49
0.0
140
0.0
141
0.0
142
1.0
143
1.0
 70
   688
 72
     0
 73
     0
 74
     5
  7

 75
    16
147
1.0
 76
     0
 77
     2
 78
   300
148
0.0
149
0.0
100
AcDbLayout
  1
Layout1
 70
     0
 71
     1
 10
-0.2499999962453767
 20
-0.2499999962453767
 11
8.249999763458733
 21
10.74999976345873
 12
0.0
 22
0.0
 32
0.0
 14
0.0137573790166243
 24
0.0000165982637554
 34
0.0
 15
7.986242369867099
 25
10.49998316704296
 35
0.0
146
0.0
 13
0.0
 23
0.0
 33
0.0
 16
1.0
 26
0.0
 36
0.0
 17
0.0
 27
1.0
 37
0.0
 76
     0
330
B
331
D9B
1001
ACAD_PSEXT
1000
None
1000
None
1000
Not applicable
1000
The layout will not be plotted unless a new plotter configuration name is selected.
1070
     0
  0
LAYOUT
  5
163
102
{ACAD_REACTORS
330
161
102
}
330
161
100
AcDbPlotSettings
  1

  2
HP LaserJet 4V
  4
Letter
  6

 40
5.873749732971191
 41
10.95374488830566
 42
10.53041076660156
 43
13.49374389648437
 44
215.8999938964844
 45
279.3999938964844
 46
1.27
 47
0.0
 48
0.0
 49
0.0
140
0.0
141
0.0
142
1.0
143
0.2191914553655895
 70
 11956
 72
     0
 73
     0
 74
     1
  7

 75
     0
147
4.56222163556558
 76
     0
 77
     2
 78
   300
148
0.0013176484886974
149
0.0017051921618556
100
AcDbLayout
  1
Model
 70
     1
 71
     0
 10
0.0
 20
0.0
 11
12.0
 21
9.0
 12
0.0
 22
0.0
 32
0.0
 14
0.0
 24
0.0
 34
0.0
 15
0.0
 25
0.0
 35
0.0
146
0.0
 13
0.0
 23
0.0
 33
0.0
 16
1.0
 26
0.0
 36
0.0
 17
0.0
 27
1.0
 37
0.0
 76
     0
330
A
  0
MATERIAL
  5
D80
102
{ACAD_REACTORS
330
1CC
102
}
330
1CC
100
AcDbMaterial
  1
ByBlock
  0
MATERIAL
  5
D7F
102
{ACAD_REACTORS
330
1CC
102
}
330
1CC
100
AcDbMaterial
  1
ByLayer
  0
MATERIAL
  5
D81
102
{ACAD_REACTORS
330
1CC
102
}
330
1CC
100
AcDbMaterial
  1
Global
  0
MLINESTYLE
  5
1C
102
{ACAD_REACTORS
330
1B
102
}
330
1B
100
AcDbMlineStyle
  2
STANDARD
 70
     0
  3

 62
     0
 51
90.00000000000019
 52
90.00000000000019
 71
     2
 49
0.5
 62
   256
  6
BYLAYER
 49
-0.5
 62
   256
  6
BYLAYER
  0
ACDBPLACEHOLDER
  5
160
102
{ACAD_REACTORS
330
15F
102
}
330
15F
  0
TABLESTYLE
  5
1CF
102
{ACAD_REACTORS
330
1CE
102
}
330
1CE
100
AcDbTableStyle
  3
Standard
 70
     0
 71
     0
 40
0.06
 41
0.06
280
     0
281
     0
  7
STANDARD
140
0.18
170
     2
 62
     0
 63
     7
283
     0
 90
        4
 91
        0
  1

274
    -2
284
     1
 64
     0
275
    -2
285
     1
 65
     0
276
    -2
286
     1
 66
     0
277
    -2
287
     1
 67
     0
278
    -2
288
     1
 68
     0
279
    -2
289
     1
 69
     0
  7
STANDARD
140
0.25
170
     5
 62
     0
 63
     7
283
     0
 90
        4
 91
        0
  1

274
    -2
284
     1
 64
     0
275
    -2
285
     1
 65
     0
276
    -2
286
     1
 66
     0
277
    -2
287
     1
 67
     0
278
    -2
288
     1
 68
     0
279
    -2
289
     1
 69
     0
  7
STANDARD
140
0.18
170
     5
 62
     0
 63
     7
283
     0
 90
        4
 91
        0
  1

274
    -2
284
     1
 64
     0
275
    -2
285
     1
 65
     0
276
    -2
286
     1
 66
     0
277
    -2
287
     1
 67
     0
278
    -2
288
     1
 68
     0
279
    -2
289
     1
 69
     0
  0
VISUALSTYLE
  5
D88
102
{ACAD_REACTORS
330
D82
102
}
330
D82
100
AcDbVisualStyle
  2
2dWireframe
 70
     4
 71
     0
 72
     2
 73
     0
 90
        0
 40
-0.6
 41
-30.0
 62
     5
 63
     7
421
 16777215
 74
     1
 91
        4
 64
     7
 65
   257
 75
     1
175
     1
 42
1.0
 92
        0
 66
   257
 43
1.0
 76
     1
 77
     6
 78
     2
 67
     7
 79
     5
170
     0
171
     0
290
     0
174
     0
 93
        1
 44
0.0
173
     0
291
     0
 45
0.0
  0
VISUALSTYLE
  5
D8A
102
{ACAD_REACTORS
330
D82
102
}
330
D82
100
AcDbVisualStyle
  2
3D Hidden
 70
     6
 71
     1
 72
     2
 73
     2
 90
        0
 40
-0.6
 41
-30.0
 62
     5
 63
     7
421
 16777215
 74
     2
 91
        2
 64
     7
 65
   257
 75
     2
175
     1
 42
40.0
 92
        0
 66
   257
 43
1.0
 76
     1
 77
     6
 78
     2
 67
     7
 79
     3
170
     0
171
     0
290
     0
174
     0
 93
        1
 44
0.0
173
     0
291
     0
 45
0.0
  0
VISUALSTYLE
  5
D89
102
{ACAD_REACTORS
330
D82
102
}
330
D82
100
AcDbVisualStyle
  2
3dWireframe
 70
     5
 71
     0
 72
     2
 73
     0
 90
        0
 40
-0.6
 41
-30.0
 62
     5
 63
     7
421
 16777215
 74
     1
 91
        4
 64
     7
 65
   257
 75
     1
175
     1
 42
1.0
 92
        0
 66
   257
 43
1.0
 76
     1
 77
     6
 78
     2
 67
     7
 79
     5
170
     0
171
     0
290
     0
174
     0
 93
        1
 44
0.0
173
     0
291
     0
 45
0.0
  0
VISUALSTYLE
  5
D87
102
{ACAD_REACTORS
330
D82
102
}
330
D82
100
AcDbVisualStyle
  2
Basic
 70
     7
 71
     1
 72
     0
 73
     1
 90
        0
 40
-0.6
 41
-30.0
 62
     5
 63
     7
421
 16777215
 74
     0
 91
        4
 64
     7
 65
   257
 75
     1
175
     1
 42
1.0
 92
        8
 66
     7
 43
1.0
 76
     1
 77
     6
 78
     2
 67
     7
 79
     5
170
     0
171
     0
290
     0
174
     0
 93
        1
 44
0.0
173
     0
291
     1
 45
0.0
  0
VISUALSTYLE
  5
D8E
102
{ACAD_REACTORS
330
D82
102
}
330
D82
100
AcDbVisualStyle
  2
Brighten
 70
    12
 71
     2
 72
     2
 73
     0
 90
        0
 40
-0.6
 41
-30.0
 62
     5
 63
     7
421
 16777215
 74
     1
 91
        4
 64
     7
 65
   257
 75
     1
175
     1
 42
1.0
 92
        8
 66
     7
 43
1.0
 76
     1
 77
     6
 78
     2
 67
     7
 79
     5
170
     0
171
     0
290
     0
174
     0
 93
        1
 44
50.0
173
     0
291
     1
 45
0.0
  0
VISUALSTYLE
  5
D92
102
{ACAD_REACTORS
330
D82
102
}
330
D82
100
AcDbVisualStyle
  2
ColorChange
 70
    16
 71
     2
 72
     2
 73
     3
 90
        0
 40
-0.6
 41
-30.0
 62
     5
 63
     8
421
  8421504
 74
     1
 91
        4
 64
     7
 65
   257
 75
     1
175
     1
 42
1.0
 92
        8
 66
     8
424
  8421504
 43
1.0
 76
     1
 77
     6
 78
     2
 67
     7
 79
     5
170
     0
171
     0
290
     0
174
     0
 93
        1
 44
0.0
173
     0
291
     1
 45
0.0
  0
VISUALSTYLE
  5
D8B
102
{ACAD_REACTORS
330
D82
102
}
330
D82
100
AcDbVisualStyle
  2
Conceptual
 70
     9
 71
     3
 72
     2
 73
     0
 90
        0
 40
-0.6
 41
-30.0
 62
     5
 63
     7
421
 16777215
 74
     2
 91
        2
 64
     7
 65
   257
 75
     1
175
     1
 42
40.0
 92
        8
 66
     7
 43
1.0
 76
     1
 77
     6
 78
     2
 67
     7
 79
     3
170
     0
171
     0
290
     0
174
     0
 93
        1
 44
0.0
173
     0
291
     0
 45
0.0
  0
VISUALSTYLE
  5
D8D
102
{ACAD_REACTORS
330
D82
102
}
330
D82
100
AcDbVisualStyle
  2
Dim
 70
    11
 71
     2
 72
     2
 73
     0
 90
        0
 40
-0.6
 41
-30.0
 62
     5
 63
     7
421
 16777215
 74
     1
 91
        4
 64
     7
 65
   257
 75
     1
175
     1
 42
1.0
 92
        8
 66
     7
 43
1.0
 76
     1
 77
     6
 78
     2
 67
     7
 79
     5
170
     0
171
     0
290
     0
174
     0
 93
        1
 44
-50.0
173
     0
291
     1
 45
0.0
  0
VISUALSTYLE
  5
D91
102
{ACAD_REACTORS
330
D82
102
}
330
D82
100
AcDbVisualStyle
  2
Facepattern
 70
    15
 71
     2
 72
     2
 73
     0
 90
        0
 40
-0.6
 41
-30.0
 62
     5
 63
     7
421
 16777215
 74
     1
 91
        4
 64
     7
 65
   257
 75
     1
175
     1
 42
1.0
 92
        8
 66
     7
 43
1.0
 76
     1
 77
     6
 78
     2
 67
     7
 79
     5
170
     0
171
     0
290
     0
174
     0
 93
        1
 44
0.0
173
     0
291
     1
 45
0.0
  0
VISUALSTYLE
  5
D83
102
{ACAD_REACTORS
330
D82
102
}
330
D82
100
AcDbVisualStyle
  2
Flat
 70
     0
 71
     2
 72
     1
 73
     1
 90
        2
 40
-0.6
 41
30.0
 62
     5
 63
     7
421
 16777215
 74
     0
 91
        4
 64
     7
 65
   257
 75
     1
175
     1
 42
1.0
 92
        8
 66
     7
 43
1.0
 76
     1
 77
     6
 78
     2
 67
     7
 79
     5
170
     0
171
     0
290
     0
174
     0
 93
       13
 44
0.0
173
     0
291
     1
 45
0.0
  0
VISUALSTYLE
  5
D84
102
{ACAD_REACTORS
330
D82
102
}
330
D82
100
AcDbVisualStyle
  2
FlatWithEdges
 70
     1
 71
     2
 72
     1
 73
     1
 90
        2
 40
-0.6
 41
30.0
 62
     5
 63
     7
421
 16777215
 74
     1
 91
        4
 64
     7
 65
   257
 75
     1
175
     1
 42
1.0
 92
        0
 66
   257
 43
1.0
 76
     1
 77
     6
 78
     2
 67
     7
 79
     5
170
     0
171
     0
290
     0
174
     0
 93
       13
 44
0.0
173
     0
291
     1
 45
0.0
  0
VISUALSTYLE
  5
D85
102
{ACAD_REACTORS
330
D82
102
}
330
D82
100
AcDbVisualStyle
  2
Gouraud
 70
     2
 71
     2
 72
     2
 73
     1
 90
        2
 40
-0.6
 41
30.0
 62
     5
 63
     7
421
 16777215
 74
     0
 91
        4
 64
     7
 65
   257
 75
     1
175
     1
 42
1.0
 92
        0
 66
     7
 43
1.0
 76
     1
 77
     6
 78
     2
 67
     7
 79
     5
170
     0
171
     0
290
     0
174
     0
 93
       13
 44
0.0
173
     0
291
     1
 45
0.0
  0
VISUALSTYLE
  5
D86
102
{ACAD_REACTORS
330
D82
102
}
330
D82
100
AcDbVisualStyle
  2
GouraudWithEdges
 70
     3
 71
     2
 72
     2
 73
     1
 90
        2
 40
-0.6
 41
30.0
 62
     5
 63
     7
421
 16777215
 74
     1
 91
        4
 64
     7
 65
   257
 75
     1
175
     1
 42
1.0
 92
        0
 66
   257
 43
1.0
 76
     1
 77
     6
 78
     2
 67
     7
 79
     5
170
     0
171
     0
290
     0
174
     0
 93
       13
 44
0.0
173
     0
291
     1
 45
0.0
  0
VISUALSTYLE
  5
D90
102
{ACAD_REACTORS
330
D82
102
}
330
D82
100
AcDbVisualStyle
  2
Linepattern
 70
    14
 71
     2
 72
     2
 73
     0
 90
        0
 40
-0.6
 41
-30.0
 62
     5
 63
     7
421
 16777215
 74
     1
 91
        4
 64
     7
 65
   257
 75
     7
175
     7
 42
1.0
 92
        8
 66
     7
 43
1.0
 76
     1
 77
     6
 78
     2
 67
     7
 79
     5
170
     0
171
     0
290
     0
174
     0
 93
        1
 44
0.0
173
     0
291
     1
 45
0.0
  0
VISUALSTYLE
  5
D8C
102
{ACAD_REACTORS
330
D82
102
}
330
D82
100
AcDbVisualStyle
  2
Realistic
 70
     8
 71
     2
 72
     2
 73
     0
 90
        0
 40
-0.6
 41
-30.0
 62
     5
 63
     7
421
 16777215
 74
     1
 91
        0
 64
     7
 65
   257
 75
     1
175
     1
 42
1.0
 92
        8
 66
     8
424
  7895160
 43
1.0
 76
     1
 77
     6
 78
     2
 67
     7
 79
     5
170
     0
171
     0
290
     0
174
     0
 93
       13
 44
0.0
173
     0
291
     0
 45
0.0
  0
VISUALSTYLE
  5
D8F
102
{ACAD_REACTORS
330
D82
102
}
330
D82
100
AcDbVisualStyle
  2
Thicken
 70
    13
 71
     2
 72
     2
 73
     0
 90
        0
 40
-0.6
 41
-30.0
 62
     5
 63
     7
421
 16777215
 74
     1
 91
        4
 64
     7
 65
   257
 75
     1
175
     1
 42
1.0
 92
       12
 66
     7
 43
1.0
 76
     1
 77
     6
 78
     2
 67
     7
 79
     5
170
     0
171
     0
290
     0
174
     0
 93
        1
 44
0.0
173
     0
291
     1
 45
0.0
  0
DICTIONARYVAR
  5
2EF
102
{ACAD_REACTORS
330
1BB
102
}
330
1BB
100
DictionaryVariables
280
     0
  1
STANDARD
  0
DICTIONARYVAR
  5
1BC
102
{ACAD_REACTORS
330
1BB
102
}
330
1BB
100
DictionaryVariables
280
     0
  1
1
  0
XRECORD
  5
DBD
102
{ACAD_REACTORS
330
DBC
102
}
330
DBC
100
AcDbXrecord
280
     1
  0
DICTIONARY
  5
DAF
330
164
100
AcDbDictionary
280
     1
281
     1
  3
ADSK_XREC_LAYOUTTHUMBNAIL
360
DB0
  0
XRECORD
  5
DB0
102
{ACAD_REACTORS
330
DAF
102
}
330
DAF
100
AcDbXrecord
280
     1
310
280000006B0000008C0000000100080000000000103B000000000000000000000001000000000000FFFFFF0000000000FFFFFF000000000000000000000000000000000000000000000000000000000000000000330000006600000099000000CC000000FF00000000330000333300006633000099330000CC330000FF3300
310
0000660000336600006666000099660000CC660000FF66000000990000339900006699000099990000CC990000FF99000000CC000033CC000066CC000099CC0000CCCC0000FFCC000000FF000033FF000066FF000099FF0000CCFF0000FFFF000000003300330033006600330099003300CC003300FF003300003333003333
310
33006633330099333300CC333300FF33330000663300336633006666330099663300CC663300FF66330000993300339933006699330099993300CC993300FF99330000CC330033CC330066CC330099CC3300CCCC3300FFCC330000FF330033FF330066FF330099FF3300CCFF3300FFFF330000006600330066006600660099
310
006600CC006600FF00660000336600333366006633660099336600CC336600FF33660000666600336666006666660099666600CC666600FF66660000996600339966006699660099996600CC996600FF99660000CC660033CC660066CC660099CC6600CCCC6600FFCC660000FF660033FF660066FF660099FF6600CCFF6600
310
FFFF660000009900330099006600990099009900CC009900FF00990000339900333399006633990099339900CC339900FF33990000669900336699006666990099669900CC669900FF66990000999900339999006699990099999900CC999900FF99990000CC990033CC990066CC990099CC9900CCCC9900FFCC990000FF99
310
0033FF990066FF990099FF9900CCFF9900FFFF99000000CC003300CC006600CC009900CC00CC00CC00FF00CC000033CC003333CC006633CC009933CC00CC33CC00FF33CC000066CC003366CC006666CC009966CC00CC66CC00FF66CC000099CC003399CC006699CC009999CC00CC99CC00FF99CC0000CCCC0033CCCC0066CC
310
CC0099CCCC00CCCCCC00FFCCCC0000FFCC0033FFCC0066FFCC0099FFCC00CCFFCC00FFFFCC000000FF003300FF006600FF009900FF00CC00FF00FF00FF000033FF003333FF006633FF009933FF00CC33FF00FF33FF000066FF003366FF006666FF009966FF00CC66FF00FF66FF000099FF003399FF006699FF009999FF00CC
310
99FF00FF99FF0000CCFF0033CCFF0066CCFF0099CCFF00CCCCFF00FFCCFF0000FFFF0033FFFF0066FFFF0099FFFF00CCFFFF00FFFFFF00000000000D0D0D001A1A1A00282828003535350043434300505050005D5D5D006B6B6B00787878008686860093939300A1A1A100AEAEAE00BBBBBB00C9C9C900D6D6D600E4E4E400
310
F1F1F100FFFFFF0000000000000000000000000000000000000000000000000000000000000000000000000000000000E2E2E2E2E2E2E2E2E2E2E2E2E2E2E2E2E2E2E2E2E2E2E2E2E2E2E2E2E2E2E2E2E2E2E2E2E2E2E2E2E2E2E2E2E2E2E2E2E2E2E2E2E2E2E2E2E2E2E2E2E2E2E2E2E2E2E2E2E2E2E2E2E2E2E2E2E2E2E2
310
E2E2E2E2E2E2E2E2E2E2E2E2E2E2E2E2E2E2E2E2E2E2E2E2E2E2E2E200E2F5F5F5F5F5F5F5F5F5F5F5F5F5F5F5F5F5F5F5F5F5F5F5F5F5F5F5F5F5F5F5F5F5F5F5F5F5F5F5F5F5F5F5F5F5F5F5F5F5F5F5F5F5F5F5F5F5F5F5F5F5F5F5F5F5F5F5F5F5F5F5F5F5F5F5F5F5F5F5F5F5F5F5F5F5F5F5F5F5F5F5F5F5F5F5F5F5
310
F5F5F5F5F5F5F5F5E200E2F5F5F5F5F5F5F5F5F5F5F5F5F5F5F5F5F5F5F5F5F5F5F5F5F5F5F5F5F5F5F5F5F5F5F5F5F5F5F5F5F5F5F5F5F5F5F5F5F5F5F5F5F5F5F5F5F5F5F5F5F5F5F5F5F5F5F5F5F5F5F5F5F5F5F5F5F5F5F5F5F5F5F5F5F5F5F5F5F5F5F5F5F5F5F5F5F5F5F5F5F5F5F5F5F5E233E2F5F5F5F5F5F5F5F5
310
F5F5F5F5F5F5F5F5F5F5F5F5F5F5F5F5F5F5F5F5F5F5F5F5F5F5F5F5F5F5F5F5F5F5F5F5F5F5F5F5F5F5F5F5F5F5F5F5F5F5F5F5F5F5F5F5F5F5F5F5F5F5F5F5F5F5F5F5F5F5F5F5F5F5F5F5F5F5F5F5F5F5F5F5F5F5F5F5F5F5F5F5F5F5F5F5F5E201E2F5F5BEBEBEBEBEBEBEBEBEBEBEBEBEBEBEBEBEBEBEBEBEBEBEBEBE
310
BEBEBEBEBEBEBEBEBEBEBEBEBEBEBEBEBEBEBEBEBEBEBEBEBEBEBEBEBEBEBEBEBEBEBEBEBEBEBEBEBEBEBEBEBEBEBEBEBEBEBEBEBEBEBEBEBEBEBEBEBEBEBEBEBEBEBEBEBEBEBEBEBEBEBEBEF5F5E200E2F5F5BEF5F5F5F5F5F5F5F5F5F5F5F5F5F5F5F5F5F5F5F5F5F5F5F5F5F5F5F5F5F5F5F5F5F5F5F5F5F5F5F5F5F5F5
310
F5F5F5F5F5F5F5F5F5F5F5F5F5F5F5F5F5F5F5F5F5F5F5F5F5F5F5F5F5F5F5F5F5F5F5F5F5F5F5F5F5F5F5F5F5F5F5F5F5F5F5F5F5F5F5F5BEF5F5E200E2F5F5BEE2E2E2E2E2E2E2E2E2E2E2E2E2E2E2E2E2E2E2E2E2E2E2E2E2E2E2E2E2E2E2E2E2E2E2E2E2E2E2E2E2E2E2E2E2E2E2E2E2E2E2E2E2E2E2E2E2E2E2E2E2E2
310
E2E2E2E2E2E2E2E2E2E2E2E2E2E2E2E2E2E2E2E2E2E2E2E2E2E2E2E2E2E2E2E2E2E2E2E2E2BEF5F5E233E2F5F5BEE2F5F5F5F5F5F5F5F5F5F5F5F5F5F5F5F5F5F5F5F5F5F5F5F5F5F5F5F5F5F5F5F5F5F5F5F5F5F5F5F5F5F5F5F5F5F5F5F5F5F5F5F5F5F5F5F5F5F5F5F5F5F5F5F5F5F5F5F5F5F5F5F5F5F5F5F5F5F5F5F5
310
F5F5F5F5F5F5F5F5F5F5F5F5F5F5F5F5F5E2BEF5F5E200E2F5F5BEE2F5F5F5F5F5F5F5F5F5F5F5F5F5F5F5F5F5F5F5F5F5F5F5F5F5F5F5F5F5F5F5F5F5F5F5F5F5F5F5F5F5F5F5F5F5F5F5F5F5F5F5F5F5F5F5F5F5F5F5F5F5F5F5F5F5F5F5F5F5F5F5F5F5F5F5F5F5F5F5F5F5F5F5F5F5F5F5F5F5F5F5F5F5F5F5F5F5E2BE
310
F5F5E27EE2F5F5BEE2F5E2E2E2E2E2E2E2E2E2E2E2E2E2E2E2E2E2E2E2E2E2E2E2E2E2E2E2E2E2E2E2E2E2E2E2E2E2E2E2E2E2E2E2E2E2E2E2E2E2E2E2E2E2E2E2E2E2E2E2E2E2E2E2E2E2E2E2E2E2E2E2E2E2E2E2E2E2E2E2E2E2E2E2E2E2E2E2E2E2E2E2E2E2E2E2F5E2BEF5F5E233E2F5F5BEE2F5E2F5F5F5F5F5F5F5F5
310
F5F5F5F5F5F5F5F5F5F5F5F5F5F5F5E2F5F5F5F5F5F5F5F5F5F5F5F5F5F5F5F5F5F5F5F5F5F5F5F5F5F5F5F5F5F5F5F5F5F5E2F5F5F5F5F5F5E2E2E2E2E2F5F5F5F5F5F5F5F5F5F5F5E2F5F5F5F5F5F5F5F5F5F5F5E2F5E2BEF5F5E200E2F5F5BEE2F5E2F5F5F5F5F5F5F5F5F5F5F5F5F5F5F5F5F5F5F5F5F5F5F5E2F5F5F5
310
F5F5F5F5F5F5F5F5F5F5F5F5F5F5F5F5F5F5F5F5F5F5F5F5F5F5F5F5F5F5F5E2E2E2E2E2E2F5E2E2E2E2E2F5F5F5F5F5F5F5F5F5F5F5E2E2E2E2F5F5F5F5F5F5F5F5E2F5E2BEF5F5E200E2F5F5BEE2F5E2F5F5F5F5F5F5F5F5F5F5F5F5F5F5F5F5F5F5F5F5F5F5F5E2F5F5F5F5F5F5F5F5F5F5F5F5F5F5F5F5F5F5F5F5F5F5
310
F5F5F5F5F5F5F5F5F5F5F5F5E2E2E2E2E2E2F5E2E2E2E2E2F5F5F5F5F5F5F5F5F5F5F5E2E2E2E2F5F5F5F5F5F5F5F5E2F5E2BEF5F5E200E2F5F5BEE2F5E2E2E2E2E2E2E2E2E2E2E2E2E2E2E2E2E2E2E2E2E2E2E2E2E2E2E2E2E2E2E2E2E2E2E2E2E2E2E2E2E2E2E2E2E2E2F5F5F5F5F5F5F5F5F5F5F5F5F5E2E2E2E2E2E2E2
310
E2E2E2E2E2E2E2E2E2E2E2E2E2E2E2E2E2E2E2E2E2E2E2E2E2E2E2E2E2F5E2BEF5F5E200E2F5F5BEE2F5E2F5F5F5F5F5F5F5F5F5F5F5F5F5F5F5F5F5F5F5F5F5F5F5E2E2E2E2E2E2E2E2E2E2E2E2E2E2E2E2E2E2E2E2E2E2E2E2E2E2E2E2E2E2E2E2E2E2E2E2F5F5F5F5F5F5E2E2E2E2F5E2E2E2E2E2E2E2E2F5F5F5F5F5F5
310
F5F5F5F5F5F5F5F5F5E2F5E2BEF5F5E200E2F5F5BEE2F5E2F5E2E2E2E2E2E2E2E2E2E2E2E2E2E2E2E2E2E2E2E2E2F5E2E2E2E2E2E2E2E2E2E2E2E2E2E2E2E2E2E2E2E2E2E2E2E2E2E2E2E2E2E2E2E2E2E2F5E2F5F5F5F5F5F5E2E2E2E2F5E2E2E2E2E2E2E2E2F5F5F5F5F5F5F5F5F5F5F5F5F5F5F5E2F5E2BEF5F5E200E2F5
310
F5BEE2F5E2F5F5F5F5F5F5F5F5F5F5F5F5F5F5F5F5F5F5F5F5F5F5F5E2E2E2E2E2E2E2E2E2E2E2E2E2E2E2E2E2E2E2E2E2E2E2E2E2E2E2E2E2E2E2E2E2E2E2E2F5F5F5F5F5F5E2E2E2E2E2E2E2E2E2E2E2E2E2F5F5F5F5F5F5F5F5F5F5F5F5F5F5F5E2F5E2BEF5F5E200E2F5F5BEE2F5E2F5F5F5F5F5F5F5F5F5F5F5F5F5F5
310
F5F5F5F5F5F5F5F5F5E2E2E2E2E2E2E2E2E2E2E2E2E2E2E2E2E2E2E2E2E2E2E2E2E2E2E2E2E2E2E2E2E2E2E2E2F5F5F5F5F5E2E2E2F5E2E2E2E2E2E2E2F5E2F5E2E2E2E2F5F5F5F5F5F5F5F5F5F5F5E2F5E2BEF5F5E200E2F5F5BEE2F5E2F5F5F5F5F5F5F5F5F5F5F5F5F5F5F5F5F5F5F5F5F5F5F5E2E2E2E2E2E2E2E2E2E2
310
E2E2E2E2E2E2E2E2E2E2E2E2E2E2E2E2E2E2E2E2E2E2E2F5F5E2F5F5F5F5F5E2E2F5E2E2E2E2E2E2E2E2F5E2E2E2E2E2E2F5F5F5F5F5F5F5F5F5F5F5E2F5E2BEF5F5E200E2F5F5BEE2F5E2E2E2E2E2F5F5F5F5F5F5F5F5F5F5F5F5F5F5F5F5F5F5F5E2E2E2E2E2E2E2E2E2E2E2E2E2E2E2E2E2E2E2E2E2E2E2E2E2E2E2E2E2
310
E2E2E2E2E2E2E2F5F5F5F5F5E2E2E2E2E2E2E2E2E2E2E2F5E2F5E2E2E2E2E2F5F5F5F5F5F5F5F5F5F5E2F5E2BEF5F5E200E2F5F5BEE2F5E2E2E2E2E2F5F5F5F5F5F5F5F5F5F5F5F5F5F5F5F5F5F5F5E2E2E2F5E2E2E2E2E2F5F5E2F5F5F5F5F5F5F5F5F5F5F5E2F5F5F5F5F5F5F5F5F5F5F5E2F5F5F5F5F5F5F5F5F5F5F5F5
310
F5F5F5F5F5F5F5F5F5F5F5F5F5F5F5F5F5F5F5F5F5F5E2F5E2BEF5F5E200E2F5F5BEE2F5E2F5E2E2E2E2E2E2E2E2E2E2E2E2E2E2E2E2E2E2E2E2E2F5E2E2E2F5E2F5E2E2E2F5F5E2F5F5F5F5F5F5F5F5F5F5F5E2F5F5F5F5F5F5F5F5F5F5F5E2E2E2E2F5F5E2E2E2E2E2E2E2E2E2E2E2E2E2E2E2E2F5F5F5F5F5F5F5F5F5F5
310
F5F5F5E2F5E2BEF5F5E200E2F5F5BEE2F5E2F5F5F5F5F5F5F5F5F5F5F5F5F5F5F5F5F5F5F5F5F5F5F5E2E2E2E2E2E2E2E2E2E2E2E2F5F5F5F5F5F5F5F5F5F5F5E2F5F5F5F5F5F5F5F5F5F5F5E2E2E2E2F5F5E2E2E2E2E2E2E2E2E2E2E2E2E2E2F5E2F5F5F5F5F5F5F5F5F5F5F5F5F5E2F5E2BEF5F5E2CDE2F5F5BEE2F5E2F5
310
F5F5F5F5F5F5F5F5F5F5F5F5F5F5F5F5F5F5F5F5F5F5E2E2E2F5E2E2F5F5F5F5F5E2F5F5F5F5F5F5F5F5F5F5F5E2F5F5F5F5F5F5F5F5F5F5F5E2E2E2E2E2E2E2E2E2E2E2E2E2E2E2E2E2E2E2E2E2E2E2E2E2E2E2E2E2E2E2E2E2E2E2E2F5E2BEF5F5E200E2F5F5BEE2F5E2F5F5F5F5F5F5F5F5F5F5F5F5F5F5F5F5F5F5F5F5
310
F5F5F5E2E2E2F5E2F5F5F5F5F5F5E2F5E2E2E2E2E2E2E2E2E2F5E2E2E2E2E2E2E2E2E2E2E2E2E2E2E2E2E2E2E2E2E2F5E2E2E2E2E2E2F5F5F5F5F5F5F5F5E2F5F5F5F5F5F5F5F5F5F5E2F5E2BEF5F5E2CDE2F5F5BEE2F5E2E2E2E2E2E2E2E2E2E2E2E2F5F5F5F5F5F5F5F5F5F5F5F5E2E2E2E2E2E2E2E2E2E2E2E2F5E2E2E2
310
E2E2E2E2E2E2F5E2E2E2E2E2E2E2E2E2E2E2E2E2E2E2E2E2E2E2E2E2E2E2E2E2E2E2E2F5E2E2E2E2E2E2E2E2E2E2E2E2E2E2E2E2F5F5E2F5E2BEF5F5E200E2F5F5BEE2F5E2E2E2E2E2E2E2E2E2E2E2E2F5F5F5F5F5F5F5F5F5F5F5F5E2E2E2F5E2E2F5F5F5F5F5E2E2E2E2E2F5F5F5F5F5F5F5E2E2E2E2F5F5F5F5F5F5F5F5
310
E2E2E2E2E2E2E2E2E2F5E2E2E2E2F5E2F5E2E2E2E2E2E2E2E2E2E2E2E2E2E2E2E2F5F5E2F5E2BEF5F5E2CDE2F5F5BEE2F5E2E2E2E2E2E2E2E2E2E2E2E2E2E2E2E2E2E2E2E2E2E2E2E2E2E2E2E2E2E2E2E2E2E2E2E2E2E2E2E2E2E2E2E2E2E2E2E2E2E2E2E2E2E2E2E2E2E2E2E2E2E2E2E2E2E2E2E2E2E2E2E2E2E2E2E2E2E2
310
E2E2E2E2E2E2E2E2E2E2E2E2E2E2E2E2E2F5E2BEF5F5E200E2F5F5BEE2F5E2F5F5F5F5F5F5F5F5F5F5F5F5F5F5F5F5F5F5F5F5F5F5F5F5F5F5F5F5F5F5F5F5F5F5F5F5F5F5F5F5F5F5F5F5F5F5F5F5F5F5F5F5F5F5F5F5F5F5F5F5F5F5F5F5F5F5F5F5F5F5F5F5F5F5F5F5F5F5F5F5F5F5F5F5F5F5F5F5F5F5F5F5F5E2F5E2
310
BEF5F5E2CDE2F5F5BEE2F5E2F5F5F5F5F5F5F5F5F5F5F5F5F5F5F5F5F5F5F5F5F5F5F5F5F5F5F5F5F5F5F5F5F5F5F5F5F5F5F5F5F5F5F5F5F5F5F5F5F5F5F5F5F5F5F5F5F5F5F5F5F5F5F5F5F5F5F5F5F5F5F5F5F5F5F5F5F5F5F5F5F5F5F5F5F5F5F5F5F5F5F5F5F5E2F5E2BEF5F5E200E2F5F5BEE2F5E2F5F5F5F5F5F5F5
310
F5F5F5F5F5F5F5F5F5F5F5F5F5F5F5F5F5F5F5F5F5F5F5F5F5F5F5F5F5F5F5F5F5F5F5F5F5F5F5F5F5F5F5F5F5F5F5F5F5F5F5F5F5F5F5F5F5F5F5F5F5F5F5F5F5F5F5F5F5F5F5F5F5F5F5F5F5F5F5F5F5F5F5F5F5F5E2F5E2BEF5F5E2CDE2F5F5BEE2F5E2F5F5F5F5F5F5F5F5F5F5F5F5F5F5F5F5F5F5F5F5F5F5F5F5F5F5
310
F5F5F5F5F5F5F5F5F5F5F5F5F5F5F5F5F5F5F5F5F5F5F5F5F5F5F5F5F5F5F5F5F5F5F5F5F5F5F5F5F5F5F5F5F5F5F5F5F5F5F5F5F5F5F5F5F5F5F5F5F5F5F5F5F5F5F5E2F5E2BEF5F5E200E2F5F5BEE2F5E2F5F5F5F5F5F5F5F5F5F5F5F5F5F5F5F5F5F5F5F5F5F5F5F5F5F5F5F5F5F5F5F5F5F5F5F5F5F5F5F5F5F5F5F5F5
310
F5F5F5F5F5F5F5F5F5F5F5F5F5F5F5F5F5F5F5F5F5F5F5F5F5F5F5F5F5F5F5F5F5F5F5F5F5F5F5F5F5F5F5F5F5F5F5F5E2F5E2BEF5F5E2CDE2F5F5BEE2F5E2F5F5F5F5F5F5F5F5F5F5F5F5F5F5F5F5F5F5F5F5F5F5F5F5F5F5F5F5F5F5F5F5F5F5F5F5F5F5F5F5F5F5F5F5F5F5F5F5F5F5F5F5F5F5F5F5F5F5F5F5F5F5F5F5
310
F5F5F5F5F5F5F5F5F5F5F5F5F5F5F5F5F5F5F5F5F5F5F5F5F5F5F5F5F5E2F5E2BEF5F5E200E2F5F5BEE2F5E2F5F5F5F5F5F5F5F5F5F5F5F5F5F5F5F5F5F5F5F5F5F5F5F5F5F5F5F5F5F5F5F5F5F5F5F5F5F5F5F5F5F5F5F5F5F5F5F5F5F5F5F5F5F5F5F5F5F5F5F5F5F5F5F5F5F5F5F5F5F5F5F5F5F5F5F5F5F5F5F5F5F5F5
310
F5F5F5F5F5F5F5F5F5F5E2F5E2BEF5F5E2CDE2F5F5BEE2F5E2F5F5F5F5F5F5F5F5F5F5F5F5F5F5F5F5F5F5F5F5F5F5F5F5F5F5F5F5F5F5F5F5F5F5F5F5F5F5F5F5F5F5F5F5F5F5F5F5F5F5F5F5F5F5F5F5F5F5F5F5F5F5F5F5F5F5F5F5F5F5F5F5F5F5F5F5F5F5F5F5F5F5F5F5F5F5F5F5F5F5F5F5F5E2F5E2BEF5F5E200E2
310
F5F5BEE2F5E2F5F5F5F5F5F5F5F5F5F5F5F5F5F5F5F5F5F5F5F5F5F5F5F5F5F5F5F5F5F5F5F5F5F5F5F5F5F5F5F5F5F5F5F5F5F5F5F5F5F5F5F5F5F5F5F5F5F5F5F5F5F5F5F5F5F5F5F5F5F5F5F5F5F5F5F5F5F5F5F5F5F5F5F5F5F5F5F5F5F5F5F5F5E2F5E2BEF5F5E2CDE2F5F5BEE2F5E2F5F5F5F5F5F5F5F5F5F5F5F5F5
310
F5F5F5F5F5F5F5F5F5F5F5F5F5F5F5F5F5F5F5F5F5F5F5F5F5F5F5F5F5F5F5F5F5F5F5F5F5F5F5F5F5F5F5F5F5F5F5F5F5F5F5F5F5F5F5F5F5F5F5F5F5F5F5F5F5F5F5F5F5F5F5F5F5F5F5F5F5F5F5F5E2F5E2BEF5F5E200E2F5F5BEE2F5E2F5F5F5F5F5F5F5F5F5F5F5F5F5F5F5F5F5F5F5F5F5F5F5F5F5F5F5F5F5F5F5F5
310
F5F5F5F5F5F5F5F5F5F5F5F5F5F5F5F5F5F5F5F5F5F5F5F5F5F5F5F5F5F5F5F5F5F5F5F5F5F5F5F5F5F5F5F5F5F5F5F5F5F5F5F5F5F5F5F5F5F5F5F5F5E2F5E2BEF5F5E2CDE2F5F5BEE2F5E2F5F5F5F5F5F5F5F5F5F5F5F5F5F5F5F5F5F5F5F5F5F5F5F5F5F5F5F5F5F5F5F5F5F5F5F5F5F5F5F5F5F5F5F5F5F5F5F5F5F5F5
310
F5F5F5F5F5F5F5F5F5F5F5F5F5F5F5F5F5F5F5F5F5F5F5F5F5F5F5F5F5F5F5F5F5F5F5F5F5F5F5F5F5F5E2F5E2BEF5F5E200E2F5F5BEE2F5E2F5F5F5F5F5F5F5F5F5F5F5F5F5F5F5F5F5F5F5F5F5F5F5F5F5F5F5F5F5F5F5F5F5F5F5F5F5F5F5BEBEBEBEBEBEBEBEBEBEBEF5F5F5F5F5F5F5F5F5F5F5F5F5F5F5F5F5F5F5F5
310
F5F5F5F5F5F5F5F5F5F5F5F5F5F5F5F5F5F5F5F5F5F5F5E2F5E2BEF5F5E2CDE2F5F5BEE2F5E2F5F5F5F5F5F5F5F5F5F5F5F5F5F5F5F5F5F5F5F5F5F5F5F5F5F5F5F5F5F5F5F5F5F5F5BEF5F5F5F5BEBEBEBEBEBEBEBEBEBEF5F5F5BEF5F5F5F5F5F5F5F5F5F5F5F5F5F5F5F5F5F5F5F5F5F5F5F5F5F5F5F5F5F5F5F5F5F5F5
310
F5F5F5F5E2F5E2BEF5F5E200E2F5F5BEE2F5E2F5F5F5F5F5F5F5F5F5F5F5F5F5F5F5F5F5F5F5F5F5F5F5F5F5F5F5F5F5F5F5F5F5F5F5BEF5BEF5F5F5F5F5F5F5F5F5F5F5F5F5F5BEBEF5F5F5F5F5F5F5F5F5F5F5F5F5F5F5F5F5F5F5F5F5F5F5F5F5F5F5F5F5F5F5F5F5F5F5F5F5F5F5E2F5E2BEF5F5E2CDE2F5F5BEE2F5E2
310
F5F5F5F5F5F5F5F5F5F5F5F5F5F5F5F5F5F5F5F5F5F5F5F5F5F5F5F5F5F5F5F5F5F5F5BEBEBEBEBEBEBEBEBEBEBEBEBEBEBEBEBEBEBEF5F5F5F5F5F5F5F5F5F5F5F5F5F5F5F5F5F5F5F5F5F5F5F5F5F5F5F5F5F5F5F5F5F5F5F5F5F5F5E2F5E2BEF5F5E200E2F5F5BEE2F5E2F5F5F5F5F5F5F5F5F5F5F5F5F5F5F5F5F5F5F5
310
F5F5F5F5F5F5F5F5F5F5F5F5F5F5F5F5BEF5F5F5F5F5F5F5F5F5F5F5F5F5F5F5F5F5BEF5F5F5F5F5F5F5F5F5F5F5F5F5F5F5F5F5F5F5F5F5F5F5F5F5F5F5F5F5F5F5F5F5F5F5F5F5F5F5E2F5E2BEF5F5E2CDE2F5F5BEE2F5E2F5F5F5F5F5F5F5F5F5F5F5F5F5F5F5F5F5F5F5F5F5F5F5F5F5F5F5F5F5F5F5F5F5F5F5BEF5F5
310
F5F5F5F5F5F5F5F5F5F5F5F5F5F5F5BEF5F5F5F5F5F5F5F5F5F5F5F5F5F5F5F5F5F5F5F5F5F5F5F5F5F5F5F5F5F5F5F5F5F5F5F5F5F5F5E2F5E2BEF5F5E200E2F5F5BEE2F5E2F5F5F5F5F5F5F5F5F5F5F5F5F5F5F5F5F5F5F5F5F5F5F5F5F5F5F5F5F5F5F5F5F5F5F5BEF5F5F5F5F5F5F5F5F5F5F5F5F5F5F5F5F5BEF5F5F5
310
F5F5F5F5F5F5F5F5F5F5F5F5F5F5F5F5F5F5F5F5F5F5F5F5F5F5F5F5F5F5F5F5F5F5F5F5E2F5E2BEF5F5E2CDE2F5F5BEE2F5E2F5F5F5F5F5F5F5F5F5F5F5F5F5F5F5F5F5F5F5F5F5F5F5F5F5F5F5F5F5F5F5F5F5F5F5BEF5F5F5F5F5F5F5F5F5F5F5F5F5F5F5F5F5BEF5F5F5F5F5F5F5F5F5F5F5F5F5F5F5F5F5F5F5F5F5F5
310
F5F5F5F5F5F5F5F5F5F5F5F5F5F5F5F5F5E2F5E2BEF5F5E200E2F5F5BEE2F5E2F5F5F5F5F5F5F5F5F5F5F5F5F5F5F5F5F5F5F5F5F5F5F5F5F5F5F5F5F5F5F5F5F5F5F5BEF5F5F5F5F5F5F5F5F5F5F5F5F5F5F5F5F5BEF5F5F5F5F5F5F5F5F5F5F5F5F5F5F5F5F5F5F5F5F5F5F5F5F5F5F5F5F5F5F5F5F5F5F5F5F5F5F5E2F5
310
E2BEF5F5E2CDE2F5F5BEE2F5E2F5F5F5F5F5F5F5F5F5F5F5F5F5F5F5F5F5F5F5F5F5F5F5F5F5F5F5F5F5F5F5F5F5F5F5BEF5F5F5F5F5F5F5F5F5F5F5F5F5F5F5F5F5BEF5F5F5F5F5F5F5F5F5F5F5F5F5F5F5F5F5F5F5F5F5F5F5F5F5F5F5F5F5F5F5F5F5F5F5F5F5F5F5E2F5E2BEF5F5E200E2F5F5BEE2F5E2F5F5F5F5F5F5
310
F5F5F5F5F5F5F5F5F5F5F5F5F5F5F5F5F5F5F5F5F5F5F5F5F5F5F5F5F5BEF5BEF5F5F5F5F5F5F5F5F5F5F5F5F5F5F5BEF5F5F5F5F5F5F5F5F5F5F5F5F5F5F5F5F5F5F5F5F5F5F5F5F5F5F5F5F5F5F5F5F5F5F5F5F5F5F5E2F5E2BEF5F5E2CDE2F5F5BEE2F5E2F5F5F5F5F5F5F5F5F5F5F5F5F5F5F5F5F5F5F5F5F5F5F5F5F5
310
F5F5F5F5F5F5F5F5F5F5BEF5BEF5F5BEBEBEBEBEBEBEBEBEBEBEF5F5BEF5F5F5F5F5F5F5F5F5F5F5F5F5F5F5F5F5F5F5F5F5F5F5F5F5F5F5F5F5F5F5F5F5F5F5F5F5F5F5E2F5E2BEF5F5E200E2F5F5BEE2F5E2F5F5F5F5F5F5F5F5F5F5F5F5F5F5F5F5F5F5F5F5F5F5F5F5F5F5F5F5F5F5F5F5BEBEBEBEF5BEBEBEBEBEBEBE
310
BEBEBEBEBEBEBEF5F5BEF5F5F5F5F5F5F5F5F5F5F5F5F5F5F5F5F5F5F5F5F5F5F5F5F5F5F5F5F5F5F5F5F5F5F5F5F5F5F5E2F5E2BEF5F5E2CDE2F5F5BEE2F5E2F5F5F5F5F5F5F5F5F5F5F5F5F5F5F5F5F5F5F5F5F5F5F5F5F5F5F5F5F5F5F5F5F5F5F5BEF5BEF5F5F5BEBEF5BEBEF5BEBEF5BEF5F5BEF5F5F5F5F5F5F5F5F5
310
F5F5BEBEBEF5F5F5F5F5F5F5F5F5F5F5F5F5F5F5F5F5F5F5F5F5F5F5F5F5E2F5E2BEF5F5E200E2F5F5BEE2F5E2F5F5F5F5F5F5F5F5F5F5F5F5F5F5F5F5F5F5F5F5F5F5F5F5F5F5F5F5F5F5F5F5F5F5F5BEF5BEF5F5F5F5F5F5F5F5F5F5F5F5F5F5F5BEF5F5F5F5F5F5F5F5F5F5F5BEBEBEBEF5F5F5F5F5F5F5F5F5F5F5F5F5
310
F5F5F5F5F5F5F5F5F5F5F5E2F5E2BEF5F5E2CDE2F5F5BEE2F5E2F5F5F5F5F5F5F5F5F5F5F5F5F5F5F5F5F5F5F5F5F5F5F5F5F5F5F5F5F5F5F5F5F5F5F5BEF5BEF5F5F5F5F5F5F5F5F5F5F5F5F5BEF5BEF5F5F5F5F5F5F5F5F5F5F5BEBEBEBEF5F5F5F5F5F5F5F5F5F5F5F5F5F5F5F5F5F5F5F5F5F5F5F5E2F5E2BEF5F5E200
310
E2F5F5BEE2F5E2F5F5F5F5F5F5F5F5F5F5F5F5F5F5F5F5F5F5F5F5F5F5F5F5F5F5F5F5F5F5F5F5F5F5F5BEF5BEF5F5F5F5F5F5F5F5F5F5BEBEBEBEF5BEBEBEBEF5F5F5F5BEBEBEBEBEBEBEBEBEBEBEF5F5F5F5F5F5F5F5F5F5F5F5F5F5F5F5F5F5F5F5F5E2F5E2BEF5F5E2CDE2F5F5BEE2F5E2F5F5F5F5F5F5F5F5F5F5F5F5
310
F5F5F5F5F5F5F5F5F5F5F5F5F5F5F5F5F5F5F5F5F5F5F5BEF5BEF5F5F5F5F5F5F5F5F5F5F5F5BEBEF5BEBEBEF5F5F5F5F5F5BEBEBEBEBEBEBEBEBEBEF5F5F5F5F5F5F5F5F5F5F5F5F5F5F5F5F5F5F5F5F5E2F5E2BEF5F5E200E2F5F5BEE2F5E2F5F5F5F5F5F5F5F5F5F5F5F5F5F5F5F5F5F5F5F5F5F5F5F5F5F5F5F5F5F5F5
310
F5F5F5F5BEF5BEF5F5F5F5F5F5F5F5F5F5F5F5F5BEF5BEF5F5F5F5F5F5F5F5F5F5F5F5F5F5F5F5F5F5F5F5F5F5F5F5F5F5F5F5F5F5F5F5F5F5F5F5F5F5F5E2F5E2BEF5F5E2CDE2F5F5BEE2F5E2F5F5F5F5F5F5F5F5F5F5F5F5F5F5F5F5F5F5F5F5F5F5F5F5F5F5F5F5F5F5F5F5F5F5F5BEF5BEF5F5F5F5F5F5F5F5F5F5F5F5
310
F5F5F5F5F5F5F5F5F5F5F5F5F5F5F5F5F5F5F5F5F5F5F5F5F5F5F5F5F5F5F5F5F5F5F5F5F5F5F5F5F5F5F5E2F5E2BEF5F5E200E2F5F5BEE2F5E2F5F5F5F5F5F5F5F5F5F5F5F5F5F5F5F5F5F5F5F5F5F5F5F5F5F5F5F5F5F5F5F5F5F5F5BEF5BEF5F5F5F5F5F5F5F5F5F5F5F5F5F5F5F5F5F5F5F5F5F5F5F5F5F5F5F5F5F5F5
310
F5F5F5F5F5F5F5F5F5F5F5F5F5F5F5F5F5F5F5F5F5F5F5F5E2F5E2BEF5F5E200E2F5F5BEE2F5E2F5F5F5F5F5F5F5F5F5F5F5BEBEBEBEBEBEBEBEBEBEBEBEBEBEBEBEBEBEBEBEBEBEBEBEBEBEBEBEBEBEBEBEBEBEBEBEBEF5F5F5BEC3BEF5F5F5BEF5F5F5F5F5F5F5F5F5F5F5F5F5F5F5F5F5F5F5F5F5F5F5F5F5F5F5F5F5F5
310
F5F5F5F5F5E2F5E2BEF5F5E200E2F5F5BEE2F5E2F5F5F5F5F5F5F5F5F5F5F5F5BEBEF5F5F5F5F5F5F5F5F5F5F5F5F5F5F5F5F5F5F5F5F5BEF5BEF5F5F5F5F5F5F5F5F5F5F5F5F5BEF5BEF5F5F5BEF5F5F5F5F5F5F5BEBEBEBEBEBEBEBEBEBEBEF5F5F5F5F5F5F5F5F5F5F5F5F5F5F5F5F5E2F5E2BEF5F5E2CDE2F5F5BEE2F5
310
E2F5F5F5F5F5F5F5F5F5F5F5F5F5BEF5F5F5F5F5F5F5F5F5F5F5F5F5F5F5F5F5F5F5F5F5BEF5BEF5F5F5F5F5F5F5F5F5F5F5F5BEBEBEBEF5F5F5BEBEBEF5F5F5F5F5BEBEBEF5BEBEBEBEBEBEBEF5F5F5F5F5F5F5F5F5F5F5F5F5F5F5F5F5E2F5E2BEF5F5E200E2F5F5BEE2F5E2F5F5F5F5F5F5F5F5F5F5F5F5F5BEF5F5F5F5
310
F5F5F5F5F5F5BEBEBEBEBEBEBEBEBEBEBEBEBEBEBEBEBEBEF5F50FBE0F0F0F0F0F0FF5BEF5F5F5BEF5F5F5F5F5F5F5BEBEBEBEBEBEF5BEBEBEBEF5F5F5F5F5F5F5F5F5F5F5F5F5F5F5F5F5E2F5E2BEF5F5E2CDE2F5F5BEE2F5E2F5F5F5F5F5F5F5F5F5F5F5F5F5BEF5F5F5F5F5F5F5F5F5F5F5BEF5F5F5F5F5F5F5F5F5BEF5
310
BEF5F5F50F0F0FF5F5F5F5F5F5F5C3F5BEF5F5F5BEF5F5F5F5F5F5F5F5F5F5F5F5F5F5F5F5F5F5F5F5F5F5BEF5F5F5F5F5F5F5F5F5F5F5F5E2F5E2BEF5F5E200E2F5F5BEE2F5E2F5F5F5F5F5F5F5F5F5F5F5F5F5BEF5F5F5F5F5F5F5F5F5F5F5BEF5F5F5F5F5F5F5F5F5BEF5BEF50F0FF5F50F0F0F0F0F0F0F0F0FF5BEF5F5
310
F5BEF5F5F5F5F5F5F5F5F5F5F5F5F5F5F5F5F5F5F5F5F5F5BEF5F5F5F5F5F5F5F5F5F5F5F5E2F5E2BEF5F5E2CDE2F5F5BEE2F5E2F5F5F5F5F5F5F5F5F5F5F5F5F5F5F5F5F5F5F5F5F5F5F5F5F5F5F5F5F5F5F5F5F5F5F5BEF5BE0FF5F50F0FF5F5F5F5F5F5F5F5C3F5BEF5F5F5BEF5F5F5F5F5F5F5F5F5F5F5F5F5F5F5F5F5
310
F5F5F5F5F5BEBEF5F5F5F5F5F5F5F5F5F5F5E2F5E2BEF5F5E200E2F5F5BEE2F5E2F5F5F5F5F5F5F5F5F5F5F5F5F5F5F5F5F5F5F5F5F5F5F5F5F5F5F5F5F5F5F5F5F5F5F5BEF5BEF50F0FF5F5F5F5F5F5F5F5F5F5C3F5BEF5F5F5BEC3F5F5F5BEBEBEBEBEBEBEBEBEBEBEBEBEBEBEBEBEBEBEBEBEF5F5F5F5F5F5F5F5F5F5E2
310
F5E2BEF5F5E2CDE2F5F5BEE2F5E2F5F5F5F5F5F5F5F5F5F5F5F5F5F5F5F5F5F5F5F5F5F5F5F5F5F5F5F5F5F5F5F5F5F5F5BEF5BE0FF5F5F5F5F5F5F5F5F5F5F5F5C3F5BEF5F5F5BEF5C3F5F5F5F5F5F5F5F5F5F5F5F5F5F5F5F5F5F5F5F5F5F5F5F5F5F5F5F5F5F5F5F5F5E2F5E2BEF5F5E200E2F5F5BEE2F5E2F5F5F5F5F5
310
F5F5F5F5F5F5F5F5F5F5F5F5F5F5F5F5F5F5F5F5F5F5F5F5F5F5F5F5F5F5BE0FBE0FF5F5F5F5F5F5F5F5F5F5F5F5C3F5C3F5F5F5C3F5C3F5F5F5F5F5F5F5F5F5F5F5F5F5F5F5F5F5F5F5F5F5F5F5F5F5F5F5F5F5F5F5F5F5E2F5E2BEF5F5E2CDE2F5F5BEE2F5E2F5F5F5F5F5F5F5F5BEBEBEBEBEBEBEBEBEBEBEF5BEBEBEBE
310
BEF5BEBEBEBEBEF5F5F5F5F50F0FF5F5F5F5F5F5F5F5F5F5F5F5F5C3F5C3F5F5F5C3F5C3F5F5F5F5F5F5F5F5F5F5F5F5F5F5F5F5F5F5F5F5F5F5F5F5F5F5F5F5F5F5F5F5F5E2F5E2BEF5F5E200E2F5F5BEE2F5E2F5F5F5F5F5F5F5F5BEBEBEBEBEBEBEBEBEBEBEF5BEBEBEBEBEBEBEBEBEBEBEF5F5F5F5F50F0FF5F5F5F5F5
310
F5F5F5F5F5F5F5F5C3F5C3F5F5F5C3F5C3F5F5F5F5F5F5F5F5F5F5F5F5F5F5F5F5F5F5F5F5F5F5F5F5F5F5F5F5F5F5F5F5F5E2F5E2BEF5F5E2CDE2F5F5BEE2F5E2F5F5F5F5F5F5F5F5F5BEBEBEF5BEBEBEBEBEF5F5F5BEBEBEBEBEF5BEBEBEBEF5F5F5F50FF50FF5F5F5F5F5F5F5F5F5F5F5F5F5C3F5BEC3C3C3BEF5C3F5F5
310
F5F5F5F5F5F5F5F5F5F5F5F5F5F5BEBEBEBEBEBEBEBEBEBEF5F5F5F5F5F5F5E2F5E2BEF5F5E200E2F5F5BEE2F5E2F5F5F5F5F5F5F5F5F5F5F5F5F5F5F5F5F5F5F5F5F5F5F5F5F5F5F5F5F5F5F5F5F5F5F5BEF5BEF5F5F5F5F5F5F5F5F5F5F5F5F5C3F5F5F5F5F5F5F5C3F5F5F5F5F5F5F5F5F5F5F5F5F5F5F5F5BEBEBEBEBE
310
BEBEBEBEBEF5F5F5F5F5F5F5E2F5E2BEF5F5E2CDE2F5F5BEE2F5E2F5F5F5F5F5F5F5F5F5F5F5F5F5F5F5F5F5F5F5F5F5F5F5F5F5F5F5F5F5F5F5F5F5F5F50FF50FF5F5F5F5F5F5F5F5F5F5F5F5F5C3F5C3C3C3C3C3F5C3F5F5F5F5F5F5F5F5F5F5F5F5F5F5F5F5F5F5F5F5F5F5F5F5F5F5F5F5F5F5F5F5F5E2F5E2BEF5F5E2
310
00E2F5F5BEE2F5E2F5F5F5F5F5F5F5F5F5F5F5F5F5F5F5F5F5F5F5F5F5F5F5F5F5F5F5F5F5F5F5F5F5F5F5F50F0FF5F5F5F5F5F5F5F5F5F5F5F5F5C3F5C3F5F5F5C3F5C3F5F5F5F5F5F5F5F5F5F5F5F5F5F5F5F5F5F5F5F5F5F5F5F5F5F5F5F5F5F5F5F5F5E2F5E2BEF5F5E2CDE2F5F5BEE2F5E2F5F5F5F5F5F5F5F5F5F5F5
310
F5F5F5F5F5F5F5F5F5F5F5F5F5F5F5F5F5F5F5F5F5F5F5F5F50F0FF5F5F5F5F5F5F5F5F5F5F5F5F5C3F5C3F5F5F5C3F5C3F5F5F5F5F5F5F5F5F5F5F5F5F5F5F5F5F5F5F5F5F5F5F5F5F5F5F5F5F5F5F5F5F5E2F5E2BEF5F5E200E2F5F5BEE2F5E2F5F5F5F5F5F5F5F5F5F5F5F5F5BEF5F5F5F5F5F5F5F5F5F5F5BEF5F5F5F5
310
F5F5F5F5F5F5F50F0FF5F5F5F5F5F5F5F5BEF5F5F5C3F5C3F5F5F5C3F5C3F5F5F5F5F5F5F5F5F5F5F5F5F5F5F5F5F5F5F5F5F5F5F5F5F5F5F5F5F5F5F5F5F5E2F5E2BEF5F5E2CDE2F5F5BEE2F5E2F5F5F5F5F5F5F5F5F5F5F5F5F5BEF5F5F5F5F5F5F5F5F5F5F5BEF5F5F5F5F5F5F5F5F5F5F50FF50FF5F5F5F5F5F5F5BEF5
310
F5F5C3F5C3F5F5F5C3C3C3F5F5BEBEBEBEBEBEBEBEBEBEBEBEBEBEBEBEBEBEBEBEBEF5F5F5F5F5F5F5F5F5F5E2F5E2BEF5F5E200E2F5F5BEE2F5E2F5F5F5F5F5F5F5F5F5F5F5F5F5BEF5F5F5F5F5F5F5F5F5F5F5BEF5F5F5F5F5F5F5F5F5F5F50FF5F50FF5F5F5F5F5BEBEF5F5F5C3F5BEF5F5F5F5F5F5F5F5F5F5F5BEF5F5
310
F5F5F5F5F5F5F5F5F5F5F5F5BEBEF5F5F5F5F5F5F5F5F5F5F5E2F5E2BEF5F5E2CDE2F5F5BEE2F5E2F5F5F5F5F5F5F5F5F5F5F5F5F5BEF5F5F5F5F5F5F5F5F5F5F5BEF5F5F5F5F5F5F5F5F5F50FF50F0FF50F0F0F0F0F0F0F0F0F0F0FF5C3F5F5F5F5F5F5F5F5F5F5F5BEF5F5F5F5F5F5F5F5F5F5F5F5F5F5BEBEF5F5F5F5F5
310
F5F5F5F5F5F5E2F5E2BEF5F5E200E2F5F5BEE2F5E2F5F5F5F5F5F5F5F5F5F5F5F5F5BEF5F5F5F5F5F5F5F5F5F5F5BEF5F5F5F5F5F5F5F5F50FF50FF5F50FF5F5F5F5F5F5F5F5F5F5C3F5C3F5F5F5F5F5F5F5F5F5F5F5BEF5F5F5F5F5F5F5F5F5F5F5F5F5F5BEF5F5F5F5F5F5F5F5F5F5F5F5E2F5E2BEF5F5E2CDE2F5F5BEE2
310
F5E2F5F5F5F5F5F5F5F5F5F5F5F5F5BEF5F5F5F5F5F5F5F5F5F5BEBEBEBEBEBEBEBEBEBEBEBEBEBEBEBEBEBE0F0F0FBE0F0F0F0F0F0FF5C3F5F5BEC3C3C3BEBEBEBEBEBEBEBEF5F5F5F5F5F5F5F5F5F5F5F5F5F5F5F5F5F5F5F5F5F5F5F5F5E2F5E2BEF5F5E200E2F5F5BEE2F5E2F5F5F5F5F5F5F5F5F5F5F5F5BEBEF5F5F5
310
F5F5F5F5F5F5F5F5F5F5F5F5F5BEF50FF50F0FF5F5F5F5F5F5F5F5F5F5F5BEF5F5F5C3F5BEC3C3C3F5F5F5C3BEF5F5F5F5F5BEBEBEBEBEBEBEBEBEBEBEF5F5F5F5F5F5F5F5F5F5F5F5F5F5F5E2F5E2BEF5F5E2CDE2F5F5BEE2F5E2F5F5F5F5F5F5F5F5F5F5F5F5F5BEF5F5F5F5F5F5F5F5F5F5F5F5F5F5F5F5F50FF50FF5F5
310
F5F5F5F5F5F5F5F5F5F5BEBEF5F5F5F5C3BEF5F5C3C3C3C3F5F5F5F5F5F5F5F5BEF5BEBEBEBEBEBEBEBEF5F5F5F5F5F5F5F5F5F5F5F5F5F5F5E2F5E2BEF5F5E200E2F5F5BEE2F5E2F5F5F5F5F5F5F5F5F5F5F5BEBEBEBEBEBEBEBEBEBEBEBEBEBEBEBEBEBEBEBEBEBEBEBEBEBEBEBEBEBEBEBEBEBEBEBEBEBEBEF5F5F5BEC3
310
C3BEF5F5F5BEBEBEBEBEBEBEBEF5F5F5F5F5F5F5F5F5F5F5F5F5F5F5F5F5F5F5F5F5F5F5F5F5E2F5E2BEF5F5E2CDE2F5F5BEE2F5E2F5F5F5F5F5F5F5F5F5F5F5F5F5F5F5F5F5F5F5F5F5F5F5F5F5F5F5F5F5F5BE0FF5F5F5F5F5F5F5F5F5F5F5F5F5BEF5BEBEF5F5F5F5BEF5F5F5F5F5F5F5BEF5F5F5BEF5F5F5F5F5F5F5F5
310
F5F5F5F5F5F5F5F5F5F5F5F5F5F5F5F5F5F5F5E2F5E2BEF5F5E200E2F5F5BEE2F5E2F5F5F5F5F5F5F5F5F5F5F5F5F5BEBEBEBEBEBEBEBEBEBEBEF5F5F5BEF5F5BEF5F5F5F5F5F5F5F5F5F5F5F5F5F5BEBEBEBEBEF5F5F5BEF5F5F5F5F5F5F5BEF5F5F5BEF5F5F5F5F5F5F5F5F5F5F5F5F5F5F5F5F5F5F5F5F5F5F5F5F5F5F5
310
E2F5E2BEF5F5E2CDE2F5F5BEE2F5E2F5F5F5F5F5F5F5F5F5F5F5F5F5F5BEBEBEBEBEBEBEBEF5BEF5F5BEF5BEF5BEF5F5F5F5F5F5F5F5F5F5BEBEBEBEBEBEBEBEBEBEBEF5BEF5F5F5F5F5F5F5BEF5F5F5BEF5F5F5F5F5F5F5F5F5F5F5F5F5F5F5F5F5F5F5F5F5F5F5F5F5F5F5E2F5E2BEF5F5E200E2F5F5BEE2F5E2F5F5F5F5
310
F5F5F5F5F5F5F5F5F5F5F5F5F5F5F5F5BEF5F5F5F5BEF5BEF5F5BEF5F5F5F5F5F5F5F5F5F5F5BEBEBEBEBEBEBEBEBEBEF5BEF5F5F5F5F5F5F5BEF5F5F5F5F5F5F5F5F5F5F5F5F5F5F5F5F5F5F5F5F5F5F5F5F5F5F5F5F5F5F5E2F5E2BEF5F5E2CDE2F5F5BEE2F5E2F5F5F5F5F5F5F5F5F5F5F5F5F5F5F5F5F5F5F5F5F5BEF5
310
BEBEF5BEF5F5F5BEF5F5F5F5F5F5F5F5F5F5F5F5F5F5F5F5F5F5F5F5F5F5BEF5F5F5F5F5F5F5BEF5F5F5F5F5F5F5F5F5F5F5F5F5F5F5F5F5F5F5F5F5F5F5F5F5F5F5F5F5F5F5E2F5E2BEF5F5E200E2F5F5BEE2F5E2F5F5F5F5F5F5F5F5F5F5F5F5F5F5F5F5F5F5F5F5F5F5BEF5BEBEF5F5F5F5BEF5F5F5F5F5F5F5F5F5F5F5
310
F5F5F5F5F5F5F5F5F5F5F5BEF5F5F5F5F5F5F5BEF5F5F5F5F5F5F5F5F5F5F5F5F5F5F5F5F5F5F5F5F5F5F5F5F5F5F5F5F5F5F5E2F5E2BEF5F5E2CDE2F5F5BEE2F5E2F5F5F5F5F5F5F5F5F5F5F5F5F5F5F5F5F5F5F5F5F5BEF5BEF5F5F5F5F5F5BEF5F5F5F5F5F5F5F5F5F5F5F5F5F5F5F5F5F5F5F5F5F5BEF5F5F5F5F5F5F5
310
BEF5F5F5F5F5F5F5F5F5F5F5F5F5F5F5F5F5F5F5F5F5F5F5F5F5F5F5F5F5F5F5E2F5E2BEF5F5E200E2F5F5BEE2F5E2F5F5F5F5F5F5F5F5F5F5F5F5F5F5F5F5F5F5F5F5F5F5BEF5BEF5F5F5F5F5BEF5F5F5F5F5F5F5F5F5F5F5F5F5F5F5F5F5F5F5F5F5F5BEF5F5F5F5F5F5F5BEF5F5F5F5F5F5F5F5F5F5F5F5F5F5F5F5F5F5
310
F5F5F5F5F5F5F5F5F5F5F5F5F5E2F5E2BEF5F5E2CDE2F5F5BEE2F5E2F5F5F5F5F5F5F5F5F5F5F5F5F5F5F5F5F5F5F5F5F5F5F5F5F5BEF5F5F5F5BEF5F5F5F5F5F5F5F5F5F5F5F5F5F5F5F5F5F5F5F5F5F5BEF5F5F5F5F5F5F5BEF5F5F5F5F5F5F5F5F5F5F5F5F5F5F5F5F5F5F5F5F5F5F5F5F5F5F5F5F5F5F5E2F5E2BEF5F5
310
E200E2F5F5BEE2F5E2F5F5F5F5F5F5F5F5F5F5F5F5F5F5F5F5F5F5F5F5F5F5F5F5F5F5F5F5F5F5BEF5F5F5F5F5F5F5F5F5F5F5F5F5F5F5F5F5F5F5F5F5BEBEF5F5F5F5F5F5F5BEBEF5BEBEBEBEBEBEBEBEBEBEF5F5F5F5F5F5F5F5F5F5F5F5F5F5F5F5F5F5F5E2F5E2BEF5F5E2CDE2F5F5BEE2F5E2F5F5F5F5F5F5F5F5F5F5
310
F5F5F5F5F5F5F5F5F5F5F5F5F5F5F5F5F5F5F5F5BEF5F5F5F5F5F5F5F5F5F5F5F5F5F5F5F5F5F5F5BEBEBEBEF5F5F5F5F5F5F5BEBEBEF5BEBEBEBEBEBEBEBEBEF5F5F5F5F5F5F5F5F5F5F5F5F5F5F5F5F5F5F5E2F5E2BEF5F5E200E2F5F5BEE2F5E2F5F5F5F5F5F5F5F5F5F5F5F5F5F5F5F5F5F5F5F5F5F5F5F5F5F5F5F5F5
310
F5BEF5F5F5F5F5F5F5F5F5F5F5F5F5F5F5F5F5F5F5F5F5F5BEF5F5F5F5F5F5F5BEF5F5F5BEBEBEBEBEF5BEBEBEF5F5F5F5F5F5F5F5F5F5F5F5F5F5F5F5F5F5F5E2F5E2BEF5F5E233E2F5F5BEE2F5E2F5F5F5F5F5F5F5F5F5F5F5F5F5F5F5F5F5F5F5F5F5F5F5F5F5F5F5F5F5F5BEF5F5F5F5F5F5F5F5F5F5F5F5F5F5F5F5F5
310
F5F5F5F5F5BEF5F5F5F5F5F5F5F5F5F5F5F5F5F5F5F5F5F5F5F5F5F5F5F5F5F5F5F5F5F5F5F5F5F5F5F5F5F5F5E2F5E2BEF5F5E201E2F5F5BEE2F5E2F5F5F5F5F5F5F5F5F5F5F5F5F5F5F5F5F5F5F5F5F5F5F5F5F5F5F5F5F5F5BEBEF5F5F5F5F5BEBEBEBEBEBEBEBEBEBEBEF5F5F5F5BEBEF5F5F5F5F5F5F5F5F5F5F5F5F5
310
F5F5F5F5F5F5F5F5F5F5F5F5F5F5F5F5F5F5F5F5F5F5F5F5F5F5E2F5E2BEF5F5E200E2F5F5BEE2F5E2F5F5F5F5F5F5F5F5F5F5F5F5F5F5F5F5F5F5F5F5F5F5F5F5F5F5F5F5F5F5BEBEF5F5F5F5F5F5BEBEBEBEBEBEBEBEBEBEF5F5F5F5BEBEF5F5F5F5F5F5F5F5F5F5F5F5F5F5F5F5F5F5F5F5F5F5F5F5F5F5F5F5F5F5F5F5
310
F5F5F5F5F5F5F5E2F5E2BEF5F5E200E2F5F5BEE2F5E2F5F5F5F5F5F5F5F5F5F5F5F5F5F5F5F5F5F5F5F5F5F5F5F5F5F5F5F5F5F5BEF5F5F5F5F5F5F5F5F5F5F5F5F5F5F5F5F5F5F5F5F5F5BEF5F5F5F5F5F5F5F5F5F5F5F5F5F5F5F5F5F5F5F5F5F5F5F5F5F5F5F5F5F5F5F5F5F5F5F5F5F5F5E2F5E2BEF5F5E233E2F5F5BE
310
E2F5E2F5F5F5F5F5F5F5F5F5F5F5F5F5F5F5F5F5F5F5F5F5F5F5F5F5F5F5F5F5F5F5F5F5F5F5F5F5F5F5F5F5F5F5F5F5F5F5F5F5F5F5F5F5F5F5F5F5F5F5F5F5F5F5F5F5F5F5F5F5F5F5F5F5F5F5F5F5F5F5F5F5F5F5F5F5F5F5F5F5F5F5F5F5E2F5E2BEF5F5E201E2F5F5BEE2F5E2F5F5F5F5F5F5F5F5F5F5F5F5F5F5F5F5
310
F5F5F5F5F5F5F5F5F5F5F5F5F5F5F5F5F5F5F5F5F5F5F5F5F5F5F5F5F5F5F5F5F5F5F5F5F5F5F5F5F5F5F5F5F5F5F5F5F5F5F5F5F5F5F5F5F5F5F5F5F5F5F5F5F5F5F5F5F5F5F5F5F5F5F5F5F5E2F5E2BEF5F5E200E2F5F5BEE2F5E2F5F5F5F5F5F5F5F5F5F5F5F5F5F5F5F5F5F5F5F5F5F5F5F5F5F5F5F5F5F5F5F5F5F5F5
310
F5F5F5F5F5F5F5F5F5F5F5F5F5F5F5F5F5F5F5F5F5F5F5F5F5F5F5F5F5F5F5F5F5F5F5F5F5F5F5F5F5F5F5F5F5F5F5F5F5F5F5F5F5F5F5F5F5F5E2F5E2BEF5F5E200E2F5F5BEE2F5E2F5F5F5F5F5F5F5F5F5F5F5F5F5F5F5F5F5F5F5F5F5F5F5F5F5F5F5F5F5F5F5F5F5F5F5F5F5F5F5F5F5F5F5F5F5F5F5F5F5F5F5F5F5F5
310
F5F5F5F5F5F5F5F5F5F5F5F5F5F5F5F5F5F5F5F5F5F5F5F5F5F5F5F5F5F5F5F5F5F5F5F5F5F5F5E2F5E2BEF5F5E233E2F5F5BEE2F5E2F5F5F5F5F5F5F5F5F5F5F5F5F5F5F5F5F5F5F5F5F5F5F5F5F5F5F5F5F5F5F5F5F5F5F5F5F5F5F5F5F5F5F5F5F5F5F5F5F5F5F5F5F5F5F5F5F5F5F5F5F5F5F5F5F5F5F5F5F5F5F5F5F5
310
F5F5F5F5F5F5F5F5F5F5F5F5F5F5F5F5F5F5F5F5E2F5E2BEF5F5E201E2F5F5BEE2F5E2F5F5F5F5F5F5F5F5F5F5F5F5F5F5F5F5F5F5F5F5F5F5F5F5F5F5F5F5F5F5F5F5F5F5F5F5F5F5F5F5F5F5F5F5F5F5F5F5F5F5F5F5F5F5F5F5F5F5F5F5F5F5F5F5F5F5F5F5F5F5F5F5F5F5F5F5F5F5F5F5F5F5F5F5F5F5F5F5F5F5F5F5
310
F5E2F5E2BEF5F5E200E2F5F5BEE2F5E2F5F5F5F5F5F5F5F5F5F5F5F5F5F5F5F5F5F5F5F5F5F5F5F5F5F5F5F5F5F5F5F5F5F5F5F5F5F5F5F5F5F5F5F5F5F5F5F5F5F5F5F5F5F5F5F5F5F5F5F5F5F5F5F5F5F5F5F5F5F5F5F5F5F5F5F5F5F5F5F5F5F5F5F5F5F5F5F5F5F5F5F5F5E2F5E2BEF5F5E200E2F5F5BEE2F5E2F5F5F5
310
F5F5F5F5F5F5F5F5F5F5F5F5F5F5F5F5F5F5F5F5F5F5F5F5F5F5F5F5F5F5F5F5F5F5F5F5F5F5F5F5F5F5F5F5F5F5F5F5F5F5F5F5F5F5F5F5F5F5F5F5F5F5F5F5F5F5F5F5F5F5F5F5F5F5F5F5F5F5F5F5F5F5F5F5F5F5F5F5F5F5E2F5E2BEF5F5E233E2F5F5BEE2F5E2F5F5F5F5F5F5F5F5F5F5F5F5F5F5F5F5F5F5F5F5F5F5
310
F5F5F5F5F5F5F5F5F5F5F5F5F5F5F5F5F5F5F5F5F5F5F5F5F5F5F5F5F5F5F5F5F5F5F5F5F5F5F5F5F5F5F5F5F5F5F5F5F5F5F5F5F5F5F5F5F5F5F5F5F5F5F5F5F5F5F5F5F5F5F5E2F5E2BEF5F5E201E2F5F5BEE2F5E2F5F5F5F5F5F5F5F5F5F5F5F5F5F5F5F5F5F5F5F5F5F5F5F5F5F5F5F5F5F5F5F5F5F5F5F5F5F5F5F5F5
310
F5F5F5F5F5F5F5F5F5F5F5F5F5F5F5F5F5F5F5F5F5F5F5F5F5F5F5F5F5F5F5F5F5F5F5F5F5F5F5F5F5F5F5F5F5F5F5F5F5F5F5F5E2F5E2BEF5F5E200E2F5F5BEE2F5E2F5F5F5F5F5F5F5F5F5F5F5F5F5F5F5F5F5F5F5F5F5F5F5F5F5F5F5F5F5F5F5F5F5F5F5F5F5F5F5F5F5F5F5F5F5F5F5F5F5F5F5F5F5F5F5F5F5F5F5F5
310
F5F5F5F5F5F5F5F5F5F5F5F5F5F5F5F5F5F5F5F5F5F5F5F5F5F5F5F5F5F5F5F5F5E2F5E2BEF5F5E200E2F5F5BEE2F5E2F5F5F5F5F5F5F5F5F5F5F5F5F5F5F5F5F5F5F5F5F5F5F5F5F5F5F5F5F5F5F5F5F5F5F5F5F5F5F5F5F5F5F5F5F5F5F5F5F5F5F5F5F5F5F5F5F5F5F5F5F5F5F5F5F5F5F5F5F5F5F5F5F5F5F5F5F5F5F5
310
F5F5F5F5F5F5F5F5F5F5F5F5F5F5E2F5E2BEF5F5E233E2F5F5BEE2F5E2F5F5F5F5F5F5F5F5F5F5F5F5F5F5F5F5F5F5F5F5F5F5F5F5F5F5F5F5F5F5F5F5F5F5F5F5F5F5F5F5F5F5F5F5F5F5F5F5F5F5F5F5F5F5F5F5F5F5F5F5F5F5F5F5F5F5F5F5F5F5F5F5F5F5F5F5F5F5F5F5F5F5F5F5F5F5F5F5F5F5F5F5F5E2F5E2BEF5
310
F5E201E2F5F5BEE2F5E2F5F5F5F5F5F5F5F5F5F5F5F5F5F5F5F5F5F5F5F5F5F5F5F5F5F5F5F5F5F5F5F5F5F5F5F5F5F5F5F5F5F5F5F5F5F5F5F5F5F5F5F5F5F5F5F5F5F5F5F5F5F5F5F5F5F5F5F5F5F5F5F5F5F5F5F5F5F5F5F5F5F5F5F5F5F5F5F5F5F5F5F5F5E2F5E2BEF5F5E27EE2F5F5BEE2F5E2F5F5F5F5F5F5F5F5F5
310
F5F5F5F5F5F5F5F5F5F5F5F5F5F5F5F5F5F5F5F5F5F5F5F5F5F5F5F5F5F5F5F5F5F5F5F5F5F5F5F5F5F5F5F5F5F5F5F5F5F5F5F5F5F5F5F5F5F5F5F5F5F5F5F5F5F5F5F5F5F5F5F5F5F5F5F5F5F5F5F5F5F5F5F5E2F5E2BEF5F5E27EE2F5F5BEE2F5E2F5F5F5F5F5F5F5F5F5F5F5F5F5F5F5F5F5F5F5F5F5F5F5F5F5F5F5F5
310
F5F5F5F5F5F5F5F5F5F5F5F5F5F5F5F5F5F5F5F5F5F5F5F5F5F5F5F5F5F5F5F5F5F5F5F5F5F5F5F5F5F5F5F5F5F5F5F5F5F5F5F5F5F5F5F5F5F5F5F5F5F5F5F5F5E2F5E2BEF5F5E27EE2F5F5BEE2F5E2F5F5F5F5F5F5F5F5F5F5F5F5F5F5F5F5F5F5F5F5F5F5F5F5F5F5F5F5F5F5F5F5F5F5F5F5F5F5F5F5F5F5F5F5F5F5F5
310
F5F5F5F5F5F5F5F5F5F5F5F5F5F5F5F5F5F5F5F5F5F5F5F5F5F5F5F5F5F5F5F5F5F5F5F5F5F5F5F5F5F5F5F5F5F5E2F5E2BEF5F5E200E2F5F5BEE2F5E2F5F5F5F5F5F5F5F5F5F5F5F5F5F5F5F5F5F5F5F5F5F5F5F5F5F5F5F5F5F5F5F5F5F5F5F5F5F5F5F5F5F5F5F5F5F5F5F5F5F5F5F5F5F5F5F5F5F5F5F5F5F5F5F5F5F5
310
F5F5F5F5F5F5F5F5F5F5F5F5F5F5F5F5F5F5F5F5F5F5F5F5F5F5F5E2F5E2BEF5F5E2CDE2F5F5BEE2F5E2F5F5F5F5F5F5F5F5F5F5F5F5F5F5F5F5F5F5F5F5F5F5F5F5F5F5F5F5F5F5F5F5F5F5F5F5F5F5F5F5F5F5F5F5F5F5F5F5F5F5F5F5F5F5F5F5F5F5F5F5F5F5F5F5F5F5F5F5F5F5F5F5F5F5F5F5F5F5F5F5F5F5F5F5F5
310
F5F5F5F5F5F5F5F5E2F5E2BEF5F5E200E2F5F5BEE2F5E2F5F5F5F5F5F5F5F5F5F5F5F5F5F5F5F5F5F5F5F5F5F5F5F5F5F5F5F5F5F5F5F5F5F5F5F5F5F5F5F5F5F5F5F5F5F5F5F5F5F5F5F5F5F5F5F5F5F5F5F5F5F5F5F5F5F5F5F5F5F5F5F5F5F5F5F5F5F5F5F5F5F5F5F5F5F5F5F5F5F5F5F5F5E2F5E2BEF5F5E2CDE2F5F5
310
BEE2F5E2F5F5F5F5F5F5F5F5F5F5F5F5F5F5F5F5F5F5F5F5F5F5F5F5F5F5F5F5F5F5F5F5F5F5F5F5F5F5F5F5F5F5F5F5F5F5F5F5F5F5F5F5F5F5F5F5F5F5F5F5F5F5F5F5F5F5F5F5F5F5F5F5F5F5F5F5F5F5F5F5F5F5F5F5F5F5F5F5F5F5F5F5F5E2F5E2BEF5F5E200E2F5F5BEE2F5E2F5F5F5F5F5F5F5F5F5F5F5F5F5F5F5
310
F5F5F5F5F5F5F5F5F5F5F5F5F5F5F5F5F5F5F5F5F5F5F5F5F5F5F5F5F5F5F5F5F5F5F5F5F5F5F5F5F5F5F5F5F5F5F5F5F5F5F5F5F5F5F5F5F5F5F5F5F5F5F5F5F5F5F5F5F5F5F5F5F5F5F5F5F5F5E2F5E2BEF5F5E2CDE2F5F5BEE2F5E2F5F5F5F5F5F5F5F5F5F5F5F5F5F5F5F5F5F5F5F5F5F5F5F5F5F5F5F5F5F5F5F5F5F5
310
F5F5F5F5F5F5F5F5F5F5F5F5F5F5F5F5F5F5F5F5F5F5F5F5F5F5F5F5F5F5F5F5F5F5F5F5F5F5F5F5F5F5F5F5F5F5F5F5F5F5F5F5F5F5F5F5F5F5F5E2F5E2BEF5F5E200E2F5F5BEE2F5E2F5F5F5F5F5F5F5F5F5F5F5F5F5F5F5F5F5F5F5F5F5F5F5F5F5F5F5F5F5F5F5F5F5F5F5F5F5F5F5F5F5F5F5F5F5F5F5F5F5F5F5F5F5
310
F5F5F5F5F5F5F5F5F5F5F5F5F5F5F5F5F5F5F5F5F5F5F5F5F5F5F5F5F5F5F5F5F5F5F5F5F5F5F5F5E2F5E2BEF5F5E2CDE2F5F5BEE2F5E2F5F5F5F5F5F5F5F5F5F5F5F5F5F5F5F5F5F5F5F5F5F5F5F5F5F5F5F5F5F5F5F5F5F5F5F5F5F5F5F5F5F5F5F5F5F5F5F5F5F5F5F5F5F5F5F5F5F5F5F5F5F5F5F5F5F5F5F5F5F5F5F5
310
F5F5F5F5F5F5F5F5F5F5F5F5F5F5F5F5F5F5F5F5F5E2F5E2BEF5F5E200E2F5F5BEE2F5E2F5F5F5F5F5F5F5F5F5F5F5F5F5F5F5F5F5F5F5F5F5F5F5F5F5F5F5F5F5F5F5F5F5F5F5F5F5F5F5F5F5F5F5F5F5F5F5F5F5F5F5F5F5F5F5F5F5F5F5F5F5F5F5F5F5F5F5F5F5F5F5F5F5F5F5F5F5F5F5F5F5F5F5F5F5F5F5F5F5F5F5
310
F5F5E2F5E2BEF5F5E2CDE2F5F5BEE2F5E2E2E2E2E2E2E2E2E2E2E2E2E2E2E2E2E2E2E2E2E2E2E2E2E2E2E2E2E2E2E2E2E2E2E2E2E2E2E2E2E2E2E2E2E2E2E2E2E2E2E2E2E2E2E2E2E2E2E2E2E2E2E2E2E2E2E2E2E2E2E2E2E2E2E2E2E2E2E2E2E2E2E2E2E2E2E2E2E2E2E2E2E2E2E2F5E2BEF5F5E200E2F5F5BEE2F5F5F5F5
310
F5F5F5F5F5F5F5F5F5F5F5F5F5F5F5F5F5F5F5F5F5F5F5F5F5F5F5F5F5F5F5F5F5F5F5F5F5F5F5F5F5F5F5F5F5F5F5F5F5F5F5F5F5F5F5F5F5F5F5F5F5F5F5F5F5F5F5F5F5F5F5F5F5F5F5F5F5F5F5F5F5F5F5F5F5F5F5F5F5F5F5F5F5E2BEF5F5E2CDE2F5F5BEE2F5F5F5F5F5F5F5F5F5F5F5F5F5F5F5F5F5F5F5F5F5F5F5
310
F5F5F5F5F5F5F5F5F5F5F5F5F5F5F5F5F5F5F5F5F5F5F5F5F5F5F5F5F5F5F5F5F5F5F5F5F5F5F5F5F5F5F5F5F5F5F5F5F5F5F5F5F5F5F5F5F5F5F5F5F5F5F5F5F5F5F5F5F5F5F5F5F5F5E2BEF5F5E200E2F5F5BEE2E2E2E2E2E2E2E2E2E2E2E2E2E2E2E2E2E2E2E2E2E2E2E2E2E2E2E2E2E2E2E2E2E2E2E2E2E2E2E2E2E2E2
310
E2E2E2E2E2E2E2E2E2E2E2E2E2E2E2E2E2E2E2E2E2E2E2E2E2E2E2E2E2E2E2E2E2E2E2E2E2E2E2E2E2E2E2E2E2E2E2E2E2E2E2E2E2E2E2E2BEF5F5E2CDE2F5F5BEF5F5F5F5F5F5F5F5F5F5F5F5F5F5F5F5F5F5F5F5F5F5F5F5F5F5F5F5F5F5F5F5F5F5F5F5F5F5F5F5F5F5F5F5F5F5F5F5F5F5F5F5F5F5F5F5F5F5F5F5F5F5
310
F5F5F5F5F5F5F5F5F5F5F5F5F5F5F5F5F5F5F5F5F5F5F5F5F5F5F5F5F5F5F5F5F5F5F5F5F5BEF5F5E200E2F5F5BEBEBEBEBEBEBEBEBEBEBEBEBEBEBEBEBEBEBEBEBEBEBEBEBEBEBEBEBEBEBEBEBEBEBEBEBEBEBEBEBEBEBEBEBEBEBEBEBEBEBEBEBEBEBEBEBEBEBEBEBEBEBEBEBEBEBEBEBEBEBEBEBEBEBEBEBEBEBEBEBEBE
310
BEBEBEBEBEBEBEBEBEBEBEBEBEBEBEBEBEBEBEF5F5E2CDE2F5F5F5F5F5F5F5F5F5F5F5F5F5F5F5F5F5F5F5F5F5F5F5F5F5F5F5F5F5F5F5F5F5F5F5F5F5F5F5F5F5F5F5F5F5F5F5F5F5F5F5F5F5F5F5F5F5F5F5F5F5F5F5F5F5F5F5F5F5F5F5F5F5F5F5F5F5F5F5F5F5F5F5F5F5F5F5F5F5F5F5F5F5F5F5F5F5F5F5F5F5F5F5
310
F5F5E200E2F5F5F5F5F5F5F5F5F5F5F5F5F5F5F5F5F5F5F5F5F5F5F5F5F5F5F5F5F5F5F5F5F5F5F5F5F5F5F5F5F5F5F5F5F5F5F5F5F5F5F5F5F5F5F5F5F5F5F5F5F5F5F5F5F5F5F5F5F5F5F5F5F5F5F5F5F5F5F5F5F5F5F5F5F5F5F5F5F5F5F5F5F5F5F5F5F5F5F5F5F5F5F5F5F5E2CDE2F5F5F5F5F5F5F5F5F5F5F5F5F5F5
310
F5F5F5F5F5F5F5F5F5F5F5F5F5F5F5F5F5F5F5F5F5F5F5F5F5F5F5F5F5F5F5F5F5F5F5F5F5F5F5F5F5F5F5F5F5F5F5F5F5F5F5F5F5F5F5F5F5F5F5F5F5F5F5F5F5F5F5F5F5F5F5F5F5F5F5F5F5F5F5F5F5F5F5F5F5F5F5F5F5F5F5E200E2E2E2E2E2E2E2E2E2E2E2E2E2E2E2E2E2E2E2E2E2E2E2E2E2E2E2E2E2E2E2E2E2E2
310
E2E2E2E2E2E2E2E2E2E2E2E2E2E2E2E2E2E2E2E2E2E2E2E2E2E2E2E2E2E2E2E2E2E2E2E2E2E2E2E2E2E2E2E2E2E2E2E2E2E2E2E2E2E2E2E2E2E2E2E2E2E2E2E2E2E2E2E2E2E2E2E2E2CDEFEFEFEFEFEFEFEFEFEFEFEFEFEFEFEFEFEFEFEFEFEFEFEFEFEFEFEFEFEFEFEFEFEFEFEFEFEFEFEFEFEFEFEFEFEFEFEFEFEFEFEFEF
310
EFEFEFEFEFEFEFEFEFEFEFEFEFEFEFEFEFEFEFEFEFEFEFEFEFEFEFEFEFEFEFEFEFEFEFEFEFEFEFEFEFEFEFEFEFEFEFEFEFEFEFEFEFEF00
  0
ENDSEC
  0
EOF
