  0
SECTION
  2
HEADER
  9
$ACADVER
  1
AC1018
  9
$ACADMAINTVER
 70
    76
  9
$DWGCODEPAGE
  3
ANSI_1252
  9
$CUSTOMPROPERTYTAG
  1
AmdtFileType
  9
$CUSTOMPROPERTY
  1
84
  9
$INSBASE
 10
0.0
 20
0.0
 30
0.0
  9
$EXTMIN
 10
0.466265095632966
 20
-1.748300603600145
 30
0.0
  9
$EXTMAX
 10
1.316265095632966
 20
-0.6483006036001458
 30
0.0
  9
$LIMMIN
 10
0.0
 20
0.0
  9
$LIMMAX
 10
0.0
 20
0.0
  9
$ORTHOMODE
 70
     0
  9
$REGENMODE
 70
     1
  9
$FILLMODE
 70
     1
  9
$QTEXTMODE
 70
     0
  9
$MIRRTEXT
 70
     1
  9
$LTSCALE
 40
1.0
  9
$ATTMODE
 70
     1
  9
$TEXTSIZE
 40
0.0
  9
$TRACEWID
 40
0.05
  9
$TEXTSTYLE
  7
STANDARD
  9
$CLAYER
  8
0
  9
$CELTYPE
  6
CONTINUOUS
  9
$CECOLOR
 62
     1
  9
$CELTSCALE
 40
1.0
  9
$DISPSILH
 70
     0
  9
$DIMSCALE
 40
1.0
  9
$DIMASZ
 40
0.18
  9
$DIMEXO
 40
0.0625
  9
$DIMDLI
 40
0.38
  9
$DIMRND
 40
0.0
  9
$DIMDLE
 40
0.0
  9
$DIMEXE
 40
0.25
  9
$DIMTP
 40
0.004
  9
$DIMTM
 40
-0.004
  9
$DIMTXT
 40
0.0125
  9
$DIMCEN
 40
0.09
  9
$DIMTSZ
 40
0.0
  9
$DIMTOL
 70
     0
  9
$DIMLIM
 70
     0
  9
$DIMTIH
 70
     1
  9
$DIMTOH
 70
     1
  9
$DIMSE1
 70
     0
  9
$DIMSE2
 70
     0
  9
$DIMTAD
 70
     0
  9
$DIMZIN
 70
     0
  9
$DIMBLK
  1

  9
$DIMASO
 70
     1
  9
$DIMSHO
 70
     1
  9
$DIMPOST
  1

  9
$DIMAPOST
  1

  9
$DIMALT
 70
     0
  9
$DIMALTD
 70
     2
  9
$DIMALTF
 40
25.4
  9
$DIMLFAC
 40
1.0
  9
$DIMTOFL
 70
     0
  9
$DIMTVP
 40
0.0
  9
$DIMTIX
 70
     0
  9
$DIMSOXD
 70
     0
  9
$DIMSAH
 70
     0
  9
$DIMBLK1
  1

  9
$DIMBLK2
  1

  9
$DIMSTYLE
  2
STANDARD
  9
$DIMCLRD
 70
     0
  9
$DIMCLRE
 70
     0
  9
$DIMCLRT
 70
     1
  9
$DIMTFAC
 40
1.0
  9
$DIMGAP
 40
0.09
  9
$DIMJUST
 70
     0
  9
$DIMSD1
 70
     0
  9
$DIMSD2
 70
     0
  9
$DIMTOLJ
 70
     1
  9
$DIMTZIN
 70
     0
  9
$DIMALTZ
 70
     0
  9
$DIMALTTZ
 70
     0
  9
$DIMUPT
 70
     0
  9
$DIMDEC
 70
     4
  9
$DIMTDEC
 70
     4
  9
$DIMALTU
 70
     2
  9
$DIMALTTD
 70
     2
  9
$DIMTXSTY
  7
STANDARD
  9
$DIMAUNIT
 70
     0
  9
$DIMADEC
 70
     0
  9
$DIMALTRND
 40
0.0
  9
$DIMAZIN
 70
     0
  9
$DIMDSEP
 70
    46
  9
$DIMATFIT
 70
     3
  9
$DIMFRAC
 70
     0
  9
$DIMLDRBLK
  1

  9
$DIMLUNIT
 70
     2
  9
$DIMLWD
 70
    -2
  9
$DIMLWE
 70
    -2
  9
$DIMTMOVE
 70
     0
  9
$LUNITS
 70
     2
  9
$LUPREC
 70
    10
  9
$SKETCHINC
 40
0.1
  9
$FILLETRAD
 40
0.0
  9
$AUNITS
 70
     0
  9
$AUPREC
 70
     0
  9
$MENU
  1
acad
  9
$ELEVATION
 40
0.0
  9
$PELEVATION
 40
0.0
  9
$THICKNESS
 40
0.0
  9
$LIMCHECK
 70
     0
  9
$CHAMFERA
 40
0.0
  9
$CHAMFERB
 40
0.0
  9
$CHAMFERC
 40
0.0
  9
$CHAMFERD
 40
0.0
  9
$SKPOLY
 70
     0
  9
$TDCREATE
 40
2444971.833333334
  9
$TDUCREATE
 40
2444972.000000000
  9
$TDUPDATE
 40
2453626.375328969
  9
$TDUUPDATE
 40
2453626.541995637
  9
$TDINDWG
 40
0.0592271644
  9
$TDUSRTIMER
 40
0.0592271644
  9
$USRTIMER
 70
     1
  9
$ANGBASE
 50
0.0
  9
$ANGDIR
 70
     0
  9
$PDMODE
 70
     2
  9
$PDSIZE
 40
0.0
  9
$PLINEWID
 40
0.0
  9
$SPLFRAME
 70
     0
  9
$SPLINETYPE
 70
     6
  9
$SPLINESEGS
 70
     8
  9
$HANDSEED
  5
A5F
  9
$SURFTAB1
 70
     6
  9
$SURFTAB2
 70
     6
  9
$SURFTYPE
 70
     6
  9
$SURFU
 70
     6
  9
$SURFV
 70
     6
  9
$UCSBASE
  2

  9
$UCSNAME
  2

  9
$UCSORG
 10
0.0
 20
0.0
 30
0.0
  9
$UCSXDIR
 10
1.0
 20
0.0
 30
0.0
  9
$UCSYDIR
 10
0.0
 20
1.0
 30
0.0
  9
$UCSORTHOREF
  2

  9
$UCSORTHOVIEW
 70
     0
  9
$UCSORGTOP
 10
0.0
 20
0.0
 30
0.0
  9
$UCSORGBOTTOM
 10
0.0
 20
0.0
 30
0.0
  9
$UCSORGLEFT
 10
0.0
 20
0.0
 30
0.0
  9
$UCSORGRIGHT
 10
0.0
 20
0.0
 30
0.0
  9
$UCSORGFRONT
 10
0.0
 20
0.0
 30
0.0
  9
$UCSORGBACK
 10
0.0
 20
0.0
 30
0.0
  9
$PUCSBASE
  2

  9
$PUCSNAME
  2

  9
$PUCSORG
 10
0.0
 20
0.0
 30
0.0
  9
$PUCSXDIR
 10
1.0
 20
0.0
 30
0.0
  9
$PUCSYDIR
 10
0.0
 20
1.0
 30
0.0
  9
$PUCSORTHOREF
  2

  9
$PUCSORTHOVIEW
 70
     0
  9
$PUCSORGTOP
 10
0.0
 20
0.0
 30
0.0
  9
$PUCSORGBOTTOM
 10
0.0
 20
0.0
 30
0.0
  9
$PUCSORGLEFT
 10
0.0
 20
0.0
 30
0.0
  9
$PUCSORGRIGHT
 10
0.0
 20
0.0
 30
0.0
  9
$PUCSORGFRONT
 10
0.0
 20
0.0
 30
0.0
  9
$PUCSORGBACK
 10
0.0
 20
0.0
 30
0.0
  9
$USERI1
 70
     0
  9
$USERI2
 70
     0
  9
$USERI3
 70
     0
  9
$USERI4
 70
     0
  9
$USERI5
 70
     0
  9
$USERR1
 40
0.0
  9
$USERR2
 40
0.0
  9
$USERR3
 40
0.0
  9
$USERR4
 40
0.0
  9
$USERR5
 40
0.0
  9
$WORLDVIEW
 70
     1
  9
$SHADEDGE
 70
     3
  9
$SHADEDIF
 70
    70
  9
$TILEMODE
 70
     1
  9
$MAXACTVP
 70
    16
  9
$PINSBASE
 10
0.0
 20
0.0
 30
0.0
  9
$PLIMCHECK
 70
     0
  9
$PEXTMIN
 10
1.049999952316284
 20
0.7999999523162842
 30
0.0
  9
$PEXTMAX
 10
9.449999570846555
 20
7.199999570846556
 30
0.0
  9
$PLIMMIN
 10
0.0
 20
0.0
  9
$PLIMMAX
 10
12.0
 20
9.0
  9
$UNITMODE
 70
     0
  9
$VISRETAIN
 70
     0
  9
$PLINEGEN
 70
     1
  9
$PSLTSCALE
 70
     0
  9
$TREEDEPTH
 70
  3020
  9
$CMLSTYLE
  2
STANDARD
  9
$CMLJUST
 70
     0
  9
$CMLSCALE
 40
1.0
  9
$PROXYGRAPHICS
 70
     1
  9
$MEASUREMENT
 70
     0
  9
$CELWEIGHT
370
    -1
  9
$ENDCAPS
280
     0
  9
$JOINSTYLE
280
     0
  9
$LWDISPLAY
290
     0
  9
$INSUNITS
 70
     0
  9
$HYPERLINKBASE
  1

  9
$STYLESHEET
  1

  9
$XEDIT
290
     1
  9
$CEPSNTYPE
380
     0
  9
$PSTYLEMODE
290
     1
  9
$FINGERPRINTGUID
  2
{212CE70C-5151-11D6-8A02-00902758FDDF}
  9
$VERSIONGUID
  2
{BDAB82A1-3084-489E-BCDA-81D241729292}
  9
$EXTNAMES
290
     1
  9
$PSVPSCALE
 40
0.0
  9
$OLESTARTUP
290
     0
  9
$SORTENTS
280
   127
  9
$INDEXCTL
280
     1
  9
$HIDETEXT
280
     0
  9
$XCLIPFRAME
290
     0
  9
$HALOGAP
280
     0
  9
$OBSCOLOR
 70
   257
  9
$OBSLTYPE
280
     0
  9
$INTERSECTIONDISPLAY
280
     0
  9
$INTERSECTIONCOLOR
 70
   257
  9
$DIMASSOC
280
     1
  9
$PROJECTNAME
  1

  0
ENDSEC
  0
SECTION
  2
CLASSES
  0
CLASS
  1
IMAGE
  2
AcDbRasterImage
  3
ISM
 90
      127
 91
        0
280
     0
281
     1
  0
CLASS
  1
DICTIONARYVAR
  2
AcDbDictionaryVar
  3
ObjectDBX Classes
 90
        0
 91
        2
280
     0
281
     0
  0
CLASS
  1
RASTERVARIABLES
  2
AcDbRasterVariables
  3
ISM
 90
        0
 91
        0
280
     0
281
     0
  0
CLASS
  1
IMAGEDEF
  2
AcDbRasterImageDef
  3
ISM
 90
        0
 91
        0
280
     0
281
     0
  0
CLASS
  1
IMAGEDEF_REACTOR
  2
AcDbRasterImageDefReactor
  3
ISM
 90
        1
 91
        0
280
     0
281
     0
  0
CLASS
  1
IDBUFFER
  2
AcDbIdBuffer
  3
ObjectDBX Classes
 90
        0
 91
        5
280
     0
281
     0
  0
CLASS
  1
SPATIAL_FILTER
  2
AcDbSpatialFilter
  3
ObjectDBX Classes
 90
        0
 91
        0
280
     0
281
     0
  0
CLASS
  1
SORTENTSTABLE
  2
AcDbSortentsTable
  3
ObjectDBX Classes
 90
        0
 91
        0
280
     0
281
     0
  0
CLASS
  1
LAYER_INDEX
  2
AcDbLayerIndex
  3
ObjectDBX Classes
 90
        0
 91
        1
280
     0
281
     0
  0
CLASS
  1
SPATIAL_INDEX
  2
AcDbSpatialIndex
  3
ObjectDBX Classes
 90
        0
 91
        0
280
     0
281
     0
  0
CLASS
  1
OBJECT_PTR
  2
CAseDLPNTableRecord
  3
ASE-LPNTableRecord
 90
        1
 91
        0
280
     0
281
     0
  0
CLASS
  1
ACDBDICTIONARYWDFLT
  2
AcDbDictionaryWithDefault
  3
ObjectDBX Classes
 90
        0
 91
        1
280
     0
281
     0
  0
CLASS
  1
TABLESTYLE
  2
AcDbTableStyle
  3
ObjectDBX Classes
 90
     2047
 91
        1
280
     0
281
     0
  0
CLASS
  1
ACME_DOCUMENT
  2
AcMeDbDoc
  3
AcMeServices
 90
        0
 91
        2
280
     0
281
     0
  0
CLASS
  1
AMGSETTINGSOBJ
  2
AmgSettingsObj
  3
"AcadM|Product Description: AutoCAD Mechanical 2000|Company: Autodesk"
 90
        0
 91
        2
280
     0
281
     0
  0
CLASS
  1
ACMESCOPE
  2
AcMeScope
  3
AcMeServices
 90
        0
 91
        1
280
     0
281
     0
  0
CLASS
  1
ACMECOMMANDHISTORY
  2
AcMeCommandHistory
  3
AcMeServices
 90
        0
 91
        1
280
     0
281
     0
  0
CLASS
  1
ACIMSYSVARMAN
  2
AcImSysVarManager
  3
AcMeServices
 90
        0
 91
        6
280
     0
281
     0
  0
CLASS
  1
ACIMREALSYSVAR
  2
AcImRealSysVar
  3
AcMeServices
 90
        0
 91
       16
280
     0
281
     0
  0
CLASS
  1
ACIMINTSYSVAR
  2
AcImIntSysVar
  3
AcMeServices
 90
        0
 91
       45
280
     0
281
     0
  0
CLASS
  1
ACMEDRAWINGMAN
  2
AcMeDrawingMan
  3
AcMeServices
 90
        0
 91
        1
280
     0
281
     0
  0
CLASS
  1
ACMEVIEW
  2
AcMeView
  3
AcMeServices
 90
        0
 91
        1
280
     0
281
     0
  0
CLASS
  1
ACDBENTITYCACHE
  2
AcMeEntityCache
  3
AcMeServices
 90
        0
 91
        1
280
     0
281
     0
  0
CLASS
  1
GSMANAGER
  2
AcMeGSManager
  3
AcMeServices
 90
        0
 91
        1
280
     0
281
     0
  0
CLASS
  1
AMDTINTERNALREACTOR
  2
AmdtInternalReactor
  3
AcMeServices
 90
        0
 91
        2
280
     0
281
     0
  0
CLASS
  1
ACMESTATEMGR
  2
AcMeStateMgr
  3
AcMeServices
 90
        0
 91
        1
280
     0
281
     0
  0
CLASS
  1
ACGREFMASTER
  2
AcGrefMaster
  3
AcAttribServices
 90
        0
 91
        1
280
     0
281
     0
  0
CLASS
  1
AM_DRAWING_MGR
  2
AcDmDwgMgr
  3
AcMechDwgViewMgmt
 90
        0
 91
        1
280
     0
281
     0
  0
CLASS
  1
AM_DWG_DOCUMENT
  2
AcDmDwgDocument
  3
AcMechDwgViewMgmt
 90
        0
 91
        1
280
     0
281
     0
  0
CLASS
  1
AM_DWG_SHEET
  2
AcDmSheet
  3
AcMechDwgViewMgmt
 90
        0
 91
        1
280
     0
281
     0
  0
CLASS
  1
AM_VIEWDIMPARMAP
  2
AcDmViewDimParMap
  3
AcMechDwgViewMgmt
 90
        0
 91
        1
280
     0
281
     0
  0
CLASS
  1
AM_DWGMGR_NAME
  2
AcDmDwgMgrName
  3
AcMechDwgViewMgmt
 90
        0
 91
        1
280
     0
281
     0
  0
CLASS
  1
ACME_DATABASE
  2
AcMeDbDatabase
  3
AcMeServices
 90
        0
 91
        1
280
     0
281
     0
  0
CLASS
  1
ACRFINSADJUSTERMGR
  2
AcRfInsAdjusterMgr
  3
AcMeServices
 90
        0
 91
        1
280
     0
281
     0
  0
CLASS
  1
ACGREFACADMASTER
  2
AcGrefacadMaster
  3
AcGrefServices
 90
        0
 91
        1
280
     0
281
     0
  0
CLASS
  1
AMDTMENUSTATEMGR
  2
AmdtMenuStateMgr
  3
McadcomServices
 90
        0
 91
        1
280
     0
281
     0
  0
CLASS
  1
AMDTMCOMMENUSTATE
  2
AmdtMcomMenuState
  3
McadcomServices
 90
        0
 91
        1
280
     0
281
     0
  0
CLASS
  1
AMIMASTER
  2
AmiMaster
  3
AmiServices
 90
        0
 91
        1
280
     0
281
     0
  0
CLASS
  1
ASAPP
  2
AcAsAppObject
  3
AutoSurfServices
 90
        0
 91
        1
280
     0
281
     0
  0
CLASS
  1
IM_STATIC_MAN
  2
AcImStaticVarManager
  3
AcMeServices
 90
        0
 91
        1
280
     0
281
     0
  0
CLASS
  1
ACIMSTRSYSVAR
  2
AcImStrSysVar
  3
AcMeServices
 90
        0
 91
       11
280
     0
281
     0
  0
CLASS
  1
ACIMDBLSTATICVAR
  2
AcImDblStaticVar
  3
AcMeServices
 90
        0
 91
       20
280
     0
281
     0
  0
CLASS
  1
ACIMSTRSTATICVAR
  2
AcImStrStaticVar
  3
AcMeServices
 90
        0
 91
       12
280
     0
281
     0
  0
CLASS
  1
ACIMINTSTATICVAR
  2
AcImIntStaticVar
  3
AcMeServices
 90
        0
 91
       17
280
     0
281
     0
  0
CLASS
  1
ACASGREFMASTER
  2
AcAsGrefMaster
  3
AutoSurfResolverServices
 90
        0
 91
        1
280
     0
281
     0
  0
CLASS
  1
ACADGREFMODULE
  2
AcAdGrefModule
  3
AdGrefServices
 90
        0
 91
        1
280
     0
281
     0
  0
CLASS
  1
AMDTMAPISURFMOUDULE
  2
AmdtMApiSurfModule
  3
MApiSurfServices
 90
        0
 91
        1
280
     0
281
     0
  0
CLASS
  1
MAPIAMMOUDLE
  2
MApiAmModule
  3
MApiAmServices
 90
        0
 91
        1
280
     0
281
     0
  0
CLASS
  1
AMDTADMENUSTATE
  2
AmdtAdMenuState
  3
DesignerServices
 90
        0
 91
        1
280
     0
281
     0
  0
CLASS
  1
ADAPPL
  2
AcAdAppl
  3
DesignerServices
 90
        0
 91
        1
280
     0
281
     0
  0
CLASS
  1
DEPMGR
  2
AcAdDepMgr
  3
DesignerServices
 90
        0
 91
        1
280
     0
281
     0
  0
CLASS
  1
PARAMMGR
  2
AcAdParamMgr
  3
DesignerServices
 90
        0
 91
        1
280
     0
281
     0
  0
CLASS
  1
PARAMSCOPE
  2
AcAdParamScope
  3
DesignerServices
 90
        0
 91
        1
280
     0
281
     0
  0
CLASS
  1
NAMEDAPPL
  2
AcAdNamedAppl
  3
DesignerServices
 90
        0
 91
        1
280
     0
281
     0
  0
CLASS
  1
AMDTDMMENUSTATE
  2
AmdtDmMenuState
  3
AcMechDwgViewMgmt
 90
        0
 91
        1
280
     0
281
     0
  0
CLASS
  1
MAPIADMODULE
  2
MApiAdModule
  3
MApiAdServices
 90
        0
 91
        1
280
     0
281
     0
  0
CLASS
  1
AMDTAMMENUSTATE
  2
AmdtAmMenuState
  3
DesignerAssemblies
 90
        0
 91
        1
280
     0
281
     0
  0
CLASS
  1
ACAMPROJECT
  2
AcAmProject
  3
DesignerAssemblies
 90
        0
 91
        1
280
     0
281
     0
  0
CLASS
  1
ACAMGRCOMPDEF
  2
AcAmGrCompDef
  3
DesignerAssemblies
 90
        0
 91
        1
280
     0
281
     0
  0
CLASS
  1
ACCMCONTEXT
  2
AcCmContext
  3
DesignerAssemblies
 90
        0
 91
        1
280
     0
281
     0
  0
CLASS
  1
ACAMCOMPDEF
  2
AcAmCompDef
  3
DesignerAssemblies
 90
        0
 91
        1
280
     0
281
     0
  0
CLASS
  1
ACAMCOMPDEFMGR
  2
AcAmCompDefMgr
  3
DesignerAssemblies
 90
        0
 91
        1
280
     0
281
     0
  0
CLASS
  1
AMCONTEXTMGR
  2
AcAmContextMgr
  3
DesignerAssemblies
 90
        0
 91
        1
280
     0
281
     0
  0
CLASS
  1
ACAMCONTEXTMODELER
  2
AcAmContextModeler
  3
DesignerAssemblies
 90
        0
 91
        1
280
     0
281
     0
  0
CLASS
  1
ACMDATADICTIONARY
  2
AcmDataDictionary
  3
"AcmSymBB|Product Description: AutoCAD Mechanical 2004 DX|Company: Autodesk"
 90
        0
 91
        1
280
     0
281
     0
  0
CLASS
  1
ACMDATAENTRYBLOCK
  2
AcmDataEntryBlock
  3
"AcmSymBB|Product Description: AutoCAD Mechanical 2004 DX|Company: Autodesk"
 90
        0
 91
        1
280
     0
281
     0
  0
CLASS
  1
CATALOGSTATE
  2
AcAmCatalogState
  3
DesignerAssemblies
 90
        0
 91
        1
280
     0
281
     0
  0
CLASS
  1
ACAMGRCOMPDEFSET
  2
AcAmGrCompDefSet
  3
DesignerAssemblies
 90
        0
 91
        1
280
     0
281
     0
  0
CLASS
  1
AMDTBROWSERDBTAB
  2
AmdtBrowserDbTab
  3
McadcomServices
 90
        0
 91
        1
280
     0
281
     0
  0
CLASS
  1
CBROWSERAPPOBJECT
  2
CBrowserAppObject
  3
McadcomServices
 90
        0
 91
        3
280
     0
281
     0
  0
CLASS
  1
DM_PLACEHOLDER
  2
AcDmSelsetPlaceholder
  3
AcMechDwgViewMgmt
 90
        0
 91
        1
280
     0
281
     0
  0
CLASS
  1
ACMSTANDARDANSI
  2
AcmStandardANSI
  3
"Amdt_StdImp|Product Description: AutoCAD Mechanical 2004 DX|Company: Autodesk"
 90
        0
 91
        1
280
     0
281
     0
  0
CLASS
  1
AMGOBJPROPCFG
  2
AmgObjPropCfg
  3
"AmgLay|Product Description: AutoCAD Mechanical 2000|Company: Autodesk"
 90
        1
 91
        1
280
     0
281
     0
  0
CLASS
  1
ACMSURFSTANDARDANSI
  2
AcmSurfTextStdANSI
  3
"Amdt_StdImp|Product Description: AutoCAD Mechanical 2004 DX|Company: Autodesk"
 90
        0
 91
        1
280
     0
281
     0
  0
CLASS
  1
ACMFCFSTANDARDANSI
  2
AcmFCFStdANSI
  3
"Amdt_StdImp|Product Description: AutoCAD Mechanical 2004 DX|Company: Autodesk"
 90
        0
 91
        1
280
     0
281
     0
  0
CLASS
  1
ACMWELDSTANDARDANSI
  2
AcmWeldingStdANSI
  3
"Amdt_StdImp|Product Description: AutoCAD Mechanical 2004 DX|Company: Autodesk"
 90
        0
 91
        1
280
     0
281
     0
  0
CLASS
  1
ACMIDSTANDARDANSI
  2
AcmIdStdANSI
  3
"Amdt_StdImp|Product Description: AutoCAD Mechanical 2004 DX|Company: Autodesk"
 90
        0
 91
        1
280
     0
281
     0
  0
CLASS
  1
ACMDATUMSTANDARDANSI
  2
AcmDatumStdANSI
  3
"Amdt_StdImp|Product Description: AutoCAD Mechanical 2004 DX|Company: Autodesk"
 90
        0
 91
        1
280
     0
281
     0
  0
CLASS
  1
ACMBOMSTANDARDANSI
  2
AcmBOMStdANSI
  3
"Amdt_StdImp|Product Description: AutoCAD Mechanical 2004 DX|Company: Autodesk"
 90
        0
 91
        1
280
     0
281
     0
  0
CLASS
  1
ACMDETAILSTANDARDANSI
  2
AmdtDetailSymStdANSI
  3
"Amdt_StdImp|Product Description: AutoCAD Mechanical 2004 DX|Company: Autodesk"
 90
        0
 91
        1
280
     0
281
     0
  0
CLASS
  1
ACMSECTIONSTANDARDANSI
  2
AmdtSectionSymStdANSI
  3
"Amdt_StdImp|Product Description: AutoCAD Mechanical 2004 DX|Company: Autodesk"
 90
        0
 91
        1
280
     0
281
     0
  0
CLASS
  1
ACMCENTERLINESTANDARDANSI
  2
AmdtCenterLineStdANSI
  3
"Amdt_StdImp|Product Description: AutoCAD Mechanical 2004 DX|Company: Autodesk"
 90
        0
 91
        1
280
     0
281
     0
  0
CLASS
  1
ACMTHREADLINESTANDARDANSI
  2
AmdtThreadLineStdANSI
  3
"Amdt_StdImp|Product Description: AutoCAD Mechanical 2004 DX|Company: Autodesk"
 90
        0
 91
        1
280
     0
281
     0
  0
CLASS
  1
ACMNOTESTANDARDANSI
  2
AmdtNoteStdANSI
  3
"Amdt_StdImp|Product Description: AutoCAD Mechanical 2004 DX|Company: Autodesk"
 90
        0
 91
        1
280
     0
281
     0
  0
CLASS
  1
AMDTNOTETEMPLATEDB
  2
AmdtNoteTemplateDB
  3
AMDT_STDIMP_MODULE_NAME
 90
        0
 91
        6
280
     0
281
     0
  0
CLASS
  1
ACAMGLAYSTD
  2
AcAmgLayStd
  3
"AcAmgLayStd|Product Description: AutoCAD Mechanical 2000|Company: Autodesk"
 90
        0
 91
        1
280
     0
281
     0
  0
CLASS
  1
ACAMGDIMSTD
  2
AcAmgDimStd
  3
"AcAmgDimStd|Product Description: AutoCAD Mechanical 2000|Company: Autodesk"
 90
        0
 91
        1
280
     0
281
     0
  0
CLASS
  1
ACAMGHOLECHARTSTDANSI
  2
AcAmgHoleChartStdANSI
  3
ACMSYMBB_MODULE_NAME
 90
        0
 91
        1
280
     0
281
     0
  0
CLASS
  1
ACAMGTITLESTD
  2
AcAmgTitleStd
  3
"TITLEAPP"
 90
        0
 91
        1
280
     0
281
     0
  0
CLASS
  1
ACAMGFILTERDAT
  2
AcAmgFilterDat
  3
"AcadM|Product Description: AutoCAD Mechanical 2000|Company: Autodesk"
 90
        0
 91
        6
280
     0
281
     0
  0
CLASS
  1
EXACXREFPANELOBJECT
  2
ExAcXREFPanelObject
  3
EXAC_ESW
 90
        0
 91
        1
280
     0
281
     0
  0
ENDSEC
  0
SECTION
  2
TABLES
  0
TABLE
  2
VPORT
  5
7
330
0
100
AcDbSymbolTable
 70
     5
  0
VPORT
  5
A5E
330
7
100
AcDbSymbolTableRecord
100
AcDbViewportTableRecord
  2
*Active
 70
     0
 10
0.0
 20
0.0
 11
1.0
 21
1.0
 12
0.0552540232333838
 22
-0.0007290529759623
 13
0.0
 23
0.0
 14
1.0
 24
1.0
 15
0.0
 25
0.0
 16
0.0
 26
0.0
 36
1.0
 17
0.9239360204094685
 27
-1.198297156171192
 37
0.0
 40
1.329595574926231
 41
1.435540069686411
 42
50.0
 43
0.0
 44
0.0
 50
0.0
 51
0.0
 71
     0
 72
   100
 73
     1
 74
     1
 75
     0
 76
     0
 77
     0
 78
     0
281
     0
 65
     0
110
0.0
120
0.0
130
0.0
111
1.0
121
0.0
131
0.0
112
0.0
122
1.0
132
0.0
 79
     0
146
0.0
  0
ENDTAB
  0
TABLE
  2
LTYPE
  5
4
330
0
100
AcDbSymbolTable
 70
    20
  0
LTYPE
  5
11
330
4
100
AcDbSymbolTableRecord
100
AcDbLinetypeTableRecord
  2
BYBLOCK
 70
     0
  3

 72
    65
 73
     0
 40
0.0
  0
LTYPE
  5
12
330
4
100
AcDbSymbolTableRecord
100
AcDbLinetypeTableRecord
  2
BYLAYER
 70
     0
  3

 72
    65
 73
     0
 40
0.0
  0
LTYPE
  5
13
330
4
100
AcDbSymbolTableRecord
100
AcDbLinetypeTableRecord
  2
CONTINUOUS
 70
     0
  3
Solid line
 72
    65
 73
     0
 40
0.0
  0
LTYPE
  5
1D
330
4
100
AcDbSymbolTableRecord
100
AcDbLinetypeTableRecord
  2
DASHED
 70
     0
  3
_ _ _ _ _ _ _ _ _ _ _ _ _ _ _ _
 72
    65
 73
     2
 40
0.2
 49
0.1
 74
     0
 49
-0.1
 74
     0
  0
LTYPE
  5
1E
330
4
100
AcDbSymbolTableRecord
100
AcDbLinetypeTableRecord
  2
CENTER
 70
     0
  3
___ _ ___ _ ___ _ ___ _ ___ _ ___ _ ___ _ ___ _
 72
    65
 73
     4
 40
0.95
 49
0.625
 74
     0
 49
-0.125
 74
     0
 49
0.075
 74
     0
 49
-0.125
 74
     0
  0
LTYPE
  5
1F
330
4
100
AcDbSymbolTableRecord
100
AcDbLinetypeTableRecord
  2
PHANTOM
 70
     0
  3
______  __  __  ______  __  __  ______  __  __  
 72
    65
 73
     6
 40
1.024999999999999
 49
0.625
 74
     0
 49
-0.125
 74
     0
 49
0.075
 74
     0
 49
-0.125
 74
     0
 49
0.075
 74
     0
 49
-0.125
 74
     0
  0
LTYPE
  5
936
330
4
100
AcDbSymbolTableRecord
100
AcDbLinetypeTableRecord
  2
HIDDEN
 70
     0
  3
Hidden __ __ __ __ __ __ __ __ __ __ __ __ __ _
 72
    65
 73
     2
 40
0.375
 49
0.25
 74
     0
 49
-0.125
 74
     0
  0
LTYPE
  5
937
330
4
100
AcDbSymbolTableRecord
100
AcDbLinetypeTableRecord
  2
PHANTOM2
 70
     0
  3
Phantom (.5x) ___ _ _ ___ _ _ ___ _ _ ___ _ _
 72
    65
 73
     6
 40
1.25
 49
0.625
 74
     0
 49
-0.125
 74
     0
 49
0.125
 74
     0
 49
-0.125
 74
     0
 49
0.125
 74
     0
 49
-0.125
 74
     0
  0
LTYPE
  5
986
330
4
100
AcDbSymbolTableRecord
100
AcDbLinetypeTableRecord
  2
ASULTYPE
 70
     0
  3
Solid line
 72
    65
 73
     2
 40
3.0
 49
2.5
 74
     0
 49
0.5
 74
     0
  0
LTYPE
  5
987
330
4
100
AcDbSymbolTableRecord
100
AcDbLinetypeTableRecord
  2
ASVLTYPE
 70
     0
  3
__ __ __ __ __ __ __ __ __ __ __ __ __ __ __ __ __ __ __ __ __
 72
    65
 73
     2
 40
0.75
 49
0.5
 74
     0
 49
-0.25
 74
     0
  0
LTYPE
  5
9CE
330
4
100
AcDbSymbolTableRecord
100
AcDbLinetypeTableRecord
  2
AM_ISO02W050
 70
     0
  3
__ __ __ __ __ __ __ __ __ __ __ __ __ __ __
 72
    65
 73
     2
 40
7.5
 49
6.0
 74
     0
 49
-1.5
 74
     0
  0
LTYPE
  5
9CF
330
4
100
AcDbSymbolTableRecord
100
AcDbLinetypeTableRecord
  2
AM_ISO08W050
 70
     0
  3
____ . ____ . ____ . ____ . ____ . ____ . ____
 72
    65
 73
     4
 40
18.0
 49
12.0
 74
     0
 49
-1.5
 74
     0
 49
3.0
 74
     0
 49
-1.5
 74
     0
  0
LTYPE
  5
9D0
330
4
100
AcDbSymbolTableRecord
100
AcDbLinetypeTableRecord
  2
AM_ISO09W050
 70
     0
  3
_____ . . _____ . . _____ . . ____ .. ____
 72
    65
 73
     6
 40
22.5
 49
12.0
 74
     0
 49
-1.5
 74
     0
 49
3.0
 74
     0
 49
-1.5
 74
     0
 49
3.0
 74
     0
 49
-1.5
 74
     0
  0
LTYPE
  5
9D1
330
4
100
AcDbSymbolTableRecord
100
AcDbLinetypeTableRecord
  2
Amconstr
 70
     0
  3
_______________________
 72
    65
 73
     2
 40
9999.0
 49
9999.0
 74
     0
 49
0.0
 74
     0
  0
LTYPE
  5
9D2
330
4
100
AcDbSymbolTableRecord
100
AcDbLinetypeTableRecord
  2
AM_ISO08W050x2
 70
     0
  3
__ . __ . __ . __ . __ . __
 72
    65
 73
     4
 40
9.0
 49
6.0
 74
     0
 49
-0.75
 74
     0
 49
1.5
 74
     0
 49
-0.75
 74
     0
  0
LTYPE
  5
9D3
330
4
100
AcDbSymbolTableRecord
100
AcDbLinetypeTableRecord
  2
AM_ISO02W050x2
 70
     0
  3
 _ _ _ _ _ _ _ _ _ _ _ _
 72
    65
 73
     2
 40
3.75
 49
3.0
 74
     0
 49
-0.75
 74
     0
  0
LTYPE
  5
9D6
330
4
100
AcDbSymbolTableRecord
100
AcDbLinetypeTableRecord
  2
Amzigzag
 70
     0
  3
/\/-/\/-/\/-/\/-/\/-/\/
 72
    65
 73
     2
 40
11.0001
 49
0.0001
 74
     4
 75
   136
340
9D5
 46
0.04
 50
0.0
 44
0.0
 45
0.0
 49
-11.0
 74
     0
  0
LTYPE
  5
9D7
330
4
100
AcDbSymbolTableRecord
100
AcDbLinetypeTableRecord
  2
CENTER2
 70
     0
  3
Center (.5x) ___ _ ___ _ ___ _ ___ _ ___ _ ___
 72
    65
 73
     4
 40
1.125
 49
0.75
 74
     0
 49
-0.125
 74
     0
 49
0.125
 74
     0
 49
-0.125
 74
     0
  0
LTYPE
  5
9D8
330
4
100
AcDbSymbolTableRecord
100
AcDbLinetypeTableRecord
  2
HIDDEN2
 70
     0
  3
Hidden (.5x) _ _ _ _ _ _ _ _ _ _ _ _ _ _ _ _ _
 72
    65
 73
     2
 40
0.1875
 49
0.125
 74
     0
 49
-0.0625
 74
     0
  0
LTYPE
  5
9D9
330
4
100
AcDbSymbolTableRecord
100
AcDbLinetypeTableRecord
  2
Amzigzag2
 70
     0
  3
/\/-/\/-/\/-/\/-/\/-/\/
 72
    65
 73
     2
 40
0.4401
 49
0.0001
 74
     4
 75
   136
340
9D5
 46
0.0016
 50
0.0
 44
0.0
 45
0.0
 49
-0.4400000000000001
 74
     0
  0
LTYPE
  5
9E7
330
4
100
AcDbSymbolTableRecord
100
AcDbLinetypeTableRecord
  2
ACANSTGB
 70
     0
  3
__ . . __ . .
 72
    65
 73
     6
 40
0.35433070866
 49
0.15748031496
 74
     0
 49
-0.03937007874
 74
     0
 49
0.03937007874
 74
     0
 49
-0.03937007874
 74
     0
 49
0.03937007874
 74
     0
 49
-0.03937007874
 74
     0
  0
LTYPE
  5
9E8
330
4
100
AcDbSymbolTableRecord
100
AcDbLinetypeTableRecord
  2
ACANSTGL
 70
     0
  3
_ _ _ _ _
 72
    65
 73
     2
 40
0.11811023622
 49
0.07874015748
 74
     0
 49
-0.03937007874
 74
     0
  0
ENDTAB
  0
TABLE
  2
LAYER
  5
2
102
{ACAD_XDICTIONARY
360
A24
102
}
330
0
100
AcDbSymbolTable
 70
     5
  0
LAYER
  5
14
330
2
100
AcDbSymbolTableRecord
100
AcDbLayerTableRecord
  2
0
 70
     0
 62
     7
  6
CONTINUOUS
370
    -3
390
E9
  0
LAYER
  5
25
330
2
100
AcDbSymbolTableRecord
100
AcDbLayerTableRecord
  2
DIMENSIONS
 70
     0
 62
     7
  6
CONTINUOUS
370
    -3
390
E9
  0
LAYER
  5
8D
330
2
100
AcDbSymbolTableRecord
100
AcDbLayerTableRecord
  2
DEFPOINTS
 70
     0
 62
     7
  6
CONTINUOUS
290
     0
370
    -3
390
E9
  0
LAYER
  5
A22
330
2
100
AcDbSymbolTableRecord
100
AcDbLayerTableRecord
  2
PRODUCT
 70
     0
 62
     7
  6
CONTINUOUS
370
    -3
390
E9
1001
AcAecLayerStandard
1000

1000

  0
ENDTAB
  0
TABLE
  2
STYLE
  5
3
330
0
100
AcDbSymbolTable
 70
     4
  0
STYLE
  5
17
330
3
100
AcDbSymbolTableRecord
100
AcDbTextStyleTableRecord
  2
STANDARD
 70
     0
 40
0.0
 41
1.0
 50
0.0
 71
     0
 42
0.0
  3
txt
  4

  0
STYLE
  5
9D5
330
3
100
AcDbSymbolTableRecord
100
AcDbTextStyleTableRecord
  2

 70
     1
 40
0.0
 41
1.0
 50
0.0
 71
     0
 42
0.02
  3
genltshp.shx
  4

  0
STYLE
  5
9DA
330
3
100
AcDbSymbolTableRecord
100
AcDbTextStyleTableRecord
  2
ACANSTS
 70
     0
 40
1.0
 41
1.0
 50
0.0
 71
     0
 42
0.02
  3
romans.shx
  4

  0
STYLE
  5
9E6
330
3
100
AcDbSymbolTableRecord
100
AcDbTextStyleTableRecord
  2
ACANSGDT
 70
     0
 40
0.0
 41
1.0
 50
0.0
 71
     0
 42
0.02
  3
AMGDT
  4

  0
ENDTAB
  0
TABLE
  2
VIEW
  5
5
330
0
100
AcDbSymbolTable
 70
     0
  0
ENDTAB
  0
TABLE
  2
UCS
  5
6
330
0
100
AcDbSymbolTable
 70
     3
  0
UCS
  5
20
330
6
100
AcDbSymbolTableRecord
100
AcDbUCSTableRecord
  2
CK_VIEW_1
 70
     0
 10
0.0
 20
0.0
 30
1.0
 11
1.0
 21
0.0
 31
0.0
 12
0.0
 22
1.0
 32
0.0
 79
     0
146
0.0
  0
UCS
  5
2E
330
6
100
AcDbSymbolTableRecord
100
AcDbUCSTableRecord
  2
CK_VIEW_1
 70
     0
 10
0.0
 20
0.0
 30
1.0
 11
1.0
 21
0.0
 31
0.0
 12
0.0
 22
1.0
 32
0.0
 79
     0
146
0.0
  0
UCS
  5
38
330
6
100
AcDbSymbolTableRecord
100
AcDbUCSTableRecord
  2
CK_VIEW_1
 70
     0
 10
0.0
 20
0.0
 30
1.0
 11
1.0
 21
0.0
 31
0.0
 12
0.0
 22
1.0
 32
0.0
 79
     0
146
0.0
  0
ENDTAB
  0
TABLE
  2
APPID
  5
8
330
0
100
AcDbSymbolTable
 70
    18
  0
APPID
  5
16
330
8
100
AcDbSymbolTableRecord
100
AcDbRegAppTableRecord
  2
ACAD
 70
     0
  0
APPID
  5
F2
330
8
100
AcDbSymbolTableRecord
100
AcDbRegAppTableRecord
  2
DCO15
 70
     0
  0
APPID
  5
8EF
330
8
100
AcDbSymbolTableRecord
100
AcDbRegAppTableRecord
  2
ACAD_PSEXT
 70
     0
  0
APPID
  5
902
330
8
100
AcDbSymbolTableRecord
100
AcDbRegAppTableRecord
  2
GENIUS_GENDIM_13
 70
     0
  0
APPID
  5
903
330
8
100
AcDbSymbolTableRecord
100
AcDbRegAppTableRecord
  2
GENIUS_GENDTOL_13
 70
     0
  0
APPID
  5
904
330
8
100
AcDbSymbolTableRecord
100
AcDbRegAppTableRecord
  2
GENIUS_GE3DTOL_13
 70
     0
  0
APPID
  5
907
330
8
100
AcDbSymbolTableRecord
100
AcDbRegAppTableRecord
  2
MCAD_NO_VIS
 70
     0
  0
APPID
  5
908
330
8
100
AcDbSymbolTableRecord
100
AcDbRegAppTableRecord
  2
ACAD_TEMP_GRAPHIC
 70
     0
  0
APPID
  5
939
330
8
100
AcDbSymbolTableRecord
100
AcDbRegAppTableRecord
  2
AD_DRAW
 70
     0
  0
APPID
  5
93C
330
8
100
AcDbSymbolTableRecord
100
AcDbRegAppTableRecord
  2
ACATTRIBSERVICES
 70
     0
  0
APPID
  5
988
330
8
100
AcDbSymbolTableRecord
100
AcDbRegAppTableRecord
  2
ASURF_PCURVE_APPNAME
 70
     0
  0
APPID
  5
98D
330
8
100
AcDbSymbolTableRecord
100
AcDbRegAppTableRecord
  2
AMG_3D2D_5.0
 70
     0
  0
APPID
  5
9BE
330
8
100
AcDbSymbolTableRecord
100
AcDbRegAppTableRecord
  2
DESIGNERASSEMBLIES
 70
     0
  0
APPID
  5
9C5
330
8
100
AcDbSymbolTableRecord
100
AcDbRegAppTableRecord
  2
ACADM_DIM_EDIT
 70
     0
  0
APPID
  5
9C6
330
8
100
AcDbSymbolTableRecord
100
AcDbRegAppTableRecord
  2
AMDT_DM_ADJ
 70
     0
  0
APPID
  5
9F4
330
8
100
AcDbSymbolTableRecord
100
AcDbRegAppTableRecord
  2
ACAD_DSTYLE_DIMARC_LENGTH_SYMBOL
 70
     0
  0
APPID
  5
9F5
330
8
100
AcDbSymbolTableRecord
100
AcDbRegAppTableRecord
  2
ACAD_DSTYLE_DIMJOGGED_JOGANGLE_SYMBOL
 70
     0
  0
APPID
  5
A23
330
8
100
AcDbSymbolTableRecord
100
AcDbRegAppTableRecord
  2
AcAecLayerStandard
 70
     0
  0
ENDTAB
  0
TABLE
  2
DIMSTYLE
  5
9
330
0
100
AcDbSymbolTable
 70
    13
100
AcDbDimStyleTable
 71
     0
  0
DIMSTYLE
105
18
330
9
100
AcDbSymbolTableRecord
100
AcDbDimStyleTableRecord
  2
STANDARD
 70
     0
289
     0
340
17
  0
DIMSTYLE
105
89
102
{ACAD_REACTORS
330
516
102
}
330
9
100
AcDbSymbolTableRecord
100
AcDbDimStyleTableRecord
  2
DIMSTYLE1
 70
     0
 41
0.0125
 44
0.0125
140
0.0125
289
     0
340
17
  0
DIMSTYLE
105
99
102
{ACAD_REACTORS
330
515
102
}
330
9
100
AcDbSymbolTableRecord
100
AcDbDimStyleTableRecord
  2
DIMSTYLE2
 70
     0
 41
0.0125
 44
0.0125
140
0.0125
289
     0
340
17
  0
DIMSTYLE
105
A8
102
{ACAD_REACTORS
330
526
102
}
330
9
100
AcDbSymbolTableRecord
100
AcDbDimStyleTableRecord
  2
DIMSTYLE3
 70
     0
 41
0.0125
 44
0.0125
140
0.0125
289
     0
340
17
  0
DIMSTYLE
105
B7
102
{ACAD_REACTORS
330
514
102
}
330
9
100
AcDbSymbolTableRecord
100
AcDbDimStyleTableRecord
  2
DIMSTYLE4
 70
     0
 41
0.0125
 44
0.0125
140
0.0125
289
     0
340
17
  0
DIMSTYLE
105
C6
102
{ACAD_REACTORS
330
517
102
}
330
9
100
AcDbSymbolTableRecord
100
AcDbDimStyleTableRecord
  2
DIMSTYLE5
 70
     0
 41
0.0125
 44
0.0125
140
0.0125
289
     0
340
17
  0
DIMSTYLE
105
D5
102
{ACAD_REACTORS
330
51A
102
}
330
9
100
AcDbSymbolTableRecord
100
AcDbDimStyleTableRecord
  2
DIMSTYLE6
 70
     0
 41
0.0125
 44
0.0125
140
0.0125
289
     0
340
17
  0
DIMSTYLE
105
9F3
330
9
100
AcDbSymbolTableRecord
100
AcDbDimStyleTableRecord
  2
AM_ANSI
 70
     0
  4
mm
 41
0.1
 42
0.05
 43
0.5
 44
0.1
 47
0.1
 48
0.1
 78
     7
 79
     2
140
0.12
141
0.0
146
0.71
147
0.06
176
   256
177
   256
178
     2
274
     4
284
     7
340
17
371
    -1
372
    -1
1001
ACAD_DSTYLE_DIMARC_LENGTH_SYMBOL
1070
   379
1070
     1
1001
ACAD_DSTYLE_DIMJOGGED_JOGANGLE_SYMBOL
1070
   384
1040
0.7853981633974483
  0
DIMSTYLE
105
9FC
330
9
100
AcDbSymbolTableRecord
100
AcDbDimStyleTableRecord
  2
AM_ANSI$3
 70
     0
  4
mm
 41
0.1
 42
0.05
 43
0.5
 44
0.1
 47
0.1
 48
0.1
 78
     7
 79
     2
140
0.12
141
0.0
146
0.71
147
0.06
176
   256
177
   256
178
     2
274
     4
284
     7
288
     1
289
     0
340
17
371
    -1
372
    -1
1001
ACAD_DSTYLE_DIMARC_LENGTH_SYMBOL
1070
   379
1070
     1
1001
ACAD_DSTYLE_DIMJOGGED_JOGANGLE_SYMBOL
1070
   384
1040
0.7853981633974483
  0
DIMSTYLE
105
9FF
330
9
100
AcDbSymbolTableRecord
100
AcDbDimStyleTableRecord
  2
AM_ANSI$4
 70
     0
  4
mm
 41
0.1
 42
0.05
 43
0.5
 44
0.1
 47
0.1
 48
0.1
 78
     7
 79
     2
140
0.12
141
0.0
146
0.71
147
0.06
176
   256
177
   256
178
     2
274
     4
284
     7
288
     1
289
     0
340
17
371
    -1
372
    -1
1001
ACAD_DSTYLE_DIMARC_LENGTH_SYMBOL
1070
   379
1070
     1
1001
ACAD_DSTYLE_DIMJOGGED_JOGANGLE_SYMBOL
1070
   384
1040
0.7853981633974483
  0
DIMSTYLE
105
A04
330
9
100
AcDbSymbolTableRecord
100
AcDbDimStyleTableRecord
  2
AM_ANSI$7
 70
     0
  4
mm
 41
0.1
 42
0.05
 43
0.5
 44
0.1
 47
0.1
 48
0.1
 78
     7
 79
     2
140
0.24
141
0.0
146
0.71
147
0.06
176
   256
177
   256
178
     2
274
     4
284
     7
340
17
371
    -1
372
    -1
1001
ACAD_DSTYLE_DIMARC_LENGTH_SYMBOL
1070
   379
1070
     1
1001
ACAD_DSTYLE_DIMJOGGED_JOGANGLE_SYMBOL
1070
   384
1040
0.7853981633974483
  0
DIMSTYLE
105
A07
330
9
100
AcDbSymbolTableRecord
100
AcDbDimStyleTableRecord
  2
AM_ANSI$SF
 70
     0
  4
mm
 41
0.1
 42
0.05
 43
0.5
 44
0.1
 47
0.1
 48
0.1
 75
     1
 76
     1
 78
     7
 79
     2
140
0.12
141
0.0
146
0.71
147
0.06
176
   256
177
   256
178
     2
274
     4
284
     7
340
17
371
    -1
372
    -1
1001
ACAD_DSTYLE_DIMARC_LENGTH_SYMBOL
1070
   379
1070
     1
1001
ACAD_DSTYLE_DIMJOGGED_JOGANGLE_SYMBOL
1070
   384
1040
0.7853981633974483
  0
DIMSTYLE
105
A0E
330
9
100
AcDbSymbolTableRecord
100
AcDbDimStyleTableRecord
  2
AM_ANSI$SH
 70
     0
  4
mm
 41
0.1
 42
0.05
 43
0.5
 44
0.1
 47
0.1
 48
0.1
 75
     1
 76
     1
 78
     7
 79
     2
140
0.12
141
0.0
146
0.71
147
0.06
173
     1
176
   256
177
   256
178
     2
274
     4
284
     7
340
17
343
A08
371
    -1
372
    -1
1001
ACAD_DSTYLE_DIMARC_LENGTH_SYMBOL
1070
   379
1070
     1
1001
ACAD_DSTYLE_DIMJOGGED_JOGANGLE_SYMBOL
1070
   384
1040
0.7853981633974483
  0
ENDTAB
  0
TABLE
  2
BLOCK_RECORD
  5
1
330
0
100
AcDbSymbolTable
 70
    10
  0
BLOCK_RECORD
  5
A
102
{ACAD_XDICTIONARY
360
A16
102
}
330
1
100
AcDbSymbolTableRecord
100
AcDbBlockTableRecord
  2
*MODEL_SPACE
340
EC
  0
BLOCK_RECORD
  5
B
330
1
100
AcDbSymbolTableRecord
100
AcDbBlockTableRecord
  2
*PAPER_SPACE
340
ED
  0
BLOCK_RECORD
  5
27
330
1
100
AcDbSymbolTableRecord
100
AcDbBlockTableRecord
  2
GENDIM2
340
0
  0
BLOCK_RECORD
  5
31
330
1
100
AcDbSymbolTableRecord
100
AcDbBlockTableRecord
  2
GENDIM3
340
0
  0
BLOCK_RECORD
  5
527
330
1
100
AcDbSymbolTableRecord
100
AcDbBlockTableRecord
  2
*D2
340
0
  0
BLOCK_RECORD
  5
534
330
1
100
AcDbSymbolTableRecord
100
AcDbBlockTableRecord
  2
*D3
340
0
  0
BLOCK_RECORD
  5
541
330
1
100
AcDbSymbolTableRecord
100
AcDbBlockTableRecord
  2
*D4
340
0
  0
BLOCK_RECORD
  5
54E
330
1
100
AcDbSymbolTableRecord
100
AcDbBlockTableRecord
  2
*D5
340
0
  0
BLOCK_RECORD
  5
55B
330
1
100
AcDbSymbolTableRecord
100
AcDbBlockTableRecord
  2
*D6
340
0
  0
BLOCK_RECORD
  5
568
330
1
100
AcDbSymbolTableRecord
100
AcDbBlockTableRecord
  2
*D7
340
0
  0
BLOCK_RECORD
  5
9B5
330
1
100
AcDbSymbolTableRecord
100
AcDbBlockTableRecord
  2
*U8
340
0
  0
BLOCK_RECORD
  5
A08
330
1
100
AcDbSymbolTableRecord
100
AcDbBlockTableRecord
  2
GENAXEH
340
0
  0
ENDTAB
  0
ENDSEC
  0
SECTION
  2
BLOCKS
  0
BLOCK
  5
D
330
A
100
AcDbEntity
  8
0
100
AcDbBlockBegin
  2
*MODEL_SPACE
 70
     0
 10
0.0
 20
0.0
 30
0.0
  3
*MODEL_SPACE
  1

  0
ENDBLK
  5
E
330
A
100
AcDbEntity
  8
0
100
AcDbBlockEnd
  0
BLOCK
  5
F
330
B
100
AcDbEntity
 67
     1
  8
0
100
AcDbBlockBegin
  2
*PAPER_SPACE
 70
     0
 10
0.0
 20
0.0
 30
0.0
  3
*PAPER_SPACE
  1

  0
ENDBLK
  5
10
330
B
100
AcDbEntity
 67
     1
  8
0
100
AcDbBlockEnd
  0
BLOCK
  5
28
330
27
100
AcDbEntity
  8
0
100
AcDbBlockBegin
  2
GENDIM2
 70
     0
 10
0.0
 20
0.0
 30
0.0
  3
GENDIM2
  1

  0
LINE
  5
29
330
27
100
AcDbEntity
  8
DIMENSIONS
  6
Continuous
 62
     5
100
AcDbLine
 10
0.6780121557996458
 20
-1.375903194829404
 30
0.0
 11
0.7180121557996458
 21
-1.375903194829404
 31
0.0
  0
LINE
  5
2A
330
27
100
AcDbEntity
  8
DIMENSIONS
  6
Continuous
 62
     5
100
AcDbLine
 10
0.7180121557996458
 20
-1.375903194829404
 30
0.0
 11
0.7837837616218843
 21
-1.2585608890552
 31
0.0
  0
3DFACE
  5
2B
330
27
100
AcDbEntity
  8
DIMENSIONS
  6
Continuous
 62
     5
100
AcDbFace
 10
0.7837837616218843
 20
-1.2585608890552
 30
0.0
 11
0.776621861805049
 21
-1.277474037682904
 31
0.0
 12
0.7713879653781017
 22
-1.274540383273811
 32
0.0
 13
0.7713879653781017
 23
-1.274540383273811
 33
0.0
 70
     4
  0
TEXT
  5
2C
330
27
100
AcDbEntity
  8
DIMENSIONS
  6
Continuous
 62
     5
100
AcDbText
 10
0.5580121557996458
 20
-1.385903194829404
 30
0.0
 40
0.02
  1
Natural TPE
 41
0.5
100
AcDbText
  0
ENDBLK
  5
2D
330
27
100
AcDbEntity
  8
0
100
AcDbBlockEnd
  0
BLOCK
  5
32
330
31
100
AcDbEntity
  8
0
100
AcDbBlockBegin
  2
GENDIM3
 70
     0
 10
0.0
 20
0.0
 30
0.0
  3
GENDIM3
  1

  0
LINE
  5
33
330
31
100
AcDbEntity
  8
DIMENSIONS
  6
Continuous
 62
     5
100
AcDbLine
 10
0.6826135447763223
 20
-0.7583816065778804
 30
0.0
 11
0.7226135447763224
 21
-0.7583816065778804
 31
0.0
  0
LINE
  5
34
330
31
100
AcDbEntity
  8
DIMENSIONS
  6
Continuous
 62
     5
100
AcDbLine
 10
0.7226135447763224
 20
-0.7583816065778804
 30
0.0
 11
0.8687837616218846
 21
-0.8930910954304781
 31
0.0
  0
3DFACE
  5
35
330
31
100
AcDbEntity
  8
DIMENSIONS
  6
Continuous
 62
     5
100
AcDbFace
 10
0.8687837616218846
 20
-0.8930910954304781
 30
0.0
 11
0.8520437498970533
 21
-0.8817433199897802
 31
0.0
 12
0.8561098947966396
 22
-0.8773312382072687
 32
0.0
 13
0.8561098947966396
 23
-0.8773312382072687
 33
0.0
 70
     4
  0
TEXT
  5
36
330
31
100
AcDbEntity
  8
DIMENSIONS
  6
Continuous
 62
     5
100
AcDbText
 10
0.5126135447763223
 20
-0.7683816065778803
 30
0.0
 40
0.02
  1
Colored Slip TPE
 41
0.5
100
AcDbText
  0
ENDBLK
  5
37
330
31
100
AcDbEntity
  8
0
100
AcDbBlockEnd
  0
BLOCK
  5
532
330
527
100
AcDbEntity
  8
0
 62
     1
100
AcDbBlockBegin
  2
*D2
 70
     1
 10
0.0
 20
0.0
 30
0.0
  3
*D2
  1

  0
LINE
  5
8AE
330
527
100
AcDbEntity
  8
DIMENSIONS
  6
Continuous
 62
     0
370
    -2
100
AcDbLine
 10
0.8513197541589516
 20
-1.30616665164227
 30
0.0
 11
0.8638197541589518
 21
-1.30616665164227
 31
0.0
  0
LINE
  5
8AF
330
527
100
AcDbEntity
  8
DIMENSIONS
  6
Continuous
 62
     0
370
    -2
100
AcDbLine
 10
0.7913197541589526
 20
-1.30616665164227
 30
0.0
 11
0.7788197541589525
 21
-1.30616665164227
 31
0.0
  0
SOLID
  5
8B0
330
527
100
AcDbEntity
  8
DIMENSIONS
  6
Continuous
 62
     0
100
AcDbTrace
 10
0.8513197541589516
 20
-1.304083318308937
 30
0.0
 11
0.8513197541589516
 21
-1.308249984975604
 31
0.0
 12
0.8388197541589516
 22
-1.30616665164227
 32
0.0
 13
0.8388197541589516
 23
-1.30616665164227
 33
0.0
  0
SOLID
  5
8B1
330
527
100
AcDbEntity
  8
DIMENSIONS
  6
Continuous
 62
     0
100
AcDbTrace
 10
0.7913197541589526
 20
-1.304083318308937
 30
0.0
 11
0.7913197541589526
 21
-1.308249984975604
 31
0.0
 12
0.8038197541589525
 22
-1.30616665164227
 32
0.0
 13
0.8038197541589525
 23
-1.30616665164227
 33
0.0
  0
MTEXT
  5
8B2
330
527
100
AcDbEntity
  8
DIMENSIONS
  6
Continuous
 62
     0
100
AcDbMText
 10
0.7271114208256191
 20
-1.30616665164227
 30
0.0
 40
0.0125
 41
0.0
 71
     5
 72
     1
  1
\A1;.035\S+.006^ -.002;
 73
     1
 44
1.0
  0
POINT
  5
8B3
330
527
100
AcDbEntity
  8
DEFPOINTS
  6
Continuous
 62
     0
100
AcDbPoint
 10
0.8388197541589516
 20
-1.306732202347217
 30
0.0
  0
POINT
  5
8B4
330
527
100
AcDbEntity
  8
DEFPOINTS
  6
Continuous
 62
     0
100
AcDbPoint
 10
0.8038197541589525
 20
-1.306732202347217
 30
0.0
  0
POINT
  5
8B5
330
527
100
AcDbEntity
  8
DEFPOINTS
  6
Continuous
 62
     0
100
AcDbPoint
 10
0.8038197541589525
 20
-1.30616665164227
 30
0.0
  0
ENDBLK
  5
533
330
527
100
AcDbEntity
  8
0
 62
     1
100
AcDbBlockEnd
  0
BLOCK
  5
53F
330
534
100
AcDbEntity
  8
0
 62
     1
100
AcDbBlockBegin
  2
*D3
 70
     1
 10
0.0
 20
0.0
 30
0.0
  3
*D3
  1

  0
LINE
  5
87E
330
534
100
AcDbEntity
  8
DIMENSIONS
  6
Continuous
 62
     0
370
    -2
100
AcDbLine
 10
0.8013197541589633
 20
-1.067562075485634
 30
0.0
 11
0.8138197541589633
 21
-1.067562075485634
 31
0.0
  0
LINE
  5
87F
330
534
100
AcDbEntity
  8
DIMENSIONS
  6
Continuous
 62
     0
370
    -2
100
AcDbLine
 10
0.7513197541589634
 20
-1.067562075485634
 30
0.0
 11
0.6474030874922966
 21
-1.067562075485634
 31
0.0
  0
SOLID
  5
880
330
534
100
AcDbEntity
  8
DIMENSIONS
  6
Continuous
 62
     0
100
AcDbTrace
 10
0.8013197541589633
 20
-1.0654787421523
 30
0.0
 11
0.8013197541589633
 21
-1.069645408818967
 31
0.0
 12
0.7888197541589634
 22
-1.067562075485634
 32
0.0
 13
0.7888197541589634
 23
-1.067562075485634
 33
0.0
  0
SOLID
  5
881
330
534
100
AcDbEntity
  8
DIMENSIONS
  6
Continuous
 62
     0
100
AcDbTrace
 10
0.7513197541589634
 20
-1.0654787421523
 30
0.0
 11
0.7513197541589634
 21
-1.069645408818967
 31
0.0
 12
0.7638197541589634
 22
-1.067562075485634
 32
0.0
 13
0.7638197541589634
 23
-1.067562075485634
 33
0.0
  0
MTEXT
  5
882
330
534
100
AcDbEntity
  8
DIMENSIONS
  6
Continuous
 62
     0
100
AcDbMText
 10
0.5956947541589633
 20
-1.067562075485634
 30
0.0
 40
0.0125
 41
0.0
 71
     5
 72
     1
  1
\A1;.025±.004
 73
     1
 44
1.0
  0
POINT
  5
883
330
534
100
AcDbEntity
  8
DEFPOINTS
  6
Continuous
 62
     0
100
AcDbPoint
 10
0.7638197541589634
 20
-1.066262408722495
 30
0.0
  0
POINT
  5
884
330
534
100
AcDbEntity
  8
DEFPOINTS
  6
Continuous
 62
     0
100
AcDbPoint
 10
0.7888197541589634
 20
-1.066262408722495
 30
0.0
  0
POINT
  5
885
330
534
100
AcDbEntity
  8
DEFPOINTS
  6
Continuous
 62
     0
100
AcDbPoint
 10
0.7888197541589634
 20
-1.067562075485634
 30
0.0
  0
ENDBLK
  5
540
330
534
100
AcDbEntity
  8
0
 62
     1
100
AcDbBlockEnd
  0
BLOCK
  5
54C
330
541
100
AcDbEntity
  8
0
 62
     1
100
AcDbBlockBegin
  2
*D4
 70
     1
 10
0.0
 20
0.0
 30
0.0
  3
*D4
  1

  0
LINE
  5
886
330
541
100
AcDbEntity
  8
DIMENSIONS
  6
Continuous
 62
     0
370
    -2
100
AcDbLine
 10
0.9598197541589632
 20
-1.217957561649162
 30
0.0
 11
0.9723197541589632
 21
-1.217957561649162
 31
0.0
  0
LINE
  5
887
330
541
100
AcDbEntity
  8
DIMENSIONS
  6
Continuous
 62
     0
370
    -2
100
AcDbLine
 10
0.8178197541589632
 20
-1.217957561649162
 30
0.0
 11
0.7118197541589633
 21
-1.217957561649162
 31
0.0
  0
SOLID
  5
888
330
541
100
AcDbEntity
  8
DIMENSIONS
  6
Continuous
 62
     0
100
AcDbTrace
 10
0.9598197541589632
 20
-1.215874228315829
 30
0.0
 11
0.9598197541589632
 21
-1.220040894982495
 31
0.0
 12
0.9473197541589632
 22
-1.217957561649162
 32
0.0
 13
0.9473197541589632
 23
-1.217957561649162
 33
0.0
  0
SOLID
  5
889
330
541
100
AcDbEntity
  8
DIMENSIONS
  6
Continuous
 62
     0
100
AcDbTrace
 10
0.8178197541589632
 20
-1.215874228315829
 30
0.0
 11
0.8178197541589632
 21
-1.220040894982495
 31
0.0
 12
0.8303197541589632
 22
-1.217957561649162
 32
0.0
 13
0.8303197541589632
 23
-1.217957561649162
 33
0.0
  0
MTEXT
  5
88A
330
541
100
AcDbEntity
  8
DIMENSIONS
  6
Continuous
 62
     0
100
AcDbMText
 10
0.6653197541589633
 20
-1.217957561649162
 30
0.0
 40
0.0125
 41
0.0
 71
     5
 72
     1
  1
\A1;.117±.010
 73
     1
 44
1.0
  0
POINT
  5
88B
330
541
100
AcDbEntity
  8
DEFPOINTS
  6
Continuous
 62
     0
100
AcDbPoint
 10
0.8303197541589632
 20
-1.217191353568699
 30
0.0
  0
POINT
  5
88C
330
541
100
AcDbEntity
  8
DEFPOINTS
  6
Continuous
 62
     0
100
AcDbPoint
 10
0.9473197541589632
 20
-1.217191353568719
 30
0.0
  0
POINT
  5
88D
330
541
100
AcDbEntity
  8
DEFPOINTS
  6
Continuous
 62
     0
100
AcDbPoint
 10
0.9473197541589632
 20
-1.217957561649162
 30
0.0
  0
ENDBLK
  5
54D
330
541
100
AcDbEntity
  8
0
 62
     1
100
AcDbBlockEnd
  0
BLOCK
  5
559
330
54E
100
AcDbEntity
  8
0
 62
     1
100
AcDbBlockBegin
  2
*D5
 70
     1
 10
0.0
 20
0.0
 30
0.0
  3
*D5
  1

  0
LINE
  5
86A
330
54E
100
AcDbEntity
  8
DIMENSIONS
  6
Continuous
 62
     0
370
    -2
100
AcDbLine
 10
0.9513197541589523
 20
-0.941262408722495
 30
0.0
 11
1.109435995137675
 21
-0.941262408722495
 31
0.0
  0
LINE
  5
86B
330
54E
100
AcDbEntity
  8
DIMENSIONS
  6
Continuous
 62
     0
370
    -2
100
AcDbLine
 10
0.9513197541589523
 20
-1.391732202347217
 30
0.0
 11
1.109435995137675
 21
-1.391732202347217
 31
0.0
  0
LINE
  5
86C
330
54E
100
AcDbEntity
  8
DIMENSIONS
  6
Continuous
 62
     0
370
    -2
100
AcDbLine
 10
1.096935995137675
 20
-0.953762408722495
 30
0.0
 11
1.096935995137675
 21
-1.151247305534856
 31
0.0
  0
LINE
  5
86D
330
54E
100
AcDbEntity
  8
DIMENSIONS
  6
Continuous
 62
     0
370
    -2
100
AcDbLine
 10
1.096935995137675
 20
-1.379232202347217
 30
0.0
 11
1.096935995137675
 21
-1.181747305534856
 31
0.0
  0
SOLID
  5
86E
330
54E
100
AcDbEntity
  8
DIMENSIONS
  6
Continuous
 62
     0
100
AcDbTrace
 10
1.094852661804341
 20
-0.953762408722495
 30
0.0
 11
1.099019328471008
 21
-0.953762408722495
 31
0.0
 12
1.096935995137675
 22
-0.941262408722495
 32
0.0
 13
1.096935995137675
 23
-0.941262408722495
 33
0.0
  0
SOLID
  5
86F
330
54E
100
AcDbEntity
  8
DIMENSIONS
  6
Continuous
 62
     0
100
AcDbTrace
 10
1.094852661804341
 20
-1.379232202347217
 30
0.0
 11
1.099019328471008
 21
-1.379232202347217
 31
0.0
 12
1.096935995137675
 22
-1.391732202347217
 32
0.0
 13
1.096935995137675
 23
-1.391732202347217
 33
0.0
  0
MTEXT
  5
870
330
54E
100
AcDbEntity
  8
DIMENSIONS
  6
Continuous
 62
     0
100
AcDbMText
 10
1.096935995137675
 20
-1.166497305534855
 30
0.0
 40
0.0125
 41
0.0
 71
     5
 72
     1
  1
\A1;.450±.015
 73
     1
 44
1.0
  0
POINT
  5
871
330
54E
100
AcDbEntity
  8
DEFPOINTS
  6
Continuous
 62
     0
100
AcDbPoint
 10
0.8888197541589523
 20
-0.941262408722495
 30
0.0
  0
POINT
  5
872
330
54E
100
AcDbEntity
  8
DEFPOINTS
  6
Continuous
 62
     0
100
AcDbPoint
 10
0.8888197541589523
 20
-1.391732202347217
 30
0.0
  0
POINT
  5
873
330
54E
100
AcDbEntity
  8
DEFPOINTS
  6
Continuous
 62
     0
100
AcDbPoint
 10
1.096935995137675
 20
-1.391732202347217
 30
0.0
  0
ENDBLK
  5
55A
330
54E
100
AcDbEntity
  8
0
 62
     1
100
AcDbBlockEnd
  0
BLOCK
  5
566
330
55B
100
AcDbEntity
  8
0
 62
     1
100
AcDbBlockBegin
  2
*D6
 70
     1
 10
0.0
 20
0.0
 30
0.0
  3
*D6
  1

  0
LINE
  5
860
330
55B
100
AcDbEntity
  8
DIMENSIONS
  6
Continuous
 62
     0
370
    -2
100
AcDbLine
 10
0.8038197541589525
 20
-1.369232202347217
 30
0.0
 11
0.8038197541589525
 21
-1.536578449874497
 31
0.0
  0
LINE
  5
861
330
55B
100
AcDbEntity
  8
DIMENSIONS
  6
Continuous
 62
     0
370
    -2
100
AcDbLine
 10
0.9738197541589524
 20
-1.369232202347217
 30
0.0
 11
0.9738197541589524
 21
-1.536578449874497
 31
0.0
  0
LINE
  5
862
330
55B
100
AcDbEntity
  8
DIMENSIONS
  6
Continuous
 62
     0
370
    -2
100
AcDbLine
 10
0.8163197541589523
 20
-1.524078449874497
 30
0.0
 11
0.8412780874922857
 21
-1.524078449874497
 31
0.0
  0
LINE
  5
863
330
55B
100
AcDbEntity
  8
DIMENSIONS
  6
Continuous
 62
     0
370
    -2
100
AcDbLine
 10
0.9613197541589524
 20
-1.524078449874497
 30
0.0
 11
0.9363614208256191
 21
-1.524078449874497
 31
0.0
  0
SOLID
  5
864
330
55B
100
AcDbEntity
  8
DIMENSIONS
  6
Continuous
 62
     0
100
AcDbTrace
 10
0.8163197541589523
 20
-1.521995116541163
 30
0.0
 11
0.8163197541589523
 21
-1.52616178320783
 31
0.0
 12
0.8038197541589525
 22
-1.524078449874497
 32
0.0
 13
0.8038197541589525
 23
-1.524078449874497
 33
0.0
  0
SOLID
  5
865
330
55B
100
AcDbEntity
  8
DIMENSIONS
  6
Continuous
 62
     0
100
AcDbTrace
 10
0.9613197541589524
 20
-1.521995116541163
 30
0.0
 11
0.9613197541589524
 21
-1.52616178320783
 31
0.0
 12
0.9738197541589524
 22
-1.524078449874497
 32
0.0
 13
0.9738197541589524
 23
-1.524078449874497
 33
0.0
  0
MTEXT
  5
866
330
55B
100
AcDbEntity
  8
DIMENSIONS
  6
Continuous
 62
     0
100
AcDbMText
 10
0.8888197541589523
 20
-1.524078449874497
 30
0.0
 40
0.0125
 41
0.0
 71
     5
 72
     1
  1
\A1;.170±.010
 73
     1
 44
1.0
  0
POINT
  5
867
330
55B
100
AcDbEntity
  8
DEFPOINTS
  6
Continuous
 62
     0
100
AcDbPoint
 10
0.8038197541589525
 20
-1.306732202347217
 30
0.0
  0
POINT
  5
868
330
55B
100
AcDbEntity
  8
DEFPOINTS
  6
Continuous
 62
     0
100
AcDbPoint
 10
0.9738197541589524
 20
-1.306732202347217
 30
0.0
  0
POINT
  5
869
330
55B
100
AcDbEntity
  8
DEFPOINTS
  6
Continuous
 62
     0
100
AcDbPoint
 10
0.9738197541589524
 20
-1.524078449874497
 30
0.0
  0
ENDBLK
  5
567
330
55B
100
AcDbEntity
  8
0
 62
     1
100
AcDbBlockEnd
  0
BLOCK
  5
573
330
568
100
AcDbEntity
  8
0
 62
     1
100
AcDbBlockBegin
  2
*D7
 70
     1
 10
0.0
 20
0.0
 30
0.0
  3
*D7
  1

  0
LINE
  5
874
330
568
100
AcDbEntity
  8
DIMENSIONS
  6
Continuous
 62
     0
370
    -2
100
AcDbLine
 10
0.7638197541589634
 20
-1.003762408722495
 30
0.0
 11
0.7638197541589634
 21
-0.8306042756858612
 31
0.0
  0
LINE
  5
875
330
568
100
AcDbEntity
  8
DIMENSIONS
  6
Continuous
 62
     0
370
    -2
100
AcDbLine
 10
1.013819754158963
 20
-1.003762408722495
 30
0.0
 11
1.013819754158963
 21
-0.8306042756858612
 31
0.0
  0
LINE
  5
876
330
568
100
AcDbEntity
  8
DIMENSIONS
  6
Continuous
 62
     0
370
    -2
100
AcDbLine
 10
0.7763197541589633
 20
-0.8431042756858614
 30
0.0
 11
0.858947976713296
 21
-0.8431042756858614
 31
0.0
  0
LINE
  5
877
330
568
100
AcDbEntity
  8
DIMENSIONS
  6
Continuous
 62
     0
370
    -2
100
AcDbLine
 10
1.001319754158963
 20
-0.8431042756858614
 30
0.0
 11
0.9581979767132962
 21
-0.8431042756858614
 31
0.0
  0
SOLID
  5
878
330
568
100
AcDbEntity
  8
DIMENSIONS
  6
Continuous
 62
     0
100
AcDbTrace
 10
0.7763197541589633
 20
-0.841020942352528
 30
0.0
 11
0.7763197541589633
 21
-0.8451876090191948
 31
0.0
 12
0.7638197541589634
 22
-0.8431042756858614
 32
0.0
 13
0.7638197541589634
 23
-0.8431042756858614
 33
0.0
  0
SOLID
  5
879
330
568
100
AcDbEntity
  8
DIMENSIONS
  6
Continuous
 62
     0
100
AcDbTrace
 10
1.001319754158963
 20
-0.841020942352528
 30
0.0
 11
1.001319754158963
 21
-0.8451876090191948
 31
0.0
 12
1.013819754158963
 22
-0.8431042756858614
 32
0.0
 13
1.013819754158963
 23
-0.8431042756858614
 33
0.0
  0
MTEXT
  5
87A
330
568
100
AcDbEntity
  8
DIMENSIONS
  6
Continuous
 62
     0
100
AcDbMText
 10
0.9085729767132962
 20
-0.8431042756858614
 30
0.0
 40
0.0125
 41
0.0
 71
     5
 72
     1
  1
\A1;.250±.010
 73
     1
 44
1.0
  0
POINT
  5
87B
330
568
100
AcDbEntity
  8
DEFPOINTS
  6
Continuous
 62
     0
100
AcDbPoint
 10
0.7638197541589634
 20
-1.066262408722495
 30
0.0
  0
POINT
  5
87C
330
568
100
AcDbEntity
  8
DEFPOINTS
  6
Continuous
 62
     0
100
AcDbPoint
 10
1.013819754158963
 20
-1.066262408722495
 30
0.0
  0
POINT
  5
87D
330
568
100
AcDbEntity
  8
DEFPOINTS
  6
Continuous
 62
     0
100
AcDbPoint
 10
1.013819754158963
 20
-0.8431042756858614
 30
0.0
  0
ENDBLK
  5
574
330
568
100
AcDbEntity
  8
0
 62
     1
100
AcDbBlockEnd
  0
BLOCK
  5
9B6
330
9B5
100
AcDbEntity
  8
0
 62
     1
100
AcDbBlockBegin
  2
*U8
 70
     1
 10
0.0
 20
0.0
 30
0.0
  3
*U8
  1

  0
ENDBLK
  5
9B7
330
9B5
100
AcDbEntity
  8
0
 62
     1
100
AcDbBlockEnd
  0
BLOCK
  5
A0A
330
A08
100
AcDbEntity
  8
0
 62
     1
100
AcDbBlockBegin
  2
GENAXEH
 70
     0
 10
0.0
 20
0.0
 30
0.0
  3
GENAXEH
  1

  0
LINE
  5
A09
330
A08
100
AcDbEntity
  8
0
100
AcDbLine
 10
-1.0
 20
0.0
 30
0.0
 11
1.0
 21
0.0
 31
0.0
  0
ENDBLK
  5
A0B
330
A08
100
AcDbEntity
  8
0
 62
     1
100
AcDbBlockEnd
  0
ENDSEC
  0
SECTION
  2
ENTITIES
  0
DIMENSION
  5
514
330
A
100
AcDbEntity
  8
DIMENSIONS
  6
Continuous
 62
     1
100
AcDbDimension
  2
*D2
 10
0.8038197541589525
 20
-1.30616665164227
 30
0.0
 11
0.7271114208256191
 21
-1.30616665164227
 31
0.0
 70
    32
 71
     5
 42
0.0349999999999993
  3
DIMSTYLE4
100
AcDbAlignedDimension
 13
0.8388197541589516
 23
-1.306732202347217
 33
0.0
 14
0.8038197541589525
 24
-1.306732202347217
 34
0.0
100
AcDbRotatedDimension
1001
ACAD
1000
DSTYLE
1002
{
1070
   272
1070
     3
1070
   284
1070
     4
1070
    47
1040
0.006
1070
   147
1040
0.009
1070
    48
1040
0.002
1070
    72
1070
     0
1070
    71
1070
     1
1070
    78
1070
     4
1070
   271
1070
     3
1070
    76
1070
     1
1070
    75
1070
     1
1002
}
  0
DIMENSION
  5
515
330
A
100
AcDbEntity
  8
DIMENSIONS
  6
Continuous
 62
     1
100
AcDbDimension
  2
*D3
 10
0.7888197541589634
 20
-1.067562075485634
 30
0.0
 11
0.5956947541589633
 21
-1.067562075485634
 31
0.0
 70
   160
 71
     5
 42
0.025
  3
DIMSTYLE2
100
AcDbAlignedDimension
 13
0.7638197541589634
 23
-1.066262408722495
 33
0.0
 14
0.7888197541589634
 24
-1.066262408722495
 34
0.0
100
AcDbRotatedDimension
1001
ACAD
1000
DSTYLE
1002
{
1070
   272
1070
     3
1070
   284
1070
     4
1070
    47
1040
0.004
1070
   147
1040
0.009
1070
    48
1040
0.004
1070
    72
1070
     0
1070
    71
1070
     1
1070
    78
1070
     4
1070
   271
1070
     3
1070
    76
1070
     1
1070
    75
1070
     1
1002
}
  0
DIMENSION
  5
516
330
A
100
AcDbEntity
  8
DIMENSIONS
  6
Continuous
 62
     1
100
AcDbDimension
  2
*D4
 10
0.9473197541589632
 20
-1.217957561649162
 30
0.0
 11
0.6653197541589633
 21
-1.217957561649162
 31
0.0
 70
   160
 71
     5
 42
0.117
  3
DIMSTYLE1
100
AcDbAlignedDimension
 13
0.8303197541589632
 23
-1.217191353568699
 33
0.0
 14
0.9473197541589632
 24
-1.217191353568719
 34
0.0
100
AcDbRotatedDimension
1001
ACAD
1000
DSTYLE
1002
{
1070
   272
1070
     3
1070
   284
1070
     4
1070
    47
1040
0.01
1070
   147
1040
0.009
1070
    48
1040
0.01
1070
    72
1070
     0
1070
    71
1070
     1
1070
    78
1070
     4
1070
   271
1070
     3
1070
    76
1070
     1
1070
    75
1070
     1
1002
}
  0
DIMENSION
  5
517
330
A
100
AcDbEntity
  8
DIMENSIONS
  6
Continuous
 62
     1
100
AcDbDimension
  2
*D5
 10
1.096935995137675
 20
-1.391732202347217
 30
0.0
 11
1.096935995137675
 21
-1.166497305534855
 31
0.0
 70
    32
 71
     5
 42
0.4504697936247224
  3
DIMSTYLE5
100
AcDbAlignedDimension
 13
0.8888197541589523
 23
-0.941262408722495
 33
0.0
 14
0.8888197541589523
 24
-1.391732202347217
 34
0.0
 50
90.0
100
AcDbRotatedDimension
1001
ACAD
1000
DSTYLE
1002
{
1070
   284
1070
     4
1070
   272
1070
     3
1070
    47
1040
0.015
1070
   147
1040
0.009
1070
    48
1040
0.015
1070
    72
1070
     0
1070
    71
1070
     1
1070
    78
1070
     4
1070
   271
1070
     3
1002
}
  0
ARC
  5
518
330
A
100
AcDbEntity
  8
PRODUCT
  6
Continuous
 62
     5
100
AcDbCircle
 10
0.8888197541589633
 20
-1.066262408722495
 30
0.0
 40
0.125
100
AcDbArc
 50
312.4429713058409
 51
227.5570286941647
  0
ARC
  5
519
330
A
100
AcDbEntity
  8
PRODUCT
  6
Continuous
 62
     5
100
AcDbCircle
 10
0.8888197541589633
 20
-1.066262408722495
 30
0.0
 40
0.1
100
AcDbArc
 50
312.442971305841
 51
227.557028694165
  0
DIMENSION
  5
51A
330
A
100
AcDbEntity
  8
DIMENSIONS
  6
Continuous
 62
     1
100
AcDbDimension
  2
*D6
 10
0.9738197541589524
 20
-1.524078449874497
 30
0.0
 11
0.8888197541589523
 21
-1.524078449874497
 31
0.0
 70
   160
 71
     5
 42
0.1699999999999999
  3
DIMSTYLE6
100
AcDbAlignedDimension
 13
0.8038197541589525
 23
-1.306732202347217
 33
0.0
 14
0.9738197541589524
 24
-1.306732202347217
 34
0.0
100
AcDbRotatedDimension
1001
ACAD
1000
DSTYLE
1002
{
1070
   284
1070
     4
1070
   272
1070
     3
1070
    47
1040
0.01
1070
   147
1040
0.009
1070
    48
1040
0.01
1070
    72
1070
     0
1070
    71
1070
     1
1070
    78
1070
     4
1070
   271
1070
     3
1002
}
  0
CIRCLE
  5
51B
330
A
100
AcDbEntity
  8
PRODUCT
  6
Continuous
 62
     5
100
AcDbCircle
 10
0.8888197541589523
 20
-1.306732202347217
 30
0.0
 40
0.0500000000000007
  0
ARC
  5
51C
330
A
100
AcDbEntity
  8
PRODUCT
  6
Continuous
 62
     5
100
AcDbCircle
 10
0.8888197541589523
 20
-1.306732202347217
 30
0.0
 40
0.085
100
AcDbArc
 50
145.6398303084445
 51
34.3601696915553
  0
CIRCLE
  5
51D
330
A
100
AcDbEntity
  8
PRODUCT
  6
Continuous
 62
     5
100
AcDbCircle
 10
0.8888197541589523
 20
-1.306732202347217
 30
0.0
 40
0.085
  0
ARC
  5
51E
330
A
100
AcDbEntity
  8
PRODUCT
  6
Continuous
 62
     5
100
AcDbCircle
 10
0.8888197541589523
 20
-1.306732202347217
 30
0.0
 40
0.085
100
AcDbArc
 50
72.91734771927868
 51
107.0826522807203
  0
ARC
  5
51F
330
A
100
AcDbEntity
  8
PRODUCT
  6
Continuous
 62
     5
100
AcDbCircle
 10
0.7507949692537853
 20
-1.217191353568699
 30
0.0
 40
0.079524784905178
100
AcDbArc
 50
327.0273066983764
 51
47.55702869416465
  0
ARC
  5
520
330
A
100
AcDbEntity
  8
PRODUCT
  6
Continuous
 62
     5
100
AcDbCircle
 10
0.7507949692537853
 20
-1.217191353568699
 30
0.0
 40
0.104524784905178
100
AcDbArc
 50
357.8025953638336
 51
47.5570286941648
  0
ARC
  5
521
330
A
100
AcDbEntity
  8
DIMENSIONS
  6
Continuous
 62
     5
100
AcDbCircle
 10
0.8602392155752607
 20
-1.221390812539773
 30
0.0
 40
0.005
100
AcDbArc
 50
177.8025953638339
 51
288.5155210751042
  0
ARC
  5
522
330
A
100
AcDbEntity
  8
PRODUCT
  6
Continuous
 62
     5
100
AcDbCircle
 10
0.8602392155752605
 20
-1.221390812539773
 30
0.0
 40
0.005
100
AcDbArc
 50
177.8025953638338
 51
288.5155210751042
  0
ARC
  5
523
330
A
100
AcDbEntity
  8
PRODUCT
  6
Continuous
 62
     5
100
AcDbCircle
 10
1.026844539064186
 20
-1.217191353568719
 30
0.0
 40
0.0795247849052234
100
AcDbArc
 50
132.4429713058409
 51
212.9726933016051
  0
ARC
  5
524
330
A
100
AcDbEntity
  8
PRODUCT
  6
Continuous
 62
     5
100
AcDbCircle
 10
1.026844539064186
 20
-1.217191353568719
 30
0.0
 40
0.1045247849052234
100
AcDbArc
 50
132.4429713058409
 51
182.1974046361587
  0
ARC
  5
525
330
A
100
AcDbEntity
  8
PRODUCT
  6
Continuous
 62
     5
100
AcDbCircle
 10
0.9174002927426654
 20
-1.22139081253978
 30
0.0
 40
0.005
100
AcDbArc
 50
251.4844789248809
 51
2.197404636158484
  0
DIMENSION
  5
526
330
A
100
AcDbEntity
  8
DIMENSIONS
  6
Continuous
 62
     1
100
AcDbDimension
  2
*D7
 10
1.013819754158963
 20
-0.8431042756858614
 30
0.0
 11
0.9085729767132962
 21
-0.8431042756858614
 31
0.0
 70
   160
 71
     5
 42
0.25
  3
DIMSTYLE3
100
AcDbAlignedDimension
 13
0.7638197541589634
 23
-1.066262408722495
 33
0.0
 14
1.013819754158963
 24
-1.066262408722495
 34
0.0
100
AcDbRotatedDimension
1001
ACAD
1000
DSTYLE
1002
{
1070
   284
1070
     4
1070
   272
1070
     3
1070
    47
1040
0.01
1070
   147
1040
0.009
1070
    48
1040
0.01
1070
    72
1070
     0
1070
    71
1070
     1
1070
    78
1070
     4
1070
   271
1070
     3
1002
}
  0
ENDSEC
  0
SECTION
  2
OBJECTS
  0
DICTIONARY
  5
19
330
0
100
AcDbDictionary
281
     1
  3
ACAD_COLOR
350
8B9
  3
ACAD_GROUP
350
1A
  3
ACAD_LAYOUT
350
EA
  3
ACAD_MATERIAL
350
8B8
  3
ACAD_MLINESTYLE
350
1B
  3
ACAD_PLOTSETTINGS
350
EB
  3
ACAD_PLOTSTYLENAME
350
E8
  3
ACAD_TABLESTYLE
350
8BA
  3
AcDbVariableDictionary
350
7C2
  3
AcmDictionary
350
9BF
  3
AMG
350
8FF
  3
AMGSNAPSETTINGS
350
A29
  3
ASE_INDEX_DICTIONARY
350
A14
  3
MAPISURF_MODULE
350
98B
  0
DICTIONARY
  5
A24
330
2
100
AcDbDictionary
280
     1
281
     1
  3
ACAD_LAYERFILTERS
360
A5C
  3
ACLYDICTIONARY
360
A5B
  0
DICTIONARY
  5
A16
330
A
100
AcDbDictionary
280
     1
281
     1
  3
ACAD_INDEX
360
A17
  0
DICTIONARY
  5
8B9
102
{ACAD_REACTORS
330
19
102
}
330
19
100
AcDbDictionary
281
     1
  0
DICTIONARY
  5
1A
102
{ACAD_REACTORS
330
19
102
}
330
19
100
AcDbDictionary
281
     1
  0
DICTIONARY
  5
EA
102
{ACAD_REACTORS
330
19
102
}
330
19
100
AcDbDictionary
281
     1
  3
Layout1
350
ED
  3
Model
350
EC
  0
DICTIONARY
  5
8B8
102
{ACAD_REACTORS
330
19
102
}
330
19
100
AcDbDictionary
281
     1
  0
DICTIONARY
  5
1B
102
{ACAD_REACTORS
330
19
102
}
330
19
100
AcDbDictionary
281
     1
  3
STANDARD
350
1C
  0
DICTIONARY
  5
EB
102
{ACAD_REACTORS
330
19
102
}
330
19
100
AcDbDictionary
281
     1
  0
ACDBDICTIONARYWDFLT
  5
E8
102
{ACAD_REACTORS
330
19
102
}
330
19
100
AcDbDictionary
281
     1
  3
Normal
350
E9
100
AcDbDictionaryWithDefault
340
E9
  0
DICTIONARY
  5
8BA
102
{ACAD_REACTORS
330
19
102
}
330
19
100
AcDbDictionary
281
     1
  3
Standard
350
8BB
  0
DICTIONARY
  5
7C2
102
{ACAD_REACTORS
330
19
102
}
330
19
100
AcDbDictionary
281
     1
  3
CTABLESTYLE
350
8E1
  3
DIMASSOC
350
7C3
  0
DICTIONARY
  5
9BF
102
{ACAD_REACTORS
330
19
102
}
330
19
100
AcDbDictionary
281
     1
  3
AcmBOMDATA
350
9C0
  3
AcmStdDictionary
350
9CB
  3
AMDTSECTSYM_ARROWCOLOR
350
9EA
  0
DICTIONARY
  5
8FF
102
{ACAD_REACTORS
330
19
102
}
330
19
100
AcDbDictionary
281
     1
  3
AcMgSettings
350
900
  3
AMGLAYCFG
350
9CD
  0
DICTIONARY
  5
A29
102
{ACAD_REACTORS
330
19
102
}
330
19
100
AcDbDictionary
281
     1
  3
DIMENSION
350
A2E
  3
FEA
350
A2D
  3
HATCH (1)
350
A2A
  3
HATCH (2)
350
A2B
  3
SIMPLE WELD
350
A2F
  3
SYMBOLS
350
A2C
  0
DICTIONARY
  5
A14
102
{ACAD_REACTORS
330
19
102
}
330
19
100
AcDbDictionary
281
     1
  3
ASEBlockHierarchyIndexRecord
350
A15
1001
DCO15
1040
1538452511.421
  0
DICTIONARY
  5
A5C
102
{ACAD_REACTORS
330
A24
102
}
330
A24
100
AcDbDictionary
281
     1
  0
DICTIONARY
  5
A5B
102
{ACAD_REACTORS
330
A24
102
}
330
A24
100
AcDbDictionary
281
     1
1001
ACAD
1000
<All
  0
DICTIONARY
  5
A17
102
{ACAD_REACTORS
330
A16
102
}
330
A16
100
AcDbDictionary
281
     1
  3
*A1
350
A18
  0
LAYOUT
  5
ED
102
{ACAD_REACTORS
330
EA
102
}
330
EA
100
AcDbPlotSettings
  1

  2
HP LaserJet 1100
  4

  6

 40
0.0
 41
0.0
 42
0.0
 43
0.0
 44
0.0
 45
0.0
 46
0.0
 47
0.0
 48
0.0
 49
0.0
140
0.0
141
0.0
142
1.0
143
1.0
 70
   688
 72
     0
 73
     0
 74
     5
  7

 75
    16
147
1.0
 76
     0
 77
     2
 78
   300
148
0.0
149
0.0
100
AcDbLayout
  1
Layout1
 70
     0
 71
     1
 10
0.0
 20
0.0
 11
12.0
 21
9.0
 12
0.0
 22
0.0
 32
0.0
 14
1.049999952316284
 24
0.7999999523162842
 34
0.0
 15
9.449999570846555
 25
7.199999570846556
 35
0.0
146
0.0
 13
0.0
 23
0.0
 33
0.0
 16
1.0
 26
0.0
 36
0.0
 17
0.0
 27
1.0
 37
0.0
 76
     0
330
B
  0
LAYOUT
  5
EC
102
{ACAD_REACTORS
330
EA
102
}
330
EA
100
AcDbPlotSettings
  1

  2
none_device
  4
Letter_(8.50_x_11.00_Inches)
  6

 40
6.349999904632568
 41
6.349999904632568
 42
6.350006103515625
 43
6.350006103515625
 44
215.8999938964844
 45
279.3999938964844
 46
0.0
 47
0.0
 48
0.0
 49
0.0
140
0.0
141
0.0
142
1.0
143
0.2029554065269661
 70
 11952
 72
     0
 73
     1
 74
     0
  7

 75
     0
147
4.927190741613148
 76
     0
 77
     2
 78
   300
148
4.425979397516638
149
44.58068423521966
100
AcDbLayout
  1
Model
 70
     1
 71
     0
 10
0.0
 20
0.0
 11
12.0
 21
9.0
 12
0.0
 22
0.0
 32
0.0
 14
0.0
 24
0.0
 34
0.0
 15
0.0
 25
0.0
 35
0.0
146
0.0
 13
0.0
 23
0.0
 33
0.0
 16
1.0
 26
0.0
 36
0.0
 17
0.0
 27
1.0
 37
0.0
 76
     0
330
A
1001
ACAD_PSEXT
1000
None
1000
None
1000
Not applicable
1000
The layout will not be plotted unless a new plotter configuration name is selected.
1070
     0
  0
MLINESTYLE
  5
1C
102
{ACAD_REACTORS
330
1B
102
}
330
1B
100
AcDbMlineStyle
  2
STANDARD
 70
     0
  3

 62
     0
 51
90.00000000000019
 52
90.00000000000019
 71
     2
 49
0.5
 62
   256
  6
BYLAYER
 49
-0.5
 62
   256
  6
BYLAYER
  0
ACDBPLACEHOLDER
  5
E9
102
{ACAD_REACTORS
330
E8
102
}
330
E8
  0
TABLESTYLE
  5
8BB
102
{ACAD_REACTORS
330
8BA
102
}
330
8BA
100
AcDbTableStyle
  3
Standard
 70
     0
 71
     0
 40
0.06
 41
0.06
280
     0
281
     0
  7
STANDARD
140
0.18
170
     2
 62
     0
 63
     7
283
     0
274
    -2
284
     1
 64
     0
275
    -2
285
     1
 65
     0
276
    -2
286
     1
 66
     0
277
    -2
287
     1
 67
     0
278
    -2
288
     1
 68
     0
279
    -2
289
     1
 69
     0
  7
STANDARD
140
0.25
170
     5
 62
     0
 63
     7
283
     0
274
    -2
284
     1
 64
     0
275
    -2
285
     1
 65
     0
276
    -2
286
     1
 66
     0
277
    -2
287
     1
 67
     0
278
    -2
288
     1
 68
     0
279
    -2
289
     1
 69
     0
  7
STANDARD
140
0.18
170
     5
 62
     0
 63
     7
283
     0
274
    -2
284
     1
 64
     0
275
    -2
285
     1
 65
     0
276
    -2
286
     1
 66
     0
277
    -2
287
     1
 67
     0
278
    -2
288
     1
 68
     0
279
    -2
289
     1
 69
     0
  0
DICTIONARYVAR
  5
8E1
102
{ACAD_REACTORS
330
7C2
102
}
330
7C2
100
DictionaryVariables
280
     0
  1
STANDARD
  0
DICTIONARYVAR
  5
7C3
102
{ACAD_REACTORS
330
7C2
102
}
330
7C2
100
DictionaryVariables
280
     0
  1
1
  0
ACMDATADICTIONARY
  5
9C0
102
{ACAD_REACTORS
330
9BF
102
}
330
9BF
100
AcDbDictionary
281
     1
  3
*A1
350
9C1
100
AcmDataDictionary
  0
DICTIONARY
  5
9CB
102
{ACAD_REACTORS
330
9BF
102
}
330
9BF
100
AcDbDictionary
281
     1
  3
ANSI
350
9CC
  0
XRECORD
  5
9EA
102
{ACAD_REACTORS
330
9BF
102
}
330
9BF
100
AcDbXrecord
280
     1
 90
-1023410169
  0
DICTIONARY
  5
900
102
{ACAD_REACTORS
330
8FF
102
}
330
8FF
100
AcDbDictionary
281
     1
  3
DWGSETTINGS
350
901
  3
TRANSSETTINGS
350
905
  0
ACAMGFILTERDAT
  5
A2E
102
{ACAD_REACTORS
330
A29
102
}
330
A29
100
AcAmgFilterDat
 70
    15
  1
DIMENSION,AMDT_*_DIM
  2
*
  3
*
  4
*
  5
*
290
     1
  0
ACAMGFILTERDAT
  5
A2D
102
{ACAD_REACTORS
330
A29
102
}
330
A29
100
AcAmgFilterDat
 70
    15
  1
*
  2
AM_FEA-AM_*
  3
*
  4
*
  5
*
290
     1
  0
ACAMGFILTERDAT
  5
A2A
102
{ACAD_REACTORS
330
A29
102
}
330
A29
100
AcAmgFilterDat
 70
    15
  1
HATCH
  2
*
  3
*
  4
*
  5
*
290
     1
  0
ACAMGFILTERDAT
  5
A2B
102
{ACAD_REACTORS
330
A29
102
}
330
A29
100
AcAmgFilterDat
 70
    15
  1
LINE
  2
8,8N,*-8,*-8N,AM_8,AM_8N,*-AM_8,*-AM_8N
  3
*
  4
*
  5
INSERT,STDPART2D
290
     1
  0
ACAMGFILTERDAT
  5
A2F
102
{ACAD_REACTORS
330
A29
102
}
330
A29
100
AcAmgFilterDat
 70
    15
  1
ARC
  2
AM_5
  3
*
  4
2
  5
INSERT
290
     0
  0
ACAMGFILTERDAT
  5
A2C
102
{ACAD_REACTORS
330
A29
102
}
330
A29
100
AcAmgFilterDat
 70
    15
  1
ACMFCFRAME,ACMDATUMTARGET,ACMDATUMID,ACMWELDSYM,ACMSURFSYM,ACMFEATID,ACMPARTREF,ACMBALLOON,AMDTEDGESYM,AMGSCREWCALCTABLE
  2
*
  3
*
  4
*
  5
*
290
     1
  0
XRECORD
  5
A15
102
{ACAD_REACTORS
330
A14
102
}
330
A14
100
AcDbXrecord
280
     1
  0
LAYER_INDEX
  5
A18
102
{ACAD_REACTORS
330
A17
102
}
330
A17
100
AcDbIndex
 40
2453626.375328969
100
AcDbLayerIndex
  8
0
360
A19
 90
        0
  8
DIMENSIONS
360
A1E
 90
        7
  8
DEFPOINTS
360
A20
 90
        0
  8
PRODUCT
360
A1D
 90
       12
  0
ACMDATAENTRYBLOCK
  5
9C1
102
{ACAD_REACTORS
330
9C0
102
}
330
9C0
100
AcmDataEntry
100
AcmDataEntryBlock
  0
IDBUFFER
  5
A19
330
0
100
AcDbIdBuffer
  0
IDBUFFER
  5
A1E
330
0
100
AcDbIdBuffer
330
514
330
515
330
516
330
517
330
526
330
521
330
51A
  0
IDBUFFER
  5
A20
330
0
100
AcDbIdBuffer
  0
IDBUFFER
  5
A1D
330
0
100
AcDbIdBuffer
330
518
330
519
330
51F
330
520
330
522
330
523
330
524
330
525
330
51B
330
51C
330
51D
330
51E
  0
ENDSEC
  0
EOF
