  0
SECTION
  2
HEADER
  9
$ACADVER
  1
AC1018
  9
$ACADMAINTVER
 70
    76
  9
$DWGCODEPAGE
  3
ANSI_1252
  9
$CUSTOMPROPERTYTAG
  1
AmdtFileType
  9
$CUSTOMPROPERTY
  1
84
  9
$INSBASE
 10
0.0
 20
0.0
 30
0.0
  9
$EXTMIN
 10
0.0
 20
0.0
 30
0.0
  9
$EXTMAX
 10
0.85
 20
1.198476293129841
 30
0.0
  9
$LIMMIN
 10
0.0
 20
0.0
  9
$LIMMAX
 10
0.0
 20
0.0
  9
$ORTHOMODE
 70
     0
  9
$REGENMODE
 70
     1
  9
$FILLMODE
 70
     1
  9
$QTEXTMODE
 70
     0
  9
$MIRRTEXT
 70
     1
  9
$LTSCALE
 40
1.0
  9
$ATTMODE
 70
     1
  9
$TEXTSIZE
 40
0.2
  9
$TRACEWID
 40
0.05
  9
$TEXTSTYLE
  7
STANDARD
  9
$CLAYER
  8
DIMENSIONS
  9
$CELTYPE
  6
CONTINUOUS
  9
$CECOLOR
 62
     6
  9
$CELTSCALE
 40
1.0
  9
$DISPSILH
 70
     0
  9
$DIMSCALE
 40
1.0
  9
$DIMASZ
 40
0.0125
  9
$DIMEXO
 40
0.0625
  9
$DIMDLI
 40
0.38
  9
$DIMRND
 40
0.0
  9
$DIMDLE
 40
0.0
  9
$DIMEXE
 40
0.0125
  9
$DIMTP
 40
0.0
  9
$DIMTM
 40
0.0
  9
$DIMTXT
 40
0.0125
  9
$DIMCEN
 40
0.09
  9
$DIMTSZ
 40
0.0
  9
$DIMTOL
 70
     0
  9
$DIMLIM
 70
     0
  9
$DIMTIH
 70
     1
  9
$DIMTOH
 70
     1
  9
$DIMSE1
 70
     0
  9
$DIMSE2
 70
     0
  9
$DIMTAD
 70
     0
  9
$DIMZIN
 70
     0
  9
$DIMBLK
  1

  9
$DIMASO
 70
     1
  9
$DIMSHO
 70
     1
  9
$DIMPOST
  1

  9
$DIMAPOST
  1

  9
$DIMALT
 70
     0
  9
$DIMALTD
 70
     2
  9
$DIMALTF
 40
25.4
  9
$DIMLFAC
 40
1.0
  9
$DIMTOFL
 70
     0
  9
$DIMTVP
 40
0.0
  9
$DIMTIX
 70
     0
  9
$DIMSOXD
 70
     0
  9
$DIMSAH
 70
     0
  9
$DIMBLK1
  1

  9
$DIMBLK2
  1

  9
$DIMSTYLE
  2
DIMSTYLE1
  9
$DIMCLRD
 70
     0
  9
$DIMCLRE
 70
     0
  9
$DIMCLRT
 70
     0
  9
$DIMTFAC
 40
1.0
  9
$DIMGAP
 40
0.09
  9
$DIMJUST
 70
     0
  9
$DIMSD1
 70
     0
  9
$DIMSD2
 70
     0
  9
$DIMTOLJ
 70
     1
  9
$DIMTZIN
 70
     0
  9
$DIMALTZ
 70
     0
  9
$DIMALTTZ
 70
     0
  9
$DIMUPT
 70
     0
  9
$DIMDEC
 70
     4
  9
$DIMTDEC
 70
     4
  9
$DIMALTU
 70
     2
  9
$DIMALTTD
 70
     2
  9
$DIMTXSTY
  7
STANDARD
  9
$DIMAUNIT
 70
     0
  9
$DIMADEC
 70
     0
  9
$DIMALTRND
 40
0.0
  9
$DIMAZIN
 70
     0
  9
$DIMDSEP
 70
    46
  9
$DIMATFIT
 70
     0
  9
$DIMFRAC
 70
     0
  9
$DIMLDRBLK
  1

  9
$DIMLUNIT
 70
     2
  9
$DIMLWD
 70
    -2
  9
$DIMLWE
 70
    -2
  9
$DIMTMOVE
 70
     0
  9
$LUNITS
 70
     2
  9
$LUPREC
 70
    10
  9
$SKETCHINC
 40
0.1
  9
$FILLETRAD
 40
0.0
  9
$AUNITS
 70
     0
  9
$AUPREC
 70
     0
  9
$MENU
  1
acad
  9
$ELEVATION
 40
0.0
  9
$PELEVATION
 40
0.0
  9
$THICKNESS
 40
0.0
  9
$LIMCHECK
 70
     0
  9
$CHAMFERA
 40
0.0
  9
$CHAMFERB
 40
0.0
  9
$CHAMFERC
 40
0.0
  9
$CHAMFERD
 40
0.0
  9
$SKPOLY
 70
     0
  9
$TDCREATE
 40
2444971.833333334
  9
$TDUCREATE
 40
2444972.000000000
  9
$TDUPDATE
 40
2453621.450782176
  9
$TDUUPDATE
 40
2453621.617448843
  9
$TDINDWG
 40
0.1954614468
  9
$TDUSRTIMER
 40
0.1954614468
  9
$USRTIMER
 70
     1
  9
$ANGBASE
 50
0.0
  9
$ANGDIR
 70
     0
  9
$PDMODE
 70
     2
  9
$PDSIZE
 40
0.0
  9
$PLINEWID
 40
0.0
  9
$SPLFRAME
 70
     0
  9
$SPLINETYPE
 70
     6
  9
$SPLINESEGS
 70
     8
  9
$HANDSEED
  5
11FD
  9
$SURFTAB1
 70
     6
  9
$SURFTAB2
 70
     6
  9
$SURFTYPE
 70
     6
  9
$SURFU
 70
     6
  9
$SURFV
 70
     6
  9
$UCSBASE
  2

  9
$UCSNAME
  2

  9
$UCSORG
 10
0.0
 20
0.0
 30
0.0
  9
$UCSXDIR
 10
1.0
 20
0.0
 30
0.0
  9
$UCSYDIR
 10
0.0
 20
1.0
 30
0.0
  9
$UCSORTHOREF
  2

  9
$UCSORTHOVIEW
 70
     0
  9
$UCSORGTOP
 10
0.0
 20
0.0
 30
0.0
  9
$UCSORGBOTTOM
 10
0.0
 20
0.0
 30
0.0
  9
$UCSORGLEFT
 10
0.0
 20
0.0
 30
0.0
  9
$UCSORGRIGHT
 10
0.0
 20
0.0
 30
0.0
  9
$UCSORGFRONT
 10
0.0
 20
0.0
 30
0.0
  9
$UCSORGBACK
 10
0.0
 20
0.0
 30
0.0
  9
$PUCSBASE
  2

  9
$PUCSNAME
  2

  9
$PUCSORG
 10
0.0
 20
0.0
 30
0.0
  9
$PUCSXDIR
 10
1.0
 20
0.0
 30
0.0
  9
$PUCSYDIR
 10
0.0
 20
1.0
 30
0.0
  9
$PUCSORTHOREF
  2

  9
$PUCSORTHOVIEW
 70
     0
  9
$PUCSORGTOP
 10
0.0
 20
0.0
 30
0.0
  9
$PUCSORGBOTTOM
 10
0.0
 20
0.0
 30
0.0
  9
$PUCSORGLEFT
 10
0.0
 20
0.0
 30
0.0
  9
$PUCSORGRIGHT
 10
0.0
 20
0.0
 30
0.0
  9
$PUCSORGFRONT
 10
0.0
 20
0.0
 30
0.0
  9
$PUCSORGBACK
 10
0.0
 20
0.0
 30
0.0
  9
$USERI1
 70
     0
  9
$USERI2
 70
     0
  9
$USERI3
 70
     0
  9
$USERI4
 70
     0
  9
$USERI5
 70
     0
  9
$USERR1
 40
0.0
  9
$USERR2
 40
0.0
  9
$USERR3
 40
0.0
  9
$USERR4
 40
0.0
  9
$USERR5
 40
0.0
  9
$WORLDVIEW
 70
     1
  9
$SHADEDGE
 70
     3
  9
$SHADEDIF
 70
    70
  9
$TILEMODE
 70
     1
  9
$MAXACTVP
 70
    16
  9
$PINSBASE
 10
0.0
 20
0.0
 30
0.0
  9
$PLIMCHECK
 70
     0
  9
$PEXTMIN
 10
1.000000000000000E+20
 20
1.000000000000000E+20
 30
1.000000000000000E+20
  9
$PEXTMAX
 10
-1.000000000000000E+20
 20
-1.000000000000000E+20
 30
-1.000000000000000E+20
  9
$PLIMMIN
 10
0.0
 20
0.0
  9
$PLIMMAX
 10
12.0
 20
9.0
  9
$UNITMODE
 70
     0
  9
$VISRETAIN
 70
     0
  9
$PLINEGEN
 70
     1
  9
$PSLTSCALE
 70
     0
  9
$TREEDEPTH
 70
  3020
  9
$CMLSTYLE
  2
STANDARD
  9
$CMLJUST
 70
     0
  9
$CMLSCALE
 40
1.0
  9
$PROXYGRAPHICS
 70
     1
  9
$MEASUREMENT
 70
     0
  9
$CELWEIGHT
370
    -1
  9
$ENDCAPS
280
     0
  9
$JOINSTYLE
280
     0
  9
$LWDISPLAY
290
     0
  9
$INSUNITS
 70
     0
  9
$HYPERLINKBASE
  1

  9
$STYLESHEET
  1

  9
$XEDIT
290
     1
  9
$CEPSNTYPE
380
     0
  9
$PSTYLEMODE
290
     1
  9
$FINGERPRINTGUID
  2
{14EBA395-6357-11D6-8A02-00902758FDDF}
  9
$VERSIONGUID
  2
{8F6AEA1F-8621-4E06-8B8B-FEE46BE43916}
  9
$EXTNAMES
290
     1
  9
$PSVPSCALE
 40
0.0
  9
$OLESTARTUP
290
     0
  9
$SORTENTS
280
   127
  9
$INDEXCTL
280
     1
  9
$HIDETEXT
280
     0
  9
$XCLIPFRAME
290
     0
  9
$HALOGAP
280
     0
  9
$OBSCOLOR
 70
   257
  9
$OBSLTYPE
280
     0
  9
$INTERSECTIONDISPLAY
280
     0
  9
$INTERSECTIONCOLOR
 70
   257
  9
$DIMASSOC
280
     1
  9
$PROJECTNAME
  1

  0
ENDSEC
  0
SECTION
  2
CLASSES
  0
CLASS
  1
IMAGE
  2
AcDbRasterImage
  3
ISM
 90
      127
 91
        0
280
     0
281
     1
  0
CLASS
  1
DICTIONARYVAR
  2
AcDbDictionaryVar
  3
ObjectDBX Classes
 90
        0
 91
        2
280
     0
281
     0
  0
CLASS
  1
RASTERVARIABLES
  2
AcDbRasterVariables
  3
ISM
 90
        0
 91
        0
280
     0
281
     0
  0
CLASS
  1
IMAGEDEF
  2
AcDbRasterImageDef
  3
ISM
 90
        0
 91
        0
280
     0
281
     0
  0
CLASS
  1
IMAGEDEF_REACTOR
  2
AcDbRasterImageDefReactor
  3
ISM
 90
        1
 91
        0
280
     0
281
     0
  0
CLASS
  1
IDBUFFER
  2
AcDbIdBuffer
  3
ObjectDBX Classes
 90
        0
 91
        5
280
     0
281
     0
  0
CLASS
  1
SPATIAL_FILTER
  2
AcDbSpatialFilter
  3
ObjectDBX Classes
 90
        0
 91
        0
280
     0
281
     0
  0
CLASS
  1
SORTENTSTABLE
  2
AcDbSortentsTable
  3
ObjectDBX Classes
 90
        0
 91
        1
280
     0
281
     0
  0
CLASS
  1
LAYER_INDEX
  2
AcDbLayerIndex
  3
ObjectDBX Classes
 90
        0
 91
        1
280
     0
281
     0
  0
CLASS
  1
SPATIAL_INDEX
  2
AcDbSpatialIndex
  3
ObjectDBX Classes
 90
        0
 91
        0
280
     0
281
     0
  0
CLASS
  1
OBJECT_PTR
  2
CAseDLPNTableRecord
  3
ASE-LPNTableRecord
 90
        1
 91
        0
280
     0
281
     0
  0
CLASS
  1
ACDBDICTIONARYWDFLT
  2
AcDbDictionaryWithDefault
  3
ObjectDBX Classes
 90
        0
 91
        1
280
     0
281
     0
  0
CLASS
  1
TABLESTYLE
  2
AcDbTableStyle
  3
ObjectDBX Classes
 90
     2047
 91
        1
280
     0
281
     0
  0
CLASS
  1
ACME_DOCUMENT
  2
AcMeDbDoc
  3
AcMeServices
 90
        0
 91
        2
280
     0
281
     0
  0
CLASS
  1
AMGSETTINGSOBJ
  2
AmgSettingsObj
  3
"AcadM|Product Description: AutoCAD Mechanical 2000|Company: Autodesk"
 90
        0
 91
        2
280
     0
281
     0
  0
CLASS
  1
ACMESCOPE
  2
AcMeScope
  3
AcMeServices
 90
        0
 91
        1
280
     0
281
     0
  0
CLASS
  1
ACMECOMMANDHISTORY
  2
AcMeCommandHistory
  3
AcMeServices
 90
        0
 91
        1
280
     0
281
     0
  0
CLASS
  1
ACIMSYSVARMAN
  2
AcImSysVarManager
  3
AcMeServices
 90
        0
 91
        6
280
     0
281
     0
  0
CLASS
  1
ACIMINTSYSVAR
  2
AcImIntSysVar
  3
AcMeServices
 90
        0
 91
       45
280
     0
281
     0
  0
CLASS
  1
ACMEDRAWINGMAN
  2
AcMeDrawingMan
  3
AcMeServices
 90
        0
 91
        1
280
     0
281
     0
  0
CLASS
  1
ACMEVIEW
  2
AcMeView
  3
AcMeServices
 90
        0
 91
        1
280
     0
281
     0
  0
CLASS
  1
ACDBENTITYCACHE
  2
AcMeEntityCache
  3
AcMeServices
 90
        0
 91
        1
280
     0
281
     0
  0
CLASS
  1
GSMANAGER
  2
AcMeGSManager
  3
AcMeServices
 90
        0
 91
        1
280
     0
281
     0
  0
CLASS
  1
AMDTINTERNALREACTOR
  2
AmdtInternalReactor
  3
AcMeServices
 90
        0
 91
        2
280
     0
281
     0
  0
CLASS
  1
ACMESTATEMGR
  2
AcMeStateMgr
  3
AcMeServices
 90
        0
 91
        1
280
     0
281
     0
  0
CLASS
  1
ACGREFMASTER
  2
AcGrefMaster
  3
AcAttribServices
 90
        0
 91
        1
280
     0
281
     0
  0
CLASS
  1
AM_DRAWING_MGR
  2
AcDmDwgMgr
  3
AcMechDwgViewMgmt
 90
        0
 91
        1
280
     0
281
     0
  0
CLASS
  1
AM_DWG_DOCUMENT
  2
AcDmDwgDocument
  3
AcMechDwgViewMgmt
 90
        0
 91
        1
280
     0
281
     0
  0
CLASS
  1
AM_DWG_SHEET
  2
AcDmSheet
  3
AcMechDwgViewMgmt
 90
        0
 91
        1
280
     0
281
     0
  0
CLASS
  1
AM_VIEWDIMPARMAP
  2
AcDmViewDimParMap
  3
AcMechDwgViewMgmt
 90
        0
 91
        1
280
     0
281
     0
  0
CLASS
  1
ACIMREALSYSVAR
  2
AcImRealSysVar
  3
AcMeServices
 90
        0
 91
       16
280
     0
281
     0
  0
CLASS
  1
AM_DWGMGR_NAME
  2
AcDmDwgMgrName
  3
AcMechDwgViewMgmt
 90
        0
 91
        1
280
     0
281
     0
  0
CLASS
  1
ACME_DATABASE
  2
AcMeDbDatabase
  3
AcMeServices
 90
        0
 91
        1
280
     0
281
     0
  0
CLASS
  1
ACRFINSADJUSTERMGR
  2
AcRfInsAdjusterMgr
  3
AcMeServices
 90
        0
 91
        1
280
     0
281
     0
  0
CLASS
  1
ACGREFACADMASTER
  2
AcGrefacadMaster
  3
AcGrefServices
 90
        0
 91
        1
280
     0
281
     0
  0
CLASS
  1
AMDTMENUSTATEMGR
  2
AmdtMenuStateMgr
  3
McadcomServices
 90
        0
 91
        1
280
     0
281
     0
  0
CLASS
  1
AMDTMCOMMENUSTATE
  2
AmdtMcomMenuState
  3
McadcomServices
 90
        0
 91
        1
280
     0
281
     0
  0
CLASS
  1
AMIMASTER
  2
AmiMaster
  3
AmiServices
 90
        0
 91
        1
280
     0
281
     0
  0
CLASS
  1
MAPIAMMOUDLE
  2
MApiAmModule
  3
MApiAmServices
 90
        0
 91
        1
280
     0
281
     0
  0
CLASS
  1
AMDTADMENUSTATE
  2
AmdtAdMenuState
  3
DesignerServices
 90
        0
 91
        1
280
     0
281
     0
  0
CLASS
  1
ADAPPL
  2
AcAdAppl
  3
DesignerServices
 90
        0
 91
        1
280
     0
281
     0
  0
CLASS
  1
DEPMGR
  2
AcAdDepMgr
  3
DesignerServices
 90
        0
 91
        1
280
     0
281
     0
  0
CLASS
  1
PARAMMGR
  2
AcAdParamMgr
  3
DesignerServices
 90
        0
 91
        1
280
     0
281
     0
  0
CLASS
  1
PARAMSCOPE
  2
AcAdParamScope
  3
DesignerServices
 90
        0
 91
        1
280
     0
281
     0
  0
CLASS
  1
NAMEDAPPL
  2
AcAdNamedAppl
  3
DesignerServices
 90
        0
 91
        1
280
     0
281
     0
  0
CLASS
  1
AMDTDMMENUSTATE
  2
AmdtDmMenuState
  3
AcMechDwgViewMgmt
 90
        0
 91
        1
280
     0
281
     0
  0
CLASS
  1
AMDTAMMENUSTATE
  2
AmdtAmMenuState
  3
DesignerAssemblies
 90
        0
 91
        1
280
     0
281
     0
  0
CLASS
  1
ACIMSTRSYSVAR
  2
AcImStrSysVar
  3
AcMeServices
 90
        0
 91
       11
280
     0
281
     0
  0
CLASS
  1
ACAMPROJECT
  2
AcAmProject
  3
DesignerAssemblies
 90
        0
 91
        1
280
     0
281
     0
  0
CLASS
  1
ACAMGRCOMPDEF
  2
AcAmGrCompDef
  3
DesignerAssemblies
 90
        0
 91
        1
280
     0
281
     0
  0
CLASS
  1
ACCMCONTEXT
  2
AcCmContext
  3
DesignerAssemblies
 90
        0
 91
        1
280
     0
281
     0
  0
CLASS
  1
ACAMCOMPDEF
  2
AcAmCompDef
  3
DesignerAssemblies
 90
        0
 91
        1
280
     0
281
     0
  0
CLASS
  1
ACAMCOMPDEFMGR
  2
AcAmCompDefMgr
  3
DesignerAssemblies
 90
        0
 91
        1
280
     0
281
     0
  0
CLASS
  1
AMCONTEXTMGR
  2
AcAmContextMgr
  3
DesignerAssemblies
 90
        0
 91
        1
280
     0
281
     0
  0
CLASS
  1
ACAMCONTEXTMODELER
  2
AcAmContextModeler
  3
DesignerAssemblies
 90
        0
 91
        1
280
     0
281
     0
  0
CLASS
  1
ACMDATADICTIONARY
  2
AcmDataDictionary
  3
"AcmSymBB|Product Description: AutoCAD Mechanical 2004 DX|Company: Autodesk"
 90
        0
 91
        1
280
     0
281
     0
  0
CLASS
  1
CATALOGSTATE
  2
AcAmCatalogState
  3
DesignerAssemblies
 90
        0
 91
        1
280
     0
281
     0
  0
CLASS
  1
ACAMGRCOMPDEFSET
  2
AcAmGrCompDefSet
  3
DesignerAssemblies
 90
        0
 91
        1
280
     0
281
     0
  0
CLASS
  1
AMDTBROWSERDBTAB
  2
AmdtBrowserDbTab
  3
McadcomServices
 90
        0
 91
        1
280
     0
281
     0
  0
CLASS
  1
CBROWSERAPPOBJECT
  2
CBrowserAppObject
  3
McadcomServices
 90
        0
 91
        3
280
     0
281
     0
  0
CLASS
  1
DM_PLACEHOLDER
  2
AcDmSelsetPlaceholder
  3
AcMechDwgViewMgmt
 90
        0
 91
        1
280
     0
281
     0
  0
CLASS
  1
ACMSTANDARDANSI
  2
AcmStandardANSI
  3
"Amdt_StdImp|Product Description: AutoCAD Mechanical 2004 DX|Company: Autodesk"
 90
        0
 91
        1
280
     0
281
     0
  0
CLASS
  1
AMGOBJPROPCFG
  2
AmgObjPropCfg
  3
"AmgLay|Product Description: AutoCAD Mechanical 2000|Company: Autodesk"
 90
        1
 91
        1
280
     0
281
     0
  0
CLASS
  1
ACMSURFSTANDARDANSI
  2
AcmSurfTextStdANSI
  3
"Amdt_StdImp|Product Description: AutoCAD Mechanical 2004 DX|Company: Autodesk"
 90
        0
 91
        1
280
     0
281
     0
  0
CLASS
  1
ACMFCFSTANDARDANSI
  2
AcmFCFStdANSI
  3
"Amdt_StdImp|Product Description: AutoCAD Mechanical 2004 DX|Company: Autodesk"
 90
        0
 91
        1
280
     0
281
     0
  0
CLASS
  1
ACMWELDSTANDARDANSI
  2
AcmWeldingStdANSI
  3
"Amdt_StdImp|Product Description: AutoCAD Mechanical 2004 DX|Company: Autodesk"
 90
        0
 91
        1
280
     0
281
     0
  0
CLASS
  1
ACMIDSTANDARDANSI
  2
AcmIdStdANSI
  3
"Amdt_StdImp|Product Description: AutoCAD Mechanical 2004 DX|Company: Autodesk"
 90
        0
 91
        1
280
     0
281
     0
  0
CLASS
  1
ACMDATUMSTANDARDANSI
  2
AcmDatumStdANSI
  3
"Amdt_StdImp|Product Description: AutoCAD Mechanical 2004 DX|Company: Autodesk"
 90
        0
 91
        1
280
     0
281
     0
  0
CLASS
  1
ACMBOMSTANDARDANSI
  2
AcmBOMStdANSI
  3
"Amdt_StdImp|Product Description: AutoCAD Mechanical 2004 DX|Company: Autodesk"
 90
        0
 91
        1
280
     0
281
     0
  0
CLASS
  1
ACMDETAILSTANDARDANSI
  2
AmdtDetailSymStdANSI
  3
"Amdt_StdImp|Product Description: AutoCAD Mechanical 2004 DX|Company: Autodesk"
 90
        0
 91
        1
280
     0
281
     0
  0
CLASS
  1
ACMSECTIONSTANDARDANSI
  2
AmdtSectionSymStdANSI
  3
"Amdt_StdImp|Product Description: AutoCAD Mechanical 2004 DX|Company: Autodesk"
 90
        0
 91
        1
280
     0
281
     0
  0
CLASS
  1
ACMCENTERLINESTANDARDANSI
  2
AmdtCenterLineStdANSI
  3
"Amdt_StdImp|Product Description: AutoCAD Mechanical 2004 DX|Company: Autodesk"
 90
        0
 91
        1
280
     0
281
     0
  0
CLASS
  1
ACMTHREADLINESTANDARDANSI
  2
AmdtThreadLineStdANSI
  3
"Amdt_StdImp|Product Description: AutoCAD Mechanical 2004 DX|Company: Autodesk"
 90
        0
 91
        1
280
     0
281
     0
  0
CLASS
  1
ACMNOTESTANDARDANSI
  2
AmdtNoteStdANSI
  3
"Amdt_StdImp|Product Description: AutoCAD Mechanical 2004 DX|Company: Autodesk"
 90
        0
 91
        1
280
     0
281
     0
  0
CLASS
  1
AMDTNOTETEMPLATEDB
  2
AmdtNoteTemplateDB
  3
AMDT_STDIMP_MODULE_NAME
 90
        0
 91
        5
280
     0
281
     0
  0
CLASS
  1
ACAMGLAYSTD
  2
AcAmgLayStd
  3
"AcAmgLayStd|Product Description: AutoCAD Mechanical 2000|Company: Autodesk"
 90
        0
 91
        1
280
     0
281
     0
  0
CLASS
  1
ACAMGDIMSTD
  2
AcAmgDimStd
  3
"AcAmgDimStd|Product Description: AutoCAD Mechanical 2000|Company: Autodesk"
 90
        0
 91
        1
280
     0
281
     0
  0
CLASS
  1
ACAMGHOLECHARTSTDANSI
  2
AcAmgHoleChartStdANSI
  3
ACMSYMBB_MODULE_NAME
 90
        0
 91
        1
280
     0
281
     0
  0
CLASS
  1
ACAMGTITLESTD
  2
AcAmgTitleStd
  3
"TITLEAPP"
 90
        0
 91
        1
280
     0
281
     0
  0
CLASS
  1
ACAMGFILTERDAT
  2
AcAmgFilterDat
  3
"AcadM|Product Description: AutoCAD Mechanical 2000|Company: Autodesk"
 90
        0
 91
        6
280
     0
281
     0
  0
CLASS
  1
ACDBLINERES
  2
AcDbLineRes
  3
AcGrefServices
 90
        0
 91
        0
280
     0
281
     0
  0
CLASS
  1
AMDTNOTE
  2
AmdtNote
  3
"AcmSymBB|Product Description: AutoCAD Mechanical 2004 DX|Company: Autodesk"
 90
     1023
 91
        0
280
     0
281
     1
  0
CLASS
  1
AMDTFORMULAUPDATEDISPATCHER
  2
AmdtFormulaUpdateDispatcher
  3
AcMeServices
 90
        0
 91
        0
280
     0
281
     0
  0
CLASS
  1
ASAPP
  2
AcAsAppObject
  3
AutoSurfServices
 90
        0
 91
        1
280
     0
281
     0
  0
CLASS
  1
IM_STATIC_MAN
  2
AcImStaticVarManager
  3
AcMeServices
 90
        0
 91
        1
280
     0
281
     0
  0
CLASS
  1
ACIMDBLSTATICVAR
  2
AcImDblStaticVar
  3
AcMeServices
 90
        0
 91
       20
280
     0
281
     0
  0
CLASS
  1
ACIMSTRSTATICVAR
  2
AcImStrStaticVar
  3
AcMeServices
 90
        0
 91
       12
280
     0
281
     0
  0
CLASS
  1
ACIMINTSTATICVAR
  2
AcImIntStaticVar
  3
AcMeServices
 90
        0
 91
       17
280
     0
281
     0
  0
CLASS
  1
ACASGREFMASTER
  2
AcAsGrefMaster
  3
AutoSurfResolverServices
 90
        0
 91
        1
280
     0
281
     0
  0
CLASS
  1
ACADGREFMODULE
  2
AcAdGrefModule
  3
AdGrefServices
 90
        0
 91
        1
280
     0
281
     0
  0
CLASS
  1
AMDTMAPISURFMOUDULE
  2
AmdtMApiSurfModule
  3
MApiSurfServices
 90
        0
 91
        1
280
     0
281
     0
  0
CLASS
  1
MAPIADMODULE
  2
MApiAdModule
  3
MApiAdServices
 90
        0
 91
        1
280
     0
281
     0
  0
CLASS
  1
ACMDATAENTRYBLOCK
  2
AcmDataEntryBlock
  3
"AcmSymBB|Product Description: AutoCAD Mechanical 2004 DX|Company: Autodesk"
 90
        0
 91
        1
280
     0
281
     0
  0
CLASS
  1
EXACXREFPANELOBJECT
  2
ExAcXREFPanelObject
  3
EXAC_ESW
 90
        0
 91
        1
280
     0
281
     0
  0
ENDSEC
  0
SECTION
  2
TABLES
  0
TABLE
  2
VPORT
  5
7
330
0
100
AcDbSymbolTable
 70
     6
  0
VPORT
  5
11FC
330
7
100
AcDbSymbolTableRecord
100
AcDbViewportTableRecord
  2
*Active
 70
     0
 10
0.0
 20
0.0
 11
1.0
 21
1.0
 12
0.6505696430835837
 22
0.6259182137820279
 13
0.0
 23
0.0
 14
1.0
 24
1.0
 15
0.0
 25
0.0
 16
0.0
 26
0.0
 36
1.0
 17
0.0
 27
0.0
 37
0.0
 40
1.647219293265596
 41
1.416837782340862
 42
50.0
 43
0.0
 44
0.0
 50
0.0
 51
0.0
 71
     0
 72
   100
 73
     1
 74
     1
 75
     0
 76
     0
 77
     0
 78
     0
281
     0
 65
     1
110
0.0
120
0.0
130
0.0
111
1.0
121
0.0
131
0.0
112
0.0
122
1.0
132
0.0
 79
     0
146
0.0
  0
ENDTAB
  0
TABLE
  2
LTYPE
  5
4
330
0
100
AcDbSymbolTable
 70
    20
  0
LTYPE
  5
11
330
4
100
AcDbSymbolTableRecord
100
AcDbLinetypeTableRecord
  2
BYBLOCK
 70
     0
  3

 72
    65
 73
     0
 40
0.0
  0
LTYPE
  5
12
330
4
100
AcDbSymbolTableRecord
100
AcDbLinetypeTableRecord
  2
BYLAYER
 70
     0
  3

 72
    65
 73
     0
 40
0.0
  0
LTYPE
  5
13
330
4
100
AcDbSymbolTableRecord
100
AcDbLinetypeTableRecord
  2
CONTINUOUS
 70
     0
  3
Solid line
 72
    65
 73
     0
 40
0.0
  0
LTYPE
  5
1D
330
4
100
AcDbSymbolTableRecord
100
AcDbLinetypeTableRecord
  2
DASHED
 70
     0
  3
_ _ _ _ _ _ _ _ _ _ _ _ _ _ _ _
 72
    65
 73
     2
 40
0.2
 49
0.1
 74
     0
 49
-0.1
 74
     0
  0
LTYPE
  5
1E
330
4
100
AcDbSymbolTableRecord
100
AcDbLinetypeTableRecord
  2
CENTER
 70
     0
  3
___ _ ___ _ ___ _ ___ _ ___ _ ___ _ ___ _ ___ _
 72
    65
 73
     4
 40
0.95
 49
0.625
 74
     0
 49
-0.125
 74
     0
 49
0.075
 74
     0
 49
-0.125
 74
     0
  0
LTYPE
  5
1F
330
4
100
AcDbSymbolTableRecord
100
AcDbLinetypeTableRecord
  2
PHANTOM
 70
     0
  3
______  __  __  ______  __  __  ______  __  __  
 72
    65
 73
     6
 40
1.024999999999999
 49
0.625
 74
     0
 49
-0.125
 74
     0
 49
0.075
 74
     0
 49
-0.125
 74
     0
 49
0.075
 74
     0
 49
-0.125
 74
     0
  0
LTYPE
  5
A3D
330
4
100
AcDbSymbolTableRecord
100
AcDbLinetypeTableRecord
  2
HIDDEN
 70
     0
  3
Hidden __ __ __ __ __ __ __ __ __ __ __ __ __ _
 72
    65
 73
     2
 40
0.375
 49
0.25
 74
     0
 49
-0.125
 74
     0
  0
LTYPE
  5
A3E
330
4
100
AcDbSymbolTableRecord
100
AcDbLinetypeTableRecord
  2
PHANTOM2
 70
     0
  3
Phantom (.5x) ___ _ _ ___ _ _ ___ _ _ ___ _ _
 72
    65
 73
     6
 40
1.25
 49
0.625
 74
     0
 49
-0.125
 74
     0
 49
0.125
 74
     0
 49
-0.125
 74
     0
 49
0.125
 74
     0
 49
-0.125
 74
     0
  0
LTYPE
  5
A72
330
4
100
AcDbSymbolTableRecord
100
AcDbLinetypeTableRecord
  2
AM_ISO02W050
 70
     0
  3
__ __ __ __ __ __ __ __ __ __ __ __ __ __ __
 72
    65
 73
     2
 40
7.5
 49
6.0
 74
     0
 49
-1.5
 74
     0
  0
LTYPE
  5
A73
330
4
100
AcDbSymbolTableRecord
100
AcDbLinetypeTableRecord
  2
AM_ISO08W050
 70
     0
  3
____ . ____ . ____ . ____ . ____ . ____ . ____
 72
    65
 73
     4
 40
18.0
 49
12.0
 74
     0
 49
-1.5
 74
     0
 49
3.0
 74
     0
 49
-1.5
 74
     0
  0
LTYPE
  5
A74
330
4
100
AcDbSymbolTableRecord
100
AcDbLinetypeTableRecord
  2
AM_ISO09W050
 70
     0
  3
_____ . . _____ . . _____ . . ____ .. ____
 72
    65
 73
     6
 40
22.5
 49
12.0
 74
     0
 49
-1.5
 74
     0
 49
3.0
 74
     0
 49
-1.5
 74
     0
 49
3.0
 74
     0
 49
-1.5
 74
     0
  0
LTYPE
  5
A75
330
4
100
AcDbSymbolTableRecord
100
AcDbLinetypeTableRecord
  2
Amconstr
 70
     0
  3
_______________________
 72
    65
 73
     2
 40
9999.0
 49
9999.0
 74
     0
 49
0.0
 74
     0
  0
LTYPE
  5
A76
330
4
100
AcDbSymbolTableRecord
100
AcDbLinetypeTableRecord
  2
AM_ISO08W050x2
 70
     0
  3
__ . __ . __ . __ . __ . __
 72
    65
 73
     4
 40
9.0
 49
6.0
 74
     0
 49
-0.75
 74
     0
 49
1.5
 74
     0
 49
-0.75
 74
     0
  0
LTYPE
  5
A77
330
4
100
AcDbSymbolTableRecord
100
AcDbLinetypeTableRecord
  2
AM_ISO02W050x2
 70
     0
  3
 _ _ _ _ _ _ _ _ _ _ _ _
 72
    65
 73
     2
 40
3.75
 49
3.0
 74
     0
 49
-0.75
 74
     0
  0
LTYPE
  5
A7A
330
4
100
AcDbSymbolTableRecord
100
AcDbLinetypeTableRecord
  2
Amzigzag
 70
     0
  3
/\/-/\/-/\/-/\/-/\/-/\/
 72
    65
 73
     2
 40
11.0001
 49
0.0001
 74
     4
 75
   135
340
A79
 46
0.04
 50
0.0
 44
0.0
 45
0.0
 49
-11.0
 74
     0
  0
LTYPE
  5
A7B
330
4
100
AcDbSymbolTableRecord
100
AcDbLinetypeTableRecord
  2
CENTER2
 70
     0
  3
Center (.5x) ___ _ ___ _ ___ _ ___ _ ___ _ ___
 72
    65
 73
     4
 40
1.125
 49
0.75
 74
     0
 49
-0.125
 74
     0
 49
0.125
 74
     0
 49
-0.125
 74
     0
  0
LTYPE
  5
A7C
330
4
100
AcDbSymbolTableRecord
100
AcDbLinetypeTableRecord
  2
HIDDEN2
 70
     0
  3
Hidden (.5x) _ _ _ _ _ _ _ _ _ _ _ _ _ _ _ _ _
 72
    65
 73
     2
 40
0.1875
 49
0.125
 74
     0
 49
-0.0625
 74
     0
  0
LTYPE
  5
A7D
330
4
100
AcDbSymbolTableRecord
100
AcDbLinetypeTableRecord
  2
Amzigzag2
 70
     0
  3
/\/-/\/-/\/-/\/-/\/-/\/
 72
    65
 73
     2
 40
0.4401
 49
0.0001
 74
     4
 75
   135
340
A79
 46
0.0016
 50
0.0
 44
0.0
 45
0.0
 49
-0.4400000000000001
 74
     0
  0
LTYPE
  5
A8B
330
4
100
AcDbSymbolTableRecord
100
AcDbLinetypeTableRecord
  2
ACANSTGB
 70
     0
  3
__ . . __ . .
 72
    65
 73
     6
 40
0.35433070866
 49
0.15748031496
 74
     0
 49
-0.03937007874
 74
     0
 49
0.03937007874
 74
     0
 49
-0.03937007874
 74
     0
 49
0.03937007874
 74
     0
 49
-0.03937007874
 74
     0
  0
LTYPE
  5
A8C
330
4
100
AcDbSymbolTableRecord
100
AcDbLinetypeTableRecord
  2
ACANSTGL
 70
     0
  3
_ _ _ _ _
 72
    65
 73
     2
 40
0.11811023622
 49
0.07874015748
 74
     0
 49
-0.03937007874
 74
     0
  0
LTYPE
  5
FCD
330
4
100
AcDbSymbolTableRecord
100
AcDbLinetypeTableRecord
  2
ASULTYPE
 70
     0
  3
Solid line
 72
    65
 73
     2
 40
3.0
 49
2.5
 74
     0
 49
0.5
 74
     0
  0
LTYPE
  5
FCE
330
4
100
AcDbSymbolTableRecord
100
AcDbLinetypeTableRecord
  2
ASVLTYPE
 70
     0
  3
__ __ __ __ __ __ __ __ __ __ __ __ __ __ __ __ __ __ __ __ __
 72
    65
 73
     2
 40
0.75
 49
0.5
 74
     0
 49
-0.25
 74
     0
  0
ENDTAB
  0
TABLE
  2
LAYER
  5
2
102
{ACAD_XDICTIONARY
360
1010
102
}
330
0
100
AcDbSymbolTable
 70
     5
  0
LAYER
  5
14
330
2
100
AcDbSymbolTableRecord
100
AcDbLayerTableRecord
  2
0
 70
     0
 62
     7
  6
CONTINUOUS
370
    -3
390
108
  0
LAYER
  5
25
330
2
100
AcDbSymbolTableRecord
100
AcDbLayerTableRecord
  2
DIMENSIONS
 70
     0
 62
     7
  6
CONTINUOUS
370
    -3
390
108
  0
LAYER
  5
26
330
2
100
AcDbSymbolTableRecord
100
AcDbLayerTableRecord
  2
TITLE_BLOCK
 70
     0
 62
     7
  6
CONTINUOUS
370
    -3
390
108
  0
LAYER
  5
2B
330
2
100
AcDbSymbolTableRecord
100
AcDbLayerTableRecord
  2
DEFPOINTS
 70
     0
 62
     7
  6
CONTINUOUS
290
     0
370
    -3
390
108
  0
LAYER
  5
10D9
330
2
100
AcDbSymbolTableRecord
100
AcDbLayerTableRecord
  2
PRODUCT
 70
     0
 62
     7
  6
CONTINUOUS
370
    -3
390
108
1001
AcAecLayerStandard
1000

1000

  0
ENDTAB
  0
TABLE
  2
STYLE
  5
3
330
0
100
AcDbSymbolTable
 70
     4
  0
STYLE
  5
17
330
3
100
AcDbSymbolTableRecord
100
AcDbTextStyleTableRecord
  2
STANDARD
 70
     0
 40
0.0
 41
1.0
 50
0.0
 71
     0
 42
0.2
  3
txt
  4

  0
STYLE
  5
A79
330
3
100
AcDbSymbolTableRecord
100
AcDbTextStyleTableRecord
  2

 70
     1
 40
0.0
 41
1.0
 50
0.0
 71
     0
 42
0.2
  3
ltypeshp.shx
  4

  0
STYLE
  5
A7E
330
3
100
AcDbSymbolTableRecord
100
AcDbTextStyleTableRecord
  2
ACANSTS
 70
     0
 40
1.0
 41
1.0
 50
0.0
 71
     0
 42
0.2
  3
romans.shx
  4

  0
STYLE
  5
A8A
330
3
100
AcDbSymbolTableRecord
100
AcDbTextStyleTableRecord
  2
ACANSGDT
 70
     0
 40
0.0
 41
1.0
 50
0.0
 71
     0
 42
0.2
  3
amgdtans.shx
  4

  0
ENDTAB
  0
TABLE
  2
VIEW
  5
5
330
0
100
AcDbSymbolTable
 70
     0
  0
ENDTAB
  0
TABLE
  2
UCS
  5
6
330
0
100
AcDbSymbolTable
 70
     1
  0
UCS
  5
20
330
6
100
AcDbSymbolTableRecord
100
AcDbUCSTableRecord
  2
CK_VIEW_1
 70
     0
 10
0.0
 20
0.0
 30
1.0
 11
1.0
 21
0.0
 31
0.0
 12
0.0
 22
1.0
 32
0.0
 79
     0
146
0.0
  0
ENDTAB
  0
TABLE
  2
APPID
  5
8
330
0
100
AcDbSymbolTable
 70
    18
  0
APPID
  5
16
330
8
100
AcDbSymbolTableRecord
100
AcDbRegAppTableRecord
  2
ACAD
 70
     0
  0
APPID
  5
111
330
8
100
AcDbSymbolTableRecord
100
AcDbRegAppTableRecord
  2
DCO15
 70
     0
  0
APPID
  5
A10
330
8
100
AcDbSymbolTableRecord
100
AcDbRegAppTableRecord
  2
MCAD_NO_VIS
 70
     0
  0
APPID
  5
A11
330
8
100
AcDbSymbolTableRecord
100
AcDbRegAppTableRecord
  2
ACAD_TEMP_GRAPHIC
 70
     0
  0
APPID
  5
A40
330
8
100
AcDbSymbolTableRecord
100
AcDbRegAppTableRecord
  2
AD_DRAW
 70
     0
  0
APPID
  5
A43
330
8
100
AcDbSymbolTableRecord
100
AcDbRegAppTableRecord
  2
ACATTRIBSERVICES
 70
     0
  0
APPID
  5
A61
330
8
100
AcDbSymbolTableRecord
100
AcDbRegAppTableRecord
  2
DESIGNERASSEMBLIES
 70
     0
  0
APPID
  5
A67
330
8
100
AcDbSymbolTableRecord
100
AcDbRegAppTableRecord
  2
ACADM_DIM_EDIT
 70
     0
  0
APPID
  5
A68
330
8
100
AcDbSymbolTableRecord
100
AcDbRegAppTableRecord
  2
AMDT_DM_ADJ
 70
     0
  0
APPID
  5
C26
330
8
100
AcDbSymbolTableRecord
100
AcDbRegAppTableRecord
  2
GENIUS_GENDTOL_13
 70
     0
  0
APPID
  5
D6F
330
8
100
AcDbSymbolTableRecord
100
AcDbRegAppTableRecord
  2
ACAD_PSEXT
 70
     0
  0
APPID
  5
F7C
330
8
100
AcDbSymbolTableRecord
100
AcDbRegAppTableRecord
  2
GENIUS_GENDIM_13
 70
     0
  0
APPID
  5
F7D
330
8
100
AcDbSymbolTableRecord
100
AcDbRegAppTableRecord
  2
GENIUS_GE3DTOL_13
 70
     0
  0
APPID
  5
FCF
330
8
100
AcDbSymbolTableRecord
100
AcDbRegAppTableRecord
  2
ASURF_PCURVE_APPNAME
 70
     0
  0
APPID
  5
FD3
330
8
100
AcDbSymbolTableRecord
100
AcDbRegAppTableRecord
  2
AMG_3D2D_5.0
 70
     0
  0
APPID
  5
FEF
330
8
100
AcDbSymbolTableRecord
100
AcDbRegAppTableRecord
  2
ACAD_DSTYLE_DIMARC_LENGTH_SYMBOL
 70
     0
  0
APPID
  5
FF0
330
8
100
AcDbSymbolTableRecord
100
AcDbRegAppTableRecord
  2
ACAD_DSTYLE_DIMJOGGED_JOGANGLE_SYMBOL
 70
     0
  0
APPID
  5
100F
330
8
100
AcDbSymbolTableRecord
100
AcDbRegAppTableRecord
  2
AcAecLayerStandard
 70
     0
  0
ENDTAB
  0
TABLE
  2
DIMSTYLE
  5
9
330
0
100
AcDbSymbolTable
 70
    20
100
AcDbDimStyleTable
 71
     2
340
27
340
18
  0
DIMSTYLE
105
18
330
9
100
AcDbSymbolTableRecord
100
AcDbDimStyleTableRecord
  2
STANDARD
 70
     0
289
     0
340
17
  0
DIMSTYLE
105
27
102
{ACAD_REACTORS
330
686
102
}
330
9
100
AcDbSymbolTableRecord
100
AcDbDimStyleTableRecord
  2
DIMSTYLE1
 70
     0
 41
0.0125
 44
0.0125
140
0.0125
289
     0
340
17
  0
DIMSTYLE
105
37
330
9
100
AcDbSymbolTableRecord
100
AcDbDimStyleTableRecord
  2
DIMSTYLE2
 70
     0
 41
0.0125
 44
0.0125
140
0.0125
289
     0
340
17
  0
DIMSTYLE
105
46
330
9
100
AcDbSymbolTableRecord
100
AcDbDimStyleTableRecord
  2
DIMSTYLE3
 70
     0
 41
0.0125
 44
0.0125
140
0.0125
289
     0
340
17
  0
DIMSTYLE
105
55
330
9
100
AcDbSymbolTableRecord
100
AcDbDimStyleTableRecord
  2
DIMSTYLE4
 70
     0
 41
0.0125
 44
0.0125
140
0.0125
289
     0
340
17
  0
DIMSTYLE
105
66
330
9
100
AcDbSymbolTableRecord
100
AcDbDimStyleTableRecord
  2
DIMSTYLE5
 70
     0
 41
0.0125
 44
0.0125
140
0.0125
289
     0
340
17
  0
DIMSTYLE
105
75
330
9
100
AcDbSymbolTableRecord
100
AcDbDimStyleTableRecord
  2
DIMSTYLE6
 70
     0
 41
0.0125
 44
0.0125
140
0.0125
289
     0
340
17
  0
DIMSTYLE
105
84
330
9
100
AcDbSymbolTableRecord
100
AcDbDimStyleTableRecord
  2
DIMSTYLE7
 70
     0
 41
0.0125
 44
0.0125
140
0.0125
289
     0
340
17
  0
DIMSTYLE
105
93
330
9
100
AcDbSymbolTableRecord
100
AcDbDimStyleTableRecord
  2
DIMSTYLE8
 70
     0
 41
0.0125
 44
0.0125
140
0.0125
289
     0
340
17
  0
DIMSTYLE
105
17D
330
9
100
AcDbSymbolTableRecord
100
AcDbDimStyleTableRecord
  2
DIMSTYLE15
 70
     0
 41
0.0125
 44
0.0125
140
0.0125
289
     0
340
17
  0
DIMSTYLE
105
17E
330
9
100
AcDbSymbolTableRecord
100
AcDbDimStyleTableRecord
  2
DIMSTYLE16
 70
     0
 41
0.0125
 44
0.0125
140
0.0125
289
     0
340
17
  0
DIMSTYLE
105
17F
330
9
100
AcDbSymbolTableRecord
100
AcDbDimStyleTableRecord
  2
DIMSTYLE17
 70
     0
 41
0.0125
 44
0.0125
140
0.0125
289
     0
340
17
  0
DIMSTYLE
105
180
330
9
100
AcDbSymbolTableRecord
100
AcDbDimStyleTableRecord
  2
DIMSTYLE18
 70
     0
 41
0.0125
 44
0.0125
140
0.0125
289
     0
340
17
  0
DIMSTYLE
105
A96
330
9
100
AcDbSymbolTableRecord
100
AcDbDimStyleTableRecord
  2
AM_ANSI
 70
     0
  4
mm
 41
0.1
 42
0.05
 43
0.5
 44
0.1
 47
0.1
 48
0.1
 78
     7
 79
     2
140
0.12
141
0.0
146
0.71
147
0.06
176
   256
177
   256
178
     2
274
     4
284
     7
340
17
371
    -1
372
    -1
1001
ACAD_DSTYLE_DIMARC_LENGTH_SYMBOL
1070
   379
1070
     1
1001
ACAD_DSTYLE_DIMJOGGED_JOGANGLE_SYMBOL
1070
   384
1040
0.7853981633974483
  0
DIMSTYLE
105
A97
330
9
100
AcDbSymbolTableRecord
100
AcDbDimStyleTableRecord
  2
AM_ANSI$3
 70
     0
  4
mm
 41
0.1
 42
0.05
 43
0.5
 44
0.1
 47
0.1
 48
0.1
 78
     7
 79
     2
140
0.12
141
0.0
146
0.71
147
0.06
176
   256
177
   256
178
     2
274
     4
284
     7
288
     1
289
     0
340
17
371
    -1
372
    -1
1001
ACAD_DSTYLE_DIMARC_LENGTH_SYMBOL
1070
   379
1070
     1
1001
ACAD_DSTYLE_DIMJOGGED_JOGANGLE_SYMBOL
1070
   384
1040
0.7853981633974483
  0
DIMSTYLE
105
A98
330
9
100
AcDbSymbolTableRecord
100
AcDbDimStyleTableRecord
  2
AM_ANSI$4
 70
     0
  4
mm
 41
0.1
 42
0.05
 43
0.5
 44
0.1
 47
0.1
 48
0.1
 78
     7
 79
     2
140
0.12
141
0.0
146
0.71
147
0.06
176
   256
177
   256
178
     2
274
     4
284
     7
288
     1
289
     0
340
17
371
    -1
372
    -1
1001
ACAD_DSTYLE_DIMARC_LENGTH_SYMBOL
1070
   379
1070
     1
1001
ACAD_DSTYLE_DIMJOGGED_JOGANGLE_SYMBOL
1070
   384
1040
0.7853981633974483
  0
DIMSTYLE
105
A99
330
9
100
AcDbSymbolTableRecord
100
AcDbDimStyleTableRecord
  2
AM_ANSI$7
 70
     0
  4
mm
 41
0.1
 42
0.05
 43
0.5
 44
0.1
 47
0.1
 48
0.1
 78
     7
 79
     2
140
0.24
141
0.0
146
0.71
147
0.06
176
   256
177
   256
178
     2
274
     4
284
     7
340
17
371
    -1
372
    -1
1001
ACAD_DSTYLE_DIMARC_LENGTH_SYMBOL
1070
   379
1070
     1
1001
ACAD_DSTYLE_DIMJOGGED_JOGANGLE_SYMBOL
1070
   384
1040
0.7853981633974483
  0
DIMSTYLE
105
A9A
330
9
100
AcDbSymbolTableRecord
100
AcDbDimStyleTableRecord
  2
AM_ANSI$SF
 70
     0
  4
mm
 41
0.1
 42
0.05
 43
0.5
 44
0.1
 47
0.1
 48
0.1
 75
     1
 76
     1
 78
     7
 79
     2
140
0.12
141
0.0
146
0.71
147
0.06
176
   256
177
   256
178
     2
274
     4
284
     7
340
17
371
    -1
372
    -1
1001
ACAD_DSTYLE_DIMARC_LENGTH_SYMBOL
1070
   379
1070
     1
1001
ACAD_DSTYLE_DIMJOGGED_JOGANGLE_SYMBOL
1070
   384
1040
0.7853981633974483
  0
DIMSTYLE
105
A9F
330
9
100
AcDbSymbolTableRecord
100
AcDbDimStyleTableRecord
  2
AM_ANSI$SH
 70
     0
  4
mm
 41
0.1
 42
0.05
 43
0.5
 44
0.1
 47
0.1
 48
0.1
 75
     1
 76
     1
 78
     7
 79
     2
140
0.12
141
0.0
146
0.71
147
0.06
173
     1
176
   256
177
   256
178
     2
274
     4
284
     7
340
17
343
A9B
371
    -1
372
    -1
1001
ACAD_DSTYLE_DIMARC_LENGTH_SYMBOL
1070
   379
1070
     1
1001
ACAD_DSTYLE_DIMJOGGED_JOGANGLE_SYMBOL
1070
   384
1040
0.7853981633974483
  0
DIMSTYLE
105
C08
102
{ACAD_REACTORS
330
1F3
330
351
330
3EE
330
42E
330
518
330
686
330
982
330
11C1
330
11B2
330
11CF
102
}
330
9
100
AcDbSymbolTableRecord
100
AcDbDimStyleTableRecord
  2
DIMSTYLE1$0
 70
     0
 41
0.0125
 44
0.0125
140
0.0125
289
     0
340
17
  0
ENDTAB
  0
TABLE
  2
BLOCK_RECORD
  5
1
330
0
100
AcDbSymbolTable
 70
    14
  0
BLOCK_RECORD
  5
A
102
{ACAD_XDICTIONARY
360
AD5
102
}
330
1
100
AcDbSymbolTableRecord
100
AcDbBlockTableRecord
  2
*MODEL_SPACE
340
10B
  0
BLOCK_RECORD
  5
B
330
1
100
AcDbSymbolTableRecord
100
AcDbBlockTableRecord
  2
*PAPER_SPACE
340
10C
  0
BLOCK_RECORD
  5
1F4
330
1
100
AcDbSymbolTableRecord
100
AcDbBlockTableRecord
  2
*D0
340
0
  0
BLOCK_RECORD
  5
352
330
1
100
AcDbSymbolTableRecord
100
AcDbBlockTableRecord
  2
*D1
340
0
  0
BLOCK_RECORD
  5
3EF
330
1
100
AcDbSymbolTableRecord
100
AcDbBlockTableRecord
  2
*D2
340
0
  0
BLOCK_RECORD
  5
42F
330
1
100
AcDbSymbolTableRecord
100
AcDbBlockTableRecord
  2
*D3
340
0
  0
BLOCK_RECORD
  5
519
330
1
100
AcDbSymbolTableRecord
100
AcDbBlockTableRecord
  2
*D4
340
0
  0
BLOCK_RECORD
  5
687
330
1
100
AcDbSymbolTableRecord
100
AcDbBlockTableRecord
  2
*D5
340
0
  0
BLOCK_RECORD
  5
983
330
1
100
AcDbSymbolTableRecord
100
AcDbBlockTableRecord
  2
*D6
340
0
  0
BLOCK_RECORD
  5
A58
330
1
100
AcDbSymbolTableRecord
100
AcDbBlockTableRecord
  2
*U7
340
0
  0
BLOCK_RECORD
  5
A9B
330
1
100
AcDbSymbolTableRecord
100
AcDbBlockTableRecord
  2
GENAXEH
340
0
  0
BLOCK_RECORD
  5
D84
330
1
100
AcDbSymbolTableRecord
100
AcDbBlockTableRecord
  2
*D9
340
0
  0
BLOCK_RECORD
  5
EE2
330
1
100
AcDbSymbolTableRecord
100
AcDbBlockTableRecord
  2
*D10
340
0
  0
BLOCK_RECORD
  5
11B3
330
1
100
AcDbSymbolTableRecord
100
AcDbBlockTableRecord
  2
*D11
340
0
  0
BLOCK_RECORD
  5
11C2
330
1
100
AcDbSymbolTableRecord
100
AcDbBlockTableRecord
  2
*D12
340
0
  0
BLOCK_RECORD
  5
11D0
330
1
100
AcDbSymbolTableRecord
100
AcDbBlockTableRecord
  2
*D13
340
0
  0
ENDTAB
  0
ENDSEC
  0
SECTION
  2
BLOCKS
  0
BLOCK
  5
D
330
A
100
AcDbEntity
  8
0
100
AcDbBlockBegin
  2
*MODEL_SPACE
 70
     0
 10
0.0
 20
0.0
 30
0.0
  3
*MODEL_SPACE
  1

  0
ENDBLK
  5
E
330
A
100
AcDbEntity
  8
0
100
AcDbBlockEnd
  0
BLOCK
  5
F
330
B
100
AcDbEntity
 67
     1
  8
0
100
AcDbBlockBegin
  2
*PAPER_SPACE
 70
     0
 10
0.0
 20
0.0
 30
0.0
  3
*PAPER_SPACE
  1

  0
ENDBLK
  5
10
330
B
100
AcDbEntity
 67
     1
  8
0
100
AcDbBlockEnd
  0
BLOCK
  5
200
330
1F4
100
AcDbEntity
  8
0
 62
     6
100
AcDbBlockBegin
  2
*D0
 70
     1
 10
0.0
 20
0.0
 30
0.0
  3
*D0
  1

  0
LINE
  5
11A6
330
1F4
100
AcDbEntity
  8
DIMENSIONS
  6
Continuous
 62
     0
370
    -2
100
AcDbLine
 10
0.4414135499858772
 20
0.9247587565888689
 30
0.0
 11
0.5168410975454192
 21
0.9247587565888689
 31
0.0
  0
LINE
  5
11A7
330
1F4
100
AcDbEntity
  8
DIMENSIONS
  6
Continuous
 62
     0
370
    -2
100
AcDbLine
 10
0.4403479864590656
 20
0.737758756694236
 30
0.0
 11
0.5168410975454191
 21
0.737758756694236
 31
0.0
  0
LINE
  5
11A8
330
1F4
100
AcDbEntity
  8
DIMENSIONS
  6
Continuous
 62
     0
370
    -2
100
AcDbLine
 10
0.5043410975454192
 20
0.9122587565888689
 30
0.0
 11
0.5043410975454192
 21
0.8465087566415524
 31
0.0
  0
LINE
  5
11A9
330
1F4
100
AcDbEntity
  8
DIMENSIONS
  6
Continuous
 62
     0
370
    -2
100
AcDbLine
 10
0.5043410975454192
 20
0.7502587566942359
 30
0.0
 11
0.5043410975454192
 21
0.8160087566415525
 31
0.0
  0
SOLID
  5
11AA
330
1F4
100
AcDbEntity
  8
DIMENSIONS
  6
Continuous
 62
     0
100
AcDbTrace
 10
0.5022577642120859
 20
0.9122587565888689
 30
0.0
 11
0.5064244308787526
 21
0.9122587565888689
 31
0.0
 12
0.5043410975454192
 22
0.9247587565888689
 32
0.0
 13
0.5043410975454192
 23
0.9247587565888689
 33
0.0
  0
SOLID
  5
11AB
330
1F4
100
AcDbEntity
  8
DIMENSIONS
  6
Continuous
 62
     0
100
AcDbTrace
 10
0.5022577642120859
 20
0.7502587566942359
 30
0.0
 11
0.5064244308787526
 21
0.7502587566942359
 31
0.0
 12
0.5043410975454191
 22
0.737758756694236
 32
0.0
 13
0.5043410975454191
 23
0.737758756694236
 33
0.0
  0
MTEXT
  5
11AC
330
1F4
100
AcDbEntity
  8
DIMENSIONS
  6
Continuous
 62
     1
100
AcDbMText
 10
0.504341097545419
 20
0.8312587566415526
 30
0.0
 40
0.0125
 41
0.0
 71
     5
 72
     1
  1
\A1;.187±.005
 73
     1
 44
1.0
  0
POINT
  5
11AD
330
1F4
100
AcDbEntity
  8
DEFPOINTS
  6
Continuous
 62
     0
100
AcDbPoint
 10
0.3789135499858771
 20
0.9247587565888689
 30
0.0
  0
POINT
  5
11AE
330
1F4
100
AcDbEntity
  8
DEFPOINTS
  6
Continuous
 62
     0
100
AcDbPoint
 10
0.3778479864590656
 20
0.737758756694236
 30
0.0
  0
POINT
  5
11AF
330
1F4
100
AcDbEntity
  8
DEFPOINTS
  6
Continuous
 62
     0
100
AcDbPoint
 10
0.5043410975454191
 20
0.737758756694236
 30
0.0
  0
ENDBLK
  5
201
330
1F4
100
AcDbEntity
  8
0
 62
     6
100
AcDbBlockEnd
  0
BLOCK
  5
35E
330
352
100
AcDbEntity
  8
0
 62
     6
100
AcDbBlockBegin
  2
*D1
 70
     1
 10
0.0
 20
0.0
 30
0.0
  3
*D1
  1

  0
LINE
  5
119C
330
352
100
AcDbEntity
  8
DIMENSIONS
  6
Continuous
 62
     0
370
    -2
100
AcDbLine
 10
0.3062694736267462
 20
0.6023611143752822
 30
0.0
 11
0.2871106131815255
 21
0.6023611143752822
 31
0.0
  0
LINE
  5
119D
330
352
100
AcDbEntity
  8
DIMENSIONS
  6
Continuous
 62
     0
370
    -2
100
AcDbLine
 10
0.3426966637290931
 20
0.592361114375282
 30
0.0
 11
0.2871106131815255
 21
0.592361114375282
 31
0.0
  0
LINE
  5
119E
330
352
100
AcDbEntity
  8
DIMENSIONS
  6
Continuous
 62
     0
370
    -2
100
AcDbLine
 10
0.2996106131815255
 20
0.6148611143752821
 30
0.0
 11
0.2996106131815255
 21
0.6273611143752822
 31
0.0
  0
LINE
  5
119F
330
352
100
AcDbEntity
  8
DIMENSIONS
  6
Continuous
 62
     0
370
    -2
100
AcDbLine
 10
0.2996106131815255
 20
0.579861114375282
 30
0.0
 11
0.2996106131815255
 21
0.5673611143752819
 31
0.0
  0
MTEXT
  5
11A0
330
352
100
AcDbEntity
  8
DIMENSIONS
  6
Continuous
 62
     1
100
AcDbMText
 10
0.2384514147327694
 20
0.5860622833545376
 30
0.0
 40
0.0125
 41
0.0
 71
     5
 72
     1
  1
\A1;.010±.003
 73
     1
 44
1.0
  0
SOLID
  5
11A1
330
352
100
AcDbEntity
  8
DIMENSIONS
  6
Continuous
 62
     0
100
AcDbTrace
 10
0.2975272798481922
 20
0.6148611143752821
 30
0.0
 11
0.3016939465148588
 21
0.6148611143752821
 31
0.0
 12
0.2996106131815255
 22
0.6023611143752822
 32
0.0
 13
0.2996106131815255
 23
0.6023611143752822
 33
0.0
  0
SOLID
  5
11A2
330
352
100
AcDbEntity
  8
DIMENSIONS
  6
Continuous
 62
     0
100
AcDbTrace
 10
0.2975272798481922
 20
0.579861114375282
 30
0.0
 11
0.3016939465148588
 21
0.579861114375282
 31
0.0
 12
0.2996106131815255
 22
0.592361114375282
 32
0.0
 13
0.2996106131815255
 23
0.592361114375282
 33
0.0
  0
POINT
  5
11A3
330
352
100
AcDbEntity
  8
DEFPOINTS
  6
Continuous
 62
     0
100
AcDbPoint
 10
0.3687694736267462
 20
0.6023611143752822
 30
0.0
  0
POINT
  5
11A4
330
352
100
AcDbEntity
  8
DEFPOINTS
  6
Continuous
 62
     0
100
AcDbPoint
 10
0.4051966637290932
 20
0.592361114375282
 30
0.0
  0
POINT
  5
11A5
330
352
100
AcDbEntity
  8
DEFPOINTS
  6
Continuous
 62
     0
100
AcDbPoint
 10
0.2996106131815255
 20
0.592361114375282
 30
0.0
  0
ENDBLK
  5
35F
330
352
100
AcDbEntity
  8
0
 62
     6
100
AcDbBlockEnd
  0
BLOCK
  5
3FA
330
3EF
100
AcDbEntity
  8
0
 62
     6
100
AcDbBlockBegin
  2
*D2
 70
     1
 10
0.0
 20
0.0
 30
0.0
  3
*D2
  1

  0
LINE
  5
1193
330
3EF
100
AcDbEntity
  8
DIMENSIONS
  6
Continuous
 62
     0
370
    -2
100
AcDbLine
 10
0.3353596758943836
 20
0.7450416852922222
 30
0.0
 11
0.3353596758943836
 21
0.6970758645867268
 31
0.0
  0
LINE
  5
1194
330
3EF
100
AcDbEntity
  8
DIMENSIONS
  6
Continuous
 62
     0
370
    -2
100
AcDbLine
 10
0.4152821723997454
 20
0.7400916749246226
 30
0.0
 11
0.4152821723997454
 21
0.6970758645867268
 31
0.0
  0
LINE
  5
1195
330
3EF
100
AcDbEntity
  8
DIMENSIONS
  6
Continuous
 62
     0
370
    -2
100
AcDbLine
 10
0.3478596758943836
 20
0.7095758645867268
 30
0.0
 11
0.4027821723997454
 21
0.7095758645867268
 31
0.0
  0
MTEXT
  5
1196
330
3EF
100
AcDbEntity
  8
DIMENSIONS
  6
Continuous
 62
     1
100
AcDbMText
 10
0.3778479864590656
 20
0.737758756694236
 30
0.0
 40
0.0125
 41
0.0
 71
     5
 72
     1
  1
\A1;.080
 73
     1
 44
1.0
  0
SOLID
  5
1197
330
3EF
100
AcDbEntity
  8
DIMENSIONS
  6
Continuous
 62
     0
100
AcDbTrace
 10
0.3478596758943836
 20
0.7116591979200601
 30
0.0
 11
0.3478596758943836
 21
0.7074925312533935
 31
0.0
 12
0.3353596758943836
 22
0.7095758645867268
 32
0.0
 13
0.3353596758943836
 23
0.7095758645867268
 33
0.0
  0
SOLID
  5
1198
330
3EF
100
AcDbEntity
  8
DIMENSIONS
  6
Continuous
 62
     0
100
AcDbTrace
 10
0.4027821723997454
 20
0.7116591979200601
 30
0.0
 11
0.4027821723997454
 21
0.7074925312533935
 31
0.0
 12
0.4152821723997454
 22
0.7095758645867268
 32
0.0
 13
0.4152821723997454
 23
0.7095758645867268
 33
0.0
  0
POINT
  5
1199
330
3EF
100
AcDbEntity
  8
DEFPOINTS
  6
Continuous
 62
     0
100
AcDbPoint
 10
0.3353596758943836
 20
0.807541685292222
 30
0.0
  0
POINT
  5
119A
330
3EF
100
AcDbEntity
  8
DEFPOINTS
  6
Continuous
 62
     0
100
AcDbPoint
 10
0.4152821723997454
 20
0.8025916749246226
 30
0.0
  0
POINT
  5
119B
330
3EF
100
AcDbEntity
  8
DEFPOINTS
  6
Continuous
 62
     0
100
AcDbPoint
 10
0.4152821723997454
 20
0.7095758645867268
 30
0.0
  0
ENDBLK
  5
3FB
330
3EF
100
AcDbEntity
  8
0
 62
     6
100
AcDbBlockEnd
  0
BLOCK
  5
43B
330
42F
100
AcDbEntity
  8
0
 62
     6
100
AcDbBlockBegin
  2
*D3
 70
     1
 10
0.0
 20
0.0
 30
0.0
  3
*D3
  1

  0
LINE
  5
1189
330
42F
100
AcDbEntity
  8
DIMENSIONS
  6
Continuous
 62
     0
370
    -2
100
AcDbLine
 10
0.5215211729965076
 20
0.6273611143752819
 30
0.0
 11
0.5953713221516578
 21
0.6273611143752819
 31
0.0
  0
LINE
  5
118A
330
42F
100
AcDbEntity
  8
DIMENSIONS
  6
Continuous
 62
     0
370
    -2
100
AcDbLine
 10
0.5228596758943837
 20
0.6023611143752818
 30
0.0
 11
0.5953713221516578
 21
0.6023611143752818
 31
0.0
  0
LINE
  5
118B
330
42F
100
AcDbEntity
  8
DIMENSIONS
  6
Continuous
 62
     0
370
    -2
100
AcDbLine
 10
0.5828713221516578
 20
0.6398611143752819
 30
0.0
 11
0.5828713221516578
 21
0.6523611143752819
 31
0.0
  0
LINE
  5
118C
330
42F
100
AcDbEntity
  8
DIMENSIONS
  6
Continuous
 62
     0
370
    -2
100
AcDbLine
 10
0.5828713221516578
 20
0.5898611143752818
 30
0.0
 11
0.5828713221516578
 21
0.5773611143752817
 31
0.0
  0
SOLID
  5
118D
330
42F
100
AcDbEntity
  8
DIMENSIONS
  6
Continuous
 62
     0
100
AcDbTrace
 10
0.5807879888183245
 20
0.6398611143752819
 30
0.0
 11
0.5849546554849912
 21
0.6398611143752819
 31
0.0
 12
0.5828713221516578
 22
0.6273611143752819
 32
0.0
 13
0.5828713221516578
 23
0.6273611143752819
 33
0.0
  0
SOLID
  5
118E
330
42F
100
AcDbEntity
  8
DIMENSIONS
  6
Continuous
 62
     0
100
AcDbTrace
 10
0.5807879888183245
 20
0.5898611143752818
 30
0.0
 11
0.5849546554849912
 21
0.5898611143752818
 31
0.0
 12
0.5828713221516578
 22
0.6023611143752818
 32
0.0
 13
0.5828713221516578
 23
0.6023611143752818
 33
0.0
  0
MTEXT
  5
118F
330
42F
100
AcDbEntity
  8
DIMENSIONS
  6
Continuous
 62
     1
100
AcDbMText
 10
0.5828713221516578
 20
0.614861114375282
 30
0.0
 40
0.0125
 41
0.0
 71
     5
 72
     1
  1
\A1;.025
 73
     1
 44
1.0
  0
POINT
  5
1190
330
42F
100
AcDbEntity
  8
DEFPOINTS
  6
Continuous
 62
     0
100
AcDbPoint
 10
0.4590211729965077
 20
0.6273611143752819
 30
0.0
  0
POINT
  5
1191
330
42F
100
AcDbEntity
  8
DEFPOINTS
  6
Continuous
 62
     0
100
AcDbPoint
 10
0.4603596758943837
 20
0.6023611143752818
 30
0.0
  0
POINT
  5
1192
330
42F
100
AcDbEntity
  8
DEFPOINTS
  6
Continuous
 62
     0
100
AcDbPoint
 10
0.5828713221516578
 20
0.6023611143752818
 30
0.0
  0
ENDBLK
  5
43C
330
42F
100
AcDbEntity
  8
0
 62
     6
100
AcDbBlockEnd
  0
BLOCK
  5
524
330
519
100
AcDbEntity
  8
0
 62
     6
100
AcDbBlockBegin
  2
*D4
 70
     1
 10
0.0
 20
0.0
 30
0.0
  3
*D4
  1

  0
LINE
  5
117F
330
519
100
AcDbEntity
  8
DIMENSIONS
  6
Continuous
 62
     0
370
    -2
100
AcDbLine
 10
0.4803596758943837
 20
0.599546628920495
 30
0.0
 11
0.4803596758943837
 21
0.5783248741306773
 31
0.0
  0
LINE
  5
1180
330
519
100
AcDbEntity
  8
DIMENSIONS
  6
Continuous
 62
     0
370
    -2
100
AcDbLine
 10
0.5103596758943838
 20
0.599546628920495
 30
0.0
 11
0.5103596758943838
 21
0.5783248741306773
 31
0.0
  0
LINE
  5
1181
330
519
100
AcDbEntity
  8
DIMENSIONS
  6
Continuous
 62
     0
370
    -2
100
AcDbLine
 10
0.4678596758943837
 20
0.5908248741306772
 30
0.0
 11
0.4553596758943837
 21
0.5908248741306772
 31
0.0
  0
LINE
  5
1182
330
519
100
AcDbEntity
  8
DIMENSIONS
  6
Continuous
 62
     0
370
    -2
100
AcDbLine
 10
0.5228596758943837
 20
0.5908248741306772
 30
0.0
 11
0.5353596758943838
 21
0.5908248741306772
 31
0.0
  0
MTEXT
  5
1183
330
519
100
AcDbEntity
  8
DIMENSIONS
  6
Continuous
 62
     1
100
AcDbMText
 10
0.5514295273936379
 20
0.5772228562342199
 30
0.0
 40
0.0125
 41
0.0
 71
     5
 72
     1
  1
\A1;.030
 73
     1
 44
1.0
  0
SOLID
  5
1184
330
519
100
AcDbEntity
  8
DIMENSIONS
  6
Continuous
 62
     0
100
AcDbTrace
 10
0.4678596758943837
 20
0.5929082074640105
 30
0.0
 11
0.4678596758943837
 21
0.5887415407973439
 31
0.0
 12
0.4803596758943837
 22
0.5908248741306772
 32
0.0
 13
0.4803596758943837
 23
0.5908248741306772
 33
0.0
  0
SOLID
  5
1185
330
519
100
AcDbEntity
  8
DIMENSIONS
  6
Continuous
 62
     0
100
AcDbTrace
 10
0.5228596758943837
 20
0.5929082074640105
 30
0.0
 11
0.5228596758943837
 21
0.5887415407973439
 31
0.0
 12
0.5103596758943838
 22
0.5908248741306772
 32
0.0
 13
0.5103596758943838
 23
0.5908248741306772
 33
0.0
  0
POINT
  5
1186
330
519
100
AcDbEntity
  8
DEFPOINTS
  6
Continuous
 62
     0
100
AcDbPoint
 10
0.4803596758943837
 20
0.662046628920495
 30
0.0
  0
POINT
  5
1187
330
519
100
AcDbEntity
  8
DEFPOINTS
  6
Continuous
 62
     0
100
AcDbPoint
 10
0.5103596758943838
 20
0.662046628920495
 30
0.0
  0
POINT
  5
1188
330
519
100
AcDbEntity
  8
DEFPOINTS
  6
Continuous
 62
     0
100
AcDbPoint
 10
0.5103596758943838
 20
0.5908248741306772
 30
0.0
  0
ENDBLK
  5
525
330
519
100
AcDbEntity
  8
0
 62
     6
100
AcDbBlockEnd
  0
BLOCK
  5
692
330
687
100
AcDbEntity
  8
0
 62
     6
100
AcDbBlockBegin
  2
*D5
 70
     1
 10
0.0
 20
0.0
 30
0.0
  3
*D5
  1

  0
LINE
  5
1175
330
687
100
AcDbEntity
  8
DIMENSIONS
  6
Continuous
 62
     0
370
    -2
100
AcDbLine
 10
0.2673003382790199
 20
1.05920888854271
 30
0.0
 11
0.1136577872025451
 21
1.05920888854271
 31
0.0
  0
LINE
  5
1176
330
687
100
AcDbEntity
  8
DIMENSIONS
  6
Continuous
 62
     0
370
    -2
100
AcDbLine
 10
0.2478596758943835
 20
0.6023611143752823
 30
0.0
 11
0.113657787202545
 21
0.6023611143752823
 31
0.0
  0
LINE
  5
1177
330
687
100
AcDbEntity
  8
DIMENSIONS
  6
Continuous
 62
     0
370
    -2
100
AcDbLine
 10
0.1261577872025451
 20
1.04670888854271
 30
0.0
 11
0.126157787202545
 21
0.8460350014589961
 31
0.0
  0
LINE
  5
1178
330
687
100
AcDbEntity
  8
DIMENSIONS
  6
Continuous
 62
     0
370
    -2
100
AcDbLine
 10
0.126157787202545
 20
0.6148611143752822
 30
0.0
 11
0.126157787202545
 21
0.8155350014589961
 31
0.0
  0
SOLID
  5
1179
330
687
100
AcDbEntity
  8
DIMENSIONS
  6
Continuous
 62
     0
100
AcDbTrace
 10
0.1240744538692118
 20
1.04670888854271
 30
0.0
 11
0.1282411205358784
 21
1.04670888854271
 31
0.0
 12
0.1261577872025451
 22
1.05920888854271
 32
0.0
 13
0.1261577872025451
 23
1.05920888854271
 33
0.0
  0
SOLID
  5
117A
330
687
100
AcDbEntity
  8
DIMENSIONS
  6
Continuous
 62
     0
100
AcDbTrace
 10
0.1240744538692116
 20
0.6148611143752822
 30
0.0
 11
0.1282411205358783
 21
0.6148611143752822
 31
0.0
 12
0.126157787202545
 22
0.6023611143752823
 32
0.0
 13
0.126157787202545
 23
0.6023611143752823
 33
0.0
  0
MTEXT
  5
117B
330
687
100
AcDbEntity
  8
DIMENSIONS
  6
Continuous
 62
     1
100
AcDbMText
 10
0.1261577872025449
 20
0.8307850014589961
 30
0.0
 40
0.0125
 41
0.0
 71
     5
 72
     1
  1
\A1;.457
 73
     1
 44
1.0
  0
POINT
  5
117C
330
687
100
AcDbEntity
  8
DEFPOINTS
  6
Continuous
 62
     0
100
AcDbPoint
 10
0.3298003382790199
 20
1.05920888854271
 30
0.0
  0
POINT
  5
117D
330
687
100
AcDbEntity
  8
DEFPOINTS
  6
Continuous
 62
     0
100
AcDbPoint
 10
0.3103596758943835
 20
0.6023611143752822
 30
0.0
  0
POINT
  5
117E
330
687
100
AcDbEntity
  8
DEFPOINTS
  6
Continuous
 62
     0
100
AcDbPoint
 10
0.126157787202545
 20
0.6023611143752823
 30
0.0
  0
ENDBLK
  5
693
330
687
100
AcDbEntity
  8
0
 62
     6
100
AcDbBlockEnd
  0
BLOCK
  5
990
330
983
100
AcDbEntity
  8
0
 62
     6
100
AcDbBlockBegin
  2
*D6
 70
     1
 10
0.0
 20
0.0
 30
0.0
  3
*D6
  1

  0
LINE
  5
1105
330
983
100
AcDbEntity
  8
DIMENSIONS
  6
Continuous
 62
     0
370
    -2
100
AcDbLine
 10
0.5728596758943838
 20
0.6273611143752817
 30
0.0
 11
0.7739699989428916
 21
0.6273611143752813
 31
0.0
  0
LINE
  5
1106
330
983
100
AcDbEntity
  8
DIMENSIONS
  6
Continuous
 62
     0
370
    -2
100
AcDbLine
 10
0.3353596758943839
 20
0.870041685292222
 30
0.0
 11
0.3353596758943845
 21
1.06597143742379
 31
0.0
  0
ARC
  5
1107
330
983
100
AcDbEntity
  8
DIMENSIONS
  6
Continuous
 62
     0
370
    -2
100
AcDbCircle
 10
0.3353596758943835
 20
0.6273611143752822
 30
0.0
 40
0.4261103230485081
100
AcDbArc
 50
1.680839181298926
 51
40.67451904458207
  0
ARC
  5
1108
330
983
100
AcDbEntity
  8
DIMENSIONS
  6
Continuous
 62
     0
370
    -2
100
AcDbCircle
 10
0.3353596758943835
 20
0.6273611143752822
 30
0.0
 40
0.4261103230485081
100
AcDbArc
 50
49.68087437816992
 51
88.31916081870081
  0
SOLID
  5
1109
330
983
100
AcDbEntity
  8
DIMENSIONS
  6
Continuous
 62
     0
100
AcDbTrace
 10
0.7633697636254507
 20
0.6398903271170572
 30
0.0
 11
0.7592035451858175
 21
0.6398292122713045
 31
0.0
 12
0.7614699989428916
 22
0.6273611143752813
 32
0.0
 13
0.7614699989428916
 23
0.6273611143752813
 33
0.0
  0
SOLID
  5
110A
330
983
100
AcDbEntity
  8
DIMENSIONS
  6
Continuous
 62
     0
100
AcDbTrace
 10
0.3478277737904079
 20
1.051204983666716
 30
0.0
 11
0.3478888886361606
 21
1.055371202106349
 31
0.0
 12
0.3353596758943846
 22
1.05347143742379
 32
0.0
 13
0.3353596758943846
 23
1.05347143742379
 33
0.0
  0
MTEXT
  5
110B
330
983
100
AcDbEntity
  8
DIMENSIONS
  6
Continuous
 62
     0
100
AcDbMText
 10
0.6366651748555748
 20
0.928666613336472
 30
0.0
 40
0.0125
 41
0.0
 71
     5
 72
     1
  1
\A1;90°\S+0°^ -3°;
 73
     1
 44
1.0
  0
POINT
  5
110C
330
983
100
AcDbEntity
  8
DEFPOINTS
  6
Continuous
 62
     0
100
AcDbPoint
 10
0.7043820404691857
 20
0.8404162758995353
 30
0.0
  0
POINT
  5
110D
330
983
100
AcDbEntity
  8
DEFPOINTS
  6
Continuous
 62
     0
100
AcDbPoint
 10
0.3353596758943836
 20
0.807541685292222
 30
0.0
  0
POINT
  5
110E
330
983
100
AcDbEntity
  8
DEFPOINTS
  6
Continuous
 62
     0
100
AcDbPoint
 10
0.3353596758943835
 20
0.6273611143752822
 30
0.0
  0
POINT
  5
110F
330
983
100
AcDbEntity
  8
DEFPOINTS
  6
Continuous
 62
     0
100
AcDbPoint
 10
0.5103596758943838
 20
0.6273611143752818
 30
0.0
  0
POINT
  5
1110
330
983
100
AcDbEntity
  8
DEFPOINTS
  6
Continuous
 62
     0
100
AcDbPoint
 10
0.3353596758943835
 20
0.6273611143752822
 30
0.0
  0
ENDBLK
  5
991
330
983
100
AcDbEntity
  8
0
 62
     6
100
AcDbBlockEnd
  0
BLOCK
  5
A59
330
A58
100
AcDbEntity
  8
0
 62
     6
100
AcDbBlockBegin
  2
*U7
 70
     1
 10
0.0
 20
0.0
 30
0.0
  3
*U7
  1

  0
ENDBLK
  5
A5A
330
A58
100
AcDbEntity
  8
0
 62
     6
100
AcDbBlockEnd
  0
BLOCK
  5
A9D
330
A9B
100
AcDbEntity
  8
0
 62
     6
100
AcDbBlockBegin
  2
GENAXEH
 70
     0
 10
0.0
 20
0.0
 30
0.0
  3
GENAXEH
  1

  0
LINE
  5
A9C
330
A9B
100
AcDbEntity
  8
0
100
AcDbLine
 10
-1.0
 20
0.0
 30
0.0
 11
1.0
 21
0.0
 31
0.0
  0
ENDBLK
  5
A9E
330
A9B
100
AcDbEntity
  8
0
 62
     6
100
AcDbBlockEnd
  0
BLOCK
  5
D90
330
D84
100
AcDbEntity
  8
0
 62
     6
100
AcDbBlockBegin
  2
*D9
 70
     1
 10
0.0
 20
0.0
 30
0.0
  3
*D9
  1

  0
LINE
  5
116B
330
D84
100
AcDbEntity
  8
DIMENSIONS
  6
Continuous
 62
     0
370
    -2
100
AcDbLine
 10
0.3031734431803024
 20
0.5176548808284931
 30
0.0
 11
0.2210960533158339
 21
0.5176548808284932
 31
0.0
  0
LINE
  5
116C
330
D84
100
AcDbEntity
  8
DIMENSIONS
  6
Continuous
 62
     0
370
    -2
100
AcDbLine
 10
0.307068081966937
 20
0.488154880828493
 30
0.0
 11
0.2210960533158339
 21
0.488154880828493
 31
0.0
  0
LINE
  5
116D
330
D84
100
AcDbEntity
  8
DIMENSIONS
  6
Continuous
 62
     0
370
    -2
100
AcDbLine
 10
0.2335960533158339
 20
0.5301548808284932
 30
0.0
 11
0.2335960533158339
 21
0.5426548808284933
 31
0.0
  0
LINE
  5
116E
330
D84
100
AcDbEntity
  8
DIMENSIONS
  6
Continuous
 62
     0
370
    -2
100
AcDbLine
 10
0.2335960533158339
 20
0.475654880828493
 30
0.0
 11
0.2335960533158339
 21
0.463154880828493
 31
0.0
  0
MTEXT
  5
116F
330
D84
100
AcDbEntity
  8
DIMENSIONS
  6
Continuous
 62
     1
100
AcDbMText
 10
0.2088177995778473
 20
0.5034289127590701
 30
0.0
 40
0.0125
 41
0.0
 71
     5
 72
     1
  1
\A1;.0295±.002
 73
     1
 44
1.0
  0
SOLID
  5
1170
330
D84
100
AcDbEntity
  8
DIMENSIONS
  6
Continuous
 62
     0
100
AcDbTrace
 10
0.2315127199825006
 20
0.5301548808284932
 30
0.0
 11
0.2356793866491672
 21
0.5301548808284932
 31
0.0
 12
0.2335960533158339
 22
0.5176548808284932
 32
0.0
 13
0.2335960533158339
 23
0.5176548808284932
 33
0.0
  0
SOLID
  5
1171
330
D84
100
AcDbEntity
  8
DIMENSIONS
  6
Continuous
 62
     0
100
AcDbTrace
 10
0.2315127199825006
 20
0.475654880828493
 30
0.0
 11
0.2356793866491672
 21
0.475654880828493
 31
0.0
 12
0.2335960533158339
 22
0.488154880828493
 32
0.0
 13
0.2335960533158339
 23
0.488154880828493
 33
0.0
  0
POINT
  5
1172
330
D84
100
AcDbEntity
  8
DEFPOINTS
  6
Continuous
 62
     0
100
AcDbPoint
 10
0.3656734431803024
 20
0.5176548808284931
 30
0.0
  0
POINT
  5
1173
330
D84
100
AcDbEntity
  8
DEFPOINTS
  6
Continuous
 62
     0
100
AcDbPoint
 10
0.369568081966937
 20
0.488154880828493
 30
0.0
  0
POINT
  5
1174
330
D84
100
AcDbEntity
  8
DEFPOINTS
  6
Continuous
 62
     0
100
AcDbPoint
 10
0.2335960533158339
 20
0.488154880828493
 30
0.0
  0
ENDBLK
  5
D91
330
D84
100
AcDbEntity
  8
0
 62
     6
100
AcDbBlockEnd
  0
BLOCK
  5
EEE
330
EE2
100
AcDbEntity
  8
0
 62
     6
100
AcDbBlockBegin
  2
*D10
 70
     1
 10
0.0
 20
0.0
 30
0.0
  3
*D10
  1

  0
LINE
  5
1161
330
EE2
100
AcDbEntity
  8
DIMENSIONS
  6
Continuous
 62
     0
370
    -2
100
AcDbLine
 10
0.5728596758943838
 20
0.5176548808284931
 30
0.0
 11
0.6559647196236539
 21
0.5176548808284931
 31
0.0
  0
LINE
  5
1162
330
EE2
100
AcDbEntity
  8
DIMENSIONS
  6
Continuous
 62
     0
370
    -2
100
AcDbLine
 10
0.6086633030939397
 20
0.2374383605934879
 30
0.0
 11
0.6559647196236539
 21
0.2374383605934879
 31
0.0
  0
LINE
  5
1163
330
EE2
100
AcDbEntity
  8
DIMENSIONS
  6
Continuous
 62
     0
370
    -2
100
AcDbLine
 10
0.6434647196236539
 20
0.5051548808284931
 30
0.0
 11
0.6434647196236539
 21
0.3694906313312197
 31
0.0
  0
LINE
  5
1164
330
EE2
100
AcDbEntity
  8
DIMENSIONS
  6
Continuous
 62
     0
370
    -2
100
AcDbLine
 10
0.6434647196236539
 20
0.2499383605934879
 30
0.0
 11
0.6434647196236539
 21
0.3389906313312197
 31
0.0
  0
SOLID
  5
1165
330
EE2
100
AcDbEntity
  8
DIMENSIONS
  6
Continuous
 62
     0
100
AcDbTrace
 10
0.6413813862903206
 20
0.5051548808284931
 30
0.0
 11
0.6455480529569872
 21
0.5051548808284931
 31
0.0
 12
0.6434647196236539
 22
0.5176548808284931
 32
0.0
 13
0.6434647196236539
 23
0.5176548808284931
 33
0.0
  0
SOLID
  5
1166
330
EE2
100
AcDbEntity
  8
DIMENSIONS
  6
Continuous
 62
     0
100
AcDbTrace
 10
0.6413813862903205
 20
0.2499383605934879
 30
0.0
 11
0.6455480529569872
 21
0.2499383605934879
 31
0.0
 12
0.6434647196236539
 22
0.2374383605934879
 32
0.0
 13
0.6434647196236539
 23
0.2374383605934879
 33
0.0
  0
MTEXT
  5
1167
330
EE2
100
AcDbEntity
  8
DIMENSIONS
  6
Continuous
 62
     1
100
AcDbMText
 10
0.6434647196236539
 20
0.3542406313312199
 30
0.0
 40
0.0125
 41
0.0
 71
     5
 72
     1
  1
\A1;.280±.010
 73
     1
 44
1.0
  0
POINT
  5
1168
330
EE2
100
AcDbEntity
  8
DEFPOINTS
  6
Continuous
 62
     0
100
AcDbPoint
 10
0.5103596758943838
 20
0.5176548808284931
 30
0.0
  0
POINT
  5
1169
330
EE2
100
AcDbEntity
  8
DEFPOINTS
  6
Continuous
 62
     0
100
AcDbPoint
 10
0.5461633030939397
 20
0.2374383605934879
 30
0.0
  0
POINT
  5
116A
330
EE2
100
AcDbEntity
  8
DEFPOINTS
  6
Continuous
 62
     0
100
AcDbPoint
 10
0.6434647196236539
 20
0.2374383605934879
 30
0.0
  0
ENDBLK
  5
EEF
330
EE2
100
AcDbEntity
  8
0
 62
     6
100
AcDbBlockEnd
  0
BLOCK
  5
11BF
330
11B3
100
AcDbEntity
  8
0
 62
     6
100
AcDbBlockBegin
  2
*D11
 70
     1
 10
0.0
 20
0.0
 30
0.0
  3
*D11
  1

  0
LINE
  5
11E7
330
11B3
100
AcDbEntity
  8
DIMENSIONS
  6
Continuous
 62
     0
370
    -2
100
AcDbLine
 10
0.4910699123124225
 20
0.7369842567570526
 30
0.0
 11
0.5562472022825192
 21
0.7369842567570526
 31
0.0
  0
LINE
  5
11E8
330
11B3
100
AcDbEntity
  8
DIMENSIONS
  6
Continuous
 62
     0
370
    -2
100
AcDbLine
 10
0.4910699123124225
 20
0.9246878380501453
 30
0.0
 11
0.5562472022825194
 21
0.9246878380501453
 31
0.0
  0
LINE
  5
11E9
330
11B3
100
AcDbEntity
  8
DIMENSIONS
  6
Continuous
 62
     0
370
    -2
100
AcDbLine
 10
0.5437472022825193
 20
0.7494842567570526
 30
0.0
 11
0.5437472022825194
 21
0.8155860474035989
 31
0.0
  0
LINE
  5
11EA
330
11B3
100
AcDbEntity
  8
DIMENSIONS
  6
Continuous
 62
     0
370
    -2
100
AcDbLine
 10
0.5437472022825194
 20
0.9121878380501453
 30
0.0
 11
0.5437472022825194
 21
0.8460860474035989
 31
0.0
  0
SOLID
  5
11EB
330
11B3
100
AcDbEntity
  8
DIMENSIONS
  6
Continuous
 62
     0
100
AcDbTrace
 10
0.541663868949186
 20
0.7494842567570526
 30
0.0
 11
0.5458305356158526
 21
0.7494842567570526
 31
0.0
 12
0.5437472022825193
 22
0.7369842567570526
 32
0.0
 13
0.5437472022825193
 23
0.7369842567570526
 33
0.0
  0
SOLID
  5
11EC
330
11B3
100
AcDbEntity
  8
DIMENSIONS
  6
Continuous
 62
     0
100
AcDbTrace
 10
0.5416638689491861
 20
0.9121878380501453
 30
0.0
 11
0.5458305356158527
 21
0.9121878380501453
 31
0.0
 12
0.5437472022825194
 22
0.9246878380501453
 32
0.0
 13
0.5437472022825194
 23
0.9246878380501453
 33
0.0
  0
MTEXT
  5
11ED
330
11B3
100
AcDbEntity
  8
DIMENSIONS
  6
Continuous
 62
     1
100
AcDbMText
 10
0.5437472022825192
 20
0.8308360474035991
 30
0.0
 40
0.0125
 41
0.0
 71
     5
 72
     1
  1
\A1;.188
 73
     1
 44
1.0
  0
POINT
  5
11EE
330
11B3
100
AcDbEntity
  8
DEFPOINTS
  6
Continuous
 62
     0
100
AcDbPoint
 10
0.4285699123124225
 20
0.7369842567570526
 30
0.0
  0
POINT
  5
11EF
330
11B3
100
AcDbEntity
  8
DEFPOINTS
  6
Continuous
 62
     0
100
AcDbPoint
 10
0.4285699123124225
 20
0.9246878380501453
 30
0.0
  0
POINT
  5
11F0
330
11B3
100
AcDbEntity
  8
DEFPOINTS
  6
Continuous
 62
     0
100
AcDbPoint
 10
0.5437472022825194
 20
0.9246878380501453
 30
0.0
  0
ENDBLK
  5
11C0
330
11B3
100
AcDbEntity
  8
0
 62
     6
100
AcDbBlockEnd
  0
BLOCK
  5
11CD
330
11C2
100
AcDbEntity
  8
0
 62
     6
100
AcDbBlockBegin
  2
*D12
 70
     1
 10
0.0
 20
0.0
 30
0.0
  3
*D12
  1

  0
LINE
  5
11DD
330
11C2
100
AcDbEntity
  8
DIMENSIONS
  6
Continuous
 62
     0
370
    -2
100
AcDbLine
 10
0.4405634804959995
 20
0.8814850467420569
 30
0.0
 11
0.4405634804959995
 21
1.198476293129841
 31
0.0
  0
LINE
  5
11DE
330
11C2
100
AcDbEntity
  8
DIMENSIONS
  6
Continuous
 62
     0
370
    -2
100
AcDbLine
 10
0.3100664395396979
 20
0.8814850467420569
 30
0.0
 11
0.3100664395396979
 21
1.198476293129841
 31
0.0
  0
LINE
  5
11DF
330
11C2
100
AcDbEntity
  8
DIMENSIONS
  6
Continuous
 62
     0
370
    -2
100
AcDbLine
 10
0.4280634804959995
 20
1.185976293129841
 30
0.0
 11
0.3999399600178487
 21
1.185976293129841
 31
0.0
  0
LINE
  5
11E0
330
11C2
100
AcDbEntity
  8
DIMENSIONS
  6
Continuous
 62
     0
370
    -2
100
AcDbLine
 10
0.3225664395396979
 20
1.185976293129841
 30
0.0
 11
0.3506899600178487
 21
1.185976293129841
 31
0.0
  0
SOLID
  5
11E1
330
11C2
100
AcDbEntity
  8
DIMENSIONS
  6
Continuous
 62
     0
100
AcDbTrace
 10
0.4280634804959995
 20
1.188059626463174
 30
0.0
 11
0.4280634804959995
 21
1.183892959796508
 31
0.0
 12
0.4405634804959995
 22
1.185976293129841
 32
0.0
 13
0.4405634804959995
 23
1.185976293129841
 33
0.0
  0
SOLID
  5
11E2
330
11C2
100
AcDbEntity
  8
DIMENSIONS
  6
Continuous
 62
     0
100
AcDbTrace
 10
0.3225664395396979
 20
1.188059626463174
 30
0.0
 11
0.3225664395396979
 21
1.183892959796508
 31
0.0
 12
0.3100664395396979
 22
1.185976293129841
 32
0.0
 13
0.3100664395396979
 23
1.185976293129841
 33
0.0
  0
MTEXT
  5
11E3
330
11C2
100
AcDbEntity
  8
DIMENSIONS
  6
Continuous
 62
     1
100
AcDbMText
 10
0.3753149600178487
 20
1.185976293129841
 30
0.0
 40
0.0125
 41
0.0
 71
     5
 72
     1
  1
\A1;.130
 73
     1
 44
1.0
  0
POINT
  5
11E4
330
11C2
100
AcDbEntity
  8
DEFPOINTS
  6
Continuous
 62
     0
100
AcDbPoint
 10
0.4405634804959995
 20
0.8189850467420569
 30
0.0
  0
POINT
  5
11E5
330
11C2
100
AcDbEntity
  8
DEFPOINTS
  6
Continuous
 62
     0
100
AcDbPoint
 10
0.3100664395396979
 20
0.8189850467420569
 30
0.0
  0
POINT
  5
11E6
330
11C2
100
AcDbEntity
  8
DEFPOINTS
  6
Continuous
 62
     0
100
AcDbPoint
 10
0.3100664395396979
 20
1.185976293129841
 30
0.0
  0
ENDBLK
  5
11CE
330
11C2
100
AcDbEntity
  8
0
 62
     6
100
AcDbBlockEnd
  0
BLOCK
  5
11DB
330
11D0
100
AcDbEntity
  8
0
 62
     6
100
AcDbBlockBegin
  2
*D13
 70
     1
 10
0.0
 20
0.0
 30
0.0
  3
*D13
  1

  0
LINE
  5
11F1
330
11D0
100
AcDbEntity
  8
DIMENSIONS
  6
Continuous
 62
     0
370
    -2
100
AcDbLine
 10
0.5098405669734998
 20
0.4363597272356295
 30
0.0
 11
0.5098405669734998
 21
0.142543025513466
 31
0.0
  0
LINE
  5
11F2
330
11D0
100
AcDbEntity
  8
DIMENSIONS
  6
Continuous
 62
     0
370
    -2
100
AcDbLine
 10
0.3112418568048909
 20
0.4363597272356295
 30
0.0
 11
0.3112418568048909
 21
0.142543025513466
 31
0.0
  0
LINE
  5
11F3
330
11D0
100
AcDbEntity
  8
DIMENSIONS
  6
Continuous
 62
     0
370
    -2
100
AcDbLine
 10
0.4973405669734998
 20
0.155043025513466
 30
0.0
 11
0.4362078785558621
 21
0.155043025513466
 31
0.0
  0
LINE
  5
11F4
330
11D0
100
AcDbEntity
  8
DIMENSIONS
  6
Continuous
 62
     0
370
    -2
100
AcDbLine
 10
0.3237418568048909
 20
0.155043025513466
 30
0.0
 11
0.3848745452225287
 21
0.155043025513466
 31
0.0
  0
SOLID
  5
11F5
330
11D0
100
AcDbEntity
  8
DIMENSIONS
  6
Continuous
 62
     0
100
AcDbTrace
 10
0.4973405669734998
 20
0.1571263588467994
 30
0.0
 11
0.4973405669734998
 21
0.1529596921801327
 31
0.0
 12
0.5098405669734998
 22
0.155043025513466
 32
0.0
 13
0.5098405669734998
 23
0.155043025513466
 33
0.0
  0
SOLID
  5
11F6
330
11D0
100
AcDbEntity
  8
DIMENSIONS
  6
Continuous
 62
     0
100
AcDbTrace
 10
0.3237418568048909
 20
0.1571263588467994
 30
0.0
 11
0.3237418568048909
 21
0.1529596921801327
 31
0.0
 12
0.3112418568048909
 22
0.155043025513466
 32
0.0
 13
0.3112418568048909
 23
0.155043025513466
 33
0.0
  0
MTEXT
  5
11F7
330
11D0
100
AcDbEntity
  8
DIMENSIONS
  6
Continuous
 62
     1
100
AcDbMText
 10
0.4105412118891954
 20
0.155043025513466
 30
0.0
 40
0.0125
 41
0.0
 71
     5
 72
     1
  1
\A1;.199
 73
     1
 44
1.0
  0
POINT
  5
11F8
330
11D0
100
AcDbEntity
  8
DEFPOINTS
  6
Continuous
 62
     0
100
AcDbPoint
 10
0.5098405669734998
 20
0.4988597272356295
 30
0.0
  0
POINT
  5
11F9
330
11D0
100
AcDbEntity
  8
DEFPOINTS
  6
Continuous
 62
     0
100
AcDbPoint
 10
0.3112418568048909
 20
0.4988597272356295
 30
0.0
  0
POINT
  5
11FA
330
11D0
100
AcDbEntity
  8
DEFPOINTS
  6
Continuous
 62
     0
100
AcDbPoint
 10
0.3112418568048909
 20
0.155043025513466
 30
0.0
  0
ENDBLK
  5
11DC
330
11D0
100
AcDbEntity
  8
0
 62
     6
100
AcDbBlockEnd
  0
ENDSEC
  0
SECTION
  2
ENTITIES
  0
LINE
  5
A4
330
A
100
AcDbEntity
  8
PRODUCT
  6
Continuous
 62
     5
100
AcDbLine
 10
0.4152821723997454
 20
0.8075416852922229
 30
0.0
 11
0.4152821723997456
 21
0.747758756694236
 31
0.0
  0
LINE
  5
A5
330
A
100
AcDbEntity
  8
PRODUCT
  6
Continuous
 62
     5
100
AcDbLine
 10
0.4402821723997455
 20
0.9147587566942359
 30
0.0
 11
0.4402821723997455
 21
0.747758756694236
 31
0.0
  0
LINE
  5
A6
330
A
100
AcDbEntity
  8
PRODUCT
  6
Continuous
 62
     5
100
AcDbLine
 10
0.4152821723997456
 20
0.9147587566942359
 30
0.0
 11
0.4152821723997454
 21
0.8525416852922223
 31
0.0
  0
LINE
  5
A7
330
A
100
AcDbEntity
  8
PRODUCT
  6
Continuous
 62
     5
100
AcDbLine
 10
0.3453596758943835
 20
0.8175416852922223
 30
0.0
 11
0.4053596758943834
 21
0.8175416852922221
 31
0.0
  0
LINE
  5
A8
330
A
100
AcDbEntity
  8
PRODUCT
  6
Continuous
 62
     5
100
AcDbLine
 10
0.3353596758943835
 20
1.054465472052457
 30
0.0
 11
0.3352821723997454
 21
0.8525416852922223
 31
0.0
  0
LINE
  5
AA
330
A
100
AcDbEntity
  8
PRODUCT
  6
Continuous
 62
     5
100
AcDbLine
 10
0.3452821723997455
 20
0.8425416852922223
 30
0.0
 11
0.4052821723997453
 21
0.8425416852922223
 31
0.0
  0
LINE
  5
AE
330
A
100
AcDbEntity
  8
PRODUCT
  6
Continuous
 62
     5
100
AcDbLine
 10
0.3353596758943835
 20
0.807541685292222
 30
0.0
 11
0.3353596758943835
 21
0.6273611143752822
 31
0.0
  0
ARC
  5
B0
330
A
100
AcDbEntity
  8
PRODUCT
  6
Continuous
 62
     5
100
AcDbCircle
 10
0.3303596758943835
 20
1.054465472052457
 30
0.0
 40
0.005
100
AcDbArc
 50
0.0
 51
143.1301023541558
  0
LINE
  5
B1
330
A
100
AcDbEntity
  8
PRODUCT
  6
Continuous
 62
     5
100
AcDbLine
 10
0.3263596758943837
 20
1.057465472052457
 30
0.0
 11
0.3103596758943836
 21
1.029465472052457
 31
0.0
  0
ARC
  5
B2
330
A
100
AcDbEntity
  8
PRODUCT
  6
Continuous
 62
     5
100
AcDbCircle
 10
0.3453596758943835
 20
0.807541685292222
 30
0.0
 40
0.01
100
AcDbArc
 50
90.0
 51
180.0
  0
ARC
  5
B3
330
A
100
AcDbEntity
  8
PRODUCT
  6
Continuous
 62
     5
100
AcDbCircle
 10
0.4052821723997453
 20
0.8075416852922224
 30
0.0
 40
0.01
100
AcDbArc
 50
0.0
 51
90.0
  0
ARC
  5
B4
330
A
100
AcDbEntity
  8
PRODUCT
  6
Continuous
 62
     5
100
AcDbCircle
 10
0.4252821723997453
 20
0.747758756694236
 30
0.0
 40
0.01
100
AcDbArc
 50
180.0
 51
270.0
  0
ARC
  5
B5
330
A
100
AcDbEntity
  8
PRODUCT
  6
Continuous
 62
     5
100
AcDbCircle
 10
0.4302821723997454
 20
0.747758756694236
 30
0.0
 40
0.01
100
AcDbArc
 50
270.0
 51
0.0
  0
ARC
  5
B6
330
A
100
AcDbEntity
  8
PRODUCT
  6
Continuous
 62
     5
100
AcDbCircle
 10
0.4302821723997454
 20
0.9147587566942359
 30
0.0
 40
0.01
100
AcDbArc
 50
0.0
 51
90.0
  0
ARC
  5
B7
330
A
100
AcDbEntity
  8
PRODUCT
  6
Continuous
 62
     5
100
AcDbCircle
 10
0.4252821723997453
 20
0.9147587566942359
 30
0.0
 40
0.01
100
AcDbArc
 50
90.0
 51
180.0
  0
ARC
  5
B8
330
A
100
AcDbEntity
  8
PRODUCT
  6
Continuous
 62
     5
100
AcDbCircle
 10
0.4052821723997453
 20
0.8525416852922223
 30
0.0
 40
0.01
100
AcDbArc
 50
270.0
 51
0.0
  0
ARC
  5
B9
330
A
100
AcDbEntity
  8
PRODUCT
  6
Continuous
 62
     5
100
AcDbCircle
 10
0.3452821723997455
 20
0.8525416852922223
 30
0.0
 40
0.01
100
AcDbArc
 50
180.0
 51
270.0
  0
TEXT
  5
BD
330
A
100
AcDbEntity
  8
TITLE_BLOCK
  6
Continuous
 62
     7
100
AcDbText
 10
0.628375
 20
0.1250000000000001
 30
0.0
 40
0.01875
  1

 41
0.5
100
AcDbText
  0
LINE
  5
191
330
A
100
AcDbEntity
  8
PRODUCT
  6
Continuous
 62
     5
100
AcDbLine
 10
0.4703596758943837
 20
0.5923611143752816
 30
0.0
 11
0.4803596758943837
 21
0.6023611143752818
 31
0.0
  0
LINE
  5
192
330
A
100
AcDbEntity
  8
PRODUCT
  6
Continuous
 62
     5
100
AcDbLine
 10
0.4703596758943837
 20
0.5923611143752816
 30
0.0
 11
0.4603596758943837
 21
0.6023611143752818
 31
0.0
  0
LINE
  5
197
330
A
100
AcDbEntity
  8
PRODUCT
  6
Continuous
 62
     5
100
AcDbLine
 10
0.5103596758943838
 20
0.6023611143752818
 30
0.0
 11
0.4803596758943837
 21
0.6023611143752818
 31
0.0
  0
LINE
  5
198
330
A
100
AcDbEntity
  8
PRODUCT
  6
Continuous
 62
     5
100
AcDbLine
 10
0.3403596758943835
 20
0.6023611143752822
 30
0.0
 11
0.3103596758943835
 21
0.6023611143752822
 31
0.0
  0
LINE
  5
199
330
A
100
AcDbEntity
  8
PRODUCT
  6
Continuous
 62
     5
100
AcDbLine
 10
0.3503596758943836
 20
0.592361114375282
 30
0.0
 11
0.3403596758943835
 21
0.6023611143752822
 31
0.0
  0
LINE
  5
19A
330
A
100
AcDbEntity
  8
PRODUCT
  6
Continuous
 62
     5
100
AcDbLine
 10
0.3603596758943835
 20
0.6023611143752822
 30
0.0
 11
0.4603596758943837
 21
0.6023611143752818
 31
0.0
  0
LINE
  5
19B
330
A
100
AcDbEntity
  8
PRODUCT
  6
Continuous
 62
     5
100
AcDbLine
 10
0.3503596758943836
 20
0.592361114375282
 30
0.0
 11
0.3603596758943835
 21
0.6023611143752822
 31
0.0
  0
LINE
  5
1DA
330
A
100
AcDbEntity
  8
PRODUCT
  6
Continuous
 62
     5
100
AcDbLine
 10
0.3103596758943835
 20
0.6384588863268151
 30
0.0
 11
0.3103596758943836
 21
1.029465472052457
 31
0.0
  0
LINE
  5
1EA
330
A
100
AcDbEntity
  8
PRODUCT
  6
Continuous
 62
     5
100
AcDbLine
 10
0.4252821723997453
 20
0.924758756694236
 30
0.0
 11
0.4302821723997454
 21
0.9247587564835018
 31
0.0
  0
LINE
  5
1EC
330
A
100
AcDbEntity
  8
PRODUCT
  6
Continuous
 62
     5
100
AcDbLine
 10
0.4252821723997453
 20
0.737758756694236
 30
0.0
 11
0.4302821723997454
 21
0.737758756694236
 31
0.0
  0
LINE
  5
1F0
330
A
100
AcDbEntity
  8
PRODUCT
  6
Continuous
 62
     5
100
AcDbLine
 10
0.5103596758943838
 20
0.6023611143752818
 30
0.0
 11
0.5103596758943838
 21
0.6273611143752818
 31
0.0
  0
LINE
  5
1F1
330
A
100
AcDbEntity
  8
PRODUCT
  6
Continuous
 62
     5
100
AcDbLine
 10
0.3103596758943835
 20
0.6023611143752822
 30
0.0
 11
0.3103596758943835
 21
0.6384588863268151
 31
0.0
  0
LINE
  5
1F2
330
A
100
AcDbEntity
  8
PRODUCT
  6
Continuous
 62
     5
100
AcDbLine
 10
0.3353596758943835
 20
0.6273611143752822
 30
0.0
 11
0.5103596758943838
 21
0.6273611143752818
 31
0.0
  0
DIMENSION
  5
686
330
A
100
AcDbEntity
  8
DIMENSIONS
  6
Continuous
 62
     1
100
AcDbDimension
  2
*D5
 10
0.126157787202545
 20
0.6023611143752823
 30
0.0
 11
0.1261577872025449
 21
0.8307850014589961
 31
0.0
 70
    32
 71
     5
 42
0.4568477741674278
  3
DIMSTYLE1
100
AcDbAlignedDimension
 13
0.3298003382790199
 23
1.05920888854271
 33
0.0
 14
0.3103596758943835
 24
0.6023611143752822
 34
0.0
 50
90.0
100
AcDbRotatedDimension
1001
ACAD
1000
DSTYLE
1002
{
1070
   147
1040
0.009
1070
   178
1070
     1
1070
    78
1070
     4
1070
   271
1070
     3
1002
}
  0
LINE
  5
AB1
330
A
100
AcDbEntity
  8
PRODUCT
  6
Continuous
 62
     5
100
AcDbLine
 10
0.5103596758943838
 20
0.4881548808284927
 30
0.0
 11
0.5103596758943838
 21
0.5065735511564458
 31
0.0
  0
LINE
  5
ABF
330
A
100
AcDbEntity
  8
PRODUCT
  6
Continuous
 62
     5
100
AcDbLine
 10
0.3403596758943835
 20
0.488154880828493
 30
0.0
 11
0.3403596758943835
 21
0.4770735511564462
 31
0.0
  0
LINE
  5
AC1
330
A
100
AcDbEntity
  8
PRODUCT
  6
Continuous
 62
     5
100
AcDbLine
 10
0.3603596758943836
 20
0.4770735511564462
 30
0.0
 11
0.3603596758943838
 21
0.4881548808284931
 31
0.0
  0
LINE
  5
AC2
330
A
100
AcDbEntity
  8
PRODUCT
  6
Continuous
 62
     5
100
AcDbLine
 10
0.4603596758943837
 20
0.4815735511564458
 30
0.0
 11
0.4603596758943838
 21
0.4765735511564456
 31
0.0
  0
LINE
  5
AC4
330
A
100
AcDbEntity
  8
PRODUCT
  6
Continuous
 62
     5
100
AcDbLine
 10
0.4803596758943839
 20
0.4765735511564457
 30
0.0
 11
0.4803596758943839
 21
0.4815735511564457
 31
0.0
  0
LINE
  5
B76
330
A
100
AcDbEntity
  8
PRODUCT
  6
Continuous
 62
     5
100
AcDbLine
 10
0.4103596758943837
 20
0.481573551156446
 30
0.0
 11
0.3140452907694389
 21
0.2374383605934885
 31
0.0
  0
LINE
  5
B77
330
A
100
AcDbEntity
  8
PRODUCT
  6
Continuous
 62
     5
100
AcDbLine
 10
0.3140452907694389
 20
0.2374383605934885
 30
0.0
 11
0.4127972054025492
 21
0.4881548808284929
 31
0.0
  0
LINE
  5
B78
330
A
100
AcDbEntity
  8
PRODUCT
  6
Continuous
 62
     5
100
AcDbLine
 10
0.4103596758943837
 20
0.481573551156446
 30
0.0
 11
0.502934179658328
 21
0.237438360593488
 31
0.0
  0
LINE
  5
BD1
330
A
100
AcDbEntity
  8
PRODUCT
  6
Continuous
 62
     5
100
AcDbLine
 10
0.3059398274755419
 20
0.2374383605934885
 30
0.0
 11
0.4046917421086521
 21
0.488154880828493
 31
0.0
  0
LINE
  5
BD2
330
A
100
AcDbEntity
  8
PRODUCT
  6
Continuous
 62
     5
100
AcDbLine
 10
0.2969337604464189
 20
0.2374383605934885
 30
0.0
 11
0.3956856750795291
 21
0.488154880828493
 31
0.0
  0
LINE
  5
BD3
330
A
100
AcDbEntity
  8
PRODUCT
  6
Continuous
 62
     5
100
AcDbLine
 10
0.2897289093668513
 20
0.2374383605934885
 30
0.0
 11
0.3884808239999617
 21
0.488154880828493
 31
0.0
  0
LINE
  5
BD4
330
A
100
AcDbEntity
  8
PRODUCT
  6
Continuous
 62
     5
100
AcDbLine
 10
0.2798222343629497
 20
0.2374383605934886
 30
0.0
 11
0.3785741489960601
 21
0.4881548808284931
 31
0.0
  0
LINE
  5
BD5
330
A
100
AcDbEntity
  8
PRODUCT
  6
Continuous
 62
     5
100
AcDbLine
 10
0.2708161673338267
 20
0.2374383605934886
 30
0.0
 11
0.3695680819669371
 21
0.4881548808284931
 31
0.0
  0
LINE
  5
BD6
330
A
100
AcDbEntity
  8
PRODUCT
  6
Continuous
 62
     5
100
AcDbLine
 10
0.321045068262884
 20
0.2374383605934885
 30
0.0
 11
0.4103596758943837
 21
0.4626741519241443
 31
0.0
  0
LINE
  5
BD7
330
A
100
AcDbEntity
  8
PRODUCT
  6
Continuous
 62
     5
100
AcDbLine
 10
0.3290448139696786
 20
0.2374383605934884
 30
0.0
 11
0.4103596758943837
 21
0.4410748385157991
 31
0.0
  0
LINE
  5
BD8
330
A
100
AcDbEntity
  8
PRODUCT
  6
Continuous
 62
     5
100
AcDbLine
 10
0.3387111736820351
 20
0.2374383605934884
 30
0.0
 11
0.4103596758943837
 21
0.4149756672924366
 31
0.0
  0
LINE
  5
BD9
330
A
100
AcDbEntity
  8
PRODUCT
  6
Continuous
 62
     5
100
AcDbLine
 10
0.3473775642311028
 20
0.2374383605934884
 30
0.0
 11
0.4103596758943837
 21
0.391576412809954
 31
0.0
  0
LINE
  5
BDA
330
A
100
AcDbEntity
  8
PRODUCT
  6
Continuous
 62
     5
100
AcDbLine
 10
0.3563772781512467
 20
0.2374383605934883
 30
0.0
 11
0.4103596758943837
 21
0.3672771852255657
 31
0.0
  0
LINE
  5
BDB
330
A
100
AcDbEntity
  8
PRODUCT
  6
Continuous
 62
     5
100
AcDbLine
 10
0.366710283655816
 20
0.2374383605934883
 30
0.0
 11
0.4103596758943837
 21
0.3393780703632286
 31
0.0
  0
LINE
  5
BDC
330
A
100
AcDbEntity
  8
PRODUCT
  6
Continuous
 62
     5
100
AcDbLine
 10
0.3763766433681726
 20
0.2374383605934883
 30
0.0
 11
0.4103596758943837
 21
0.3132788991398661
 31
0.0
  0
LINE
  5
BDD
330
A
100
AcDbEntity
  8
PRODUCT
  6
Continuous
 62
     5
100
AcDbLine
 10
0.3870429703439389
 20
0.2374383605934883
 30
0.0
 11
0.4103596758943837
 21
0.2844798163052974
 31
0.0
  0
LINE
  5
BE2
330
A
100
AcDbEntity
  8
PRODUCT
  6
Continuous
 62
     5
100
AcDbLine
 10
0.3951484293982842
 20
0.2374383605934883
 30
0.0
 11
0.410359675894383
 21
0.2625950768585637
 31
0.0
  0
LINE
  5
BE3
330
A
100
AcDbEntity
  8
PRODUCT
  6
Continuous
 62
     5
100
AcDbLine
 10
0.4032538926921822
 20
0.2374383605934883
 30
0.0
 11
0.4084897352138836
 21
0.2515751354020818
 31
0.0
  0
LINE
  5
BE6
330
A
100
AcDbEntity
  8
PRODUCT
  6
Continuous
 62
     5
100
AcDbLine
 10
0.4803596758943849
 20
0.4881548808284928
 30
0.0
 11
0.4803596758943848
 21
0.4770735511564459
 31
0.0
  0
LINE
  5
BE8
330
A
100
AcDbEntity
  8
PRODUCT
  6
Continuous
 62
     5
100
AcDbLine
 10
0.4603596758943846
 20
0.477073551156446
 30
0.0
 11
0.4603596758943846
 21
0.4881548808284928
 31
0.0
  0
LINE
  5
BEA
330
A
100
AcDbEntity
  8
PRODUCT
  6
Continuous
 62
     5
100
AcDbLine
 10
0.4103596758943848
 20
0.481573551156446
 30
0.0
 11
0.5029341796583278
 21
0.237438360593488
 31
0.0
  0
LINE
  5
BEB
330
A
100
AcDbEntity
  8
PRODUCT
  6
Continuous
 62
     5
100
AcDbLine
 10
0.5029341796583278
 20
0.237438360593488
 30
0.0
 11
0.4079221463862192
 21
0.488154880828493
 31
0.0
  0
LINE
  5
BEC
330
A
100
AcDbEntity
  8
PRODUCT
  6
Continuous
 62
     5
100
AcDbLine
 10
0.5110396429522249
 20
0.237438360593488
 30
0.0
 11
0.4160276096801164
 21
0.488154880828493
 31
0.0
  0
LINE
  5
BED
330
A
100
AcDbEntity
  8
PRODUCT
  6
Continuous
 62
     5
100
AcDbLine
 10
0.5200457099813479
 20
0.237438360593488
 30
0.0
 11
0.4250336767092394
 21
0.4881548808284929
 31
0.0
  0
LINE
  5
BEE
330
A
100
AcDbEntity
  8
PRODUCT
  6
Continuous
 62
     5
100
AcDbLine
 10
0.5272505610609154
 20
0.2374383605934879
 30
0.0
 11
0.4322385277888069
 21
0.4881548808284929
 31
0.0
  0
LINE
  5
BEF
330
A
100
AcDbEntity
  8
PRODUCT
  6
Continuous
 62
     5
100
AcDbLine
 10
0.537157236064817
 20
0.2374383605934879
 30
0.0
 11
0.4421452027927085
 21
0.488154880828493
 31
0.0
  0
LINE
  5
BF0
330
A
100
AcDbEntity
  8
PRODUCT
  6
Continuous
 62
     5
100
AcDbLine
 10
0.5461633030939397
 20
0.2374383605934879
 30
0.0
 11
0.4511512698218313
 21
0.4881548808284929
 31
0.0
  0
LINE
  5
BF1
330
A
100
AcDbEntity
  8
PRODUCT
  6
Continuous
 62
     5
100
AcDbLine
 10
0.4959344021648827
 20
0.237438360593488
 30
0.0
 11
0.4103596758943846
 21
0.4626741519241443
 31
0.0
  0
LINE
  5
BF2
330
A
100
AcDbEntity
  8
PRODUCT
  6
Continuous
 62
     5
100
AcDbLine
 10
0.4879346564580879
 20
0.237438360593488
 30
0.0
 11
0.4103596758943845
 21
0.4410748385157991
 31
0.0
  0
LINE
  5
BF3
330
A
100
AcDbEntity
  8
PRODUCT
  6
Continuous
 62
     5
100
AcDbLine
 10
0.4782682967457316
 20
0.2374383605934881
 30
0.0
 11
0.4103596758943842
 21
0.4149756672924366
 31
0.0
  0
LINE
  5
BF4
330
A
100
AcDbEntity
  8
PRODUCT
  6
Continuous
 62
     5
100
AcDbLine
 10
0.4696019061966639
 20
0.2374383605934881
 30
0.0
 11
0.4103596758943839
 21
0.391576412809954
 31
0.0
  0
LINE
  5
BF5
330
A
100
AcDbEntity
  8
PRODUCT
  6
Continuous
 62
     5
100
AcDbLine
 10
0.4606021922765202
 20
0.2374383605934881
 30
0.0
 11
0.4103596758943838
 21
0.3672771852255657
 31
0.0
  0
LINE
  5
BF6
330
A
100
AcDbEntity
  8
PRODUCT
  6
Continuous
 62
     5
100
AcDbLine
 10
0.4502691867719509
 20
0.2374383605934882
 30
0.0
 11
0.4103596758943836
 21
0.3393780703632286
 31
0.0
  0
LINE
  5
BF7
330
A
100
AcDbEntity
  8
PRODUCT
  6
Continuous
 62
     5
100
AcDbLine
 10
0.4406028270595943
 20
0.2374383605934882
 30
0.0
 11
0.4103596758943832
 21
0.3132788991398661
 31
0.0
  0
LINE
  5
BF8
330
A
100
AcDbEntity
  8
PRODUCT
  6
Continuous
 62
     5
100
AcDbLine
 10
0.4299365000838279
 20
0.2374383605934882
 30
0.0
 11
0.4103596758943829
 21
0.2844798163052974
 31
0.0
  0
LINE
  5
BF9
330
A
100
AcDbEntity
  8
PRODUCT
  6
Continuous
 62
     5
100
AcDbLine
 10
0.4218310410294828
 20
0.2374383605934882
 30
0.0
 11
0.4103596758943833
 21
0.2625950768585637
 31
0.0
  0
LINE
  5
BFA
330
A
100
AcDbEntity
  8
PRODUCT
  6
Continuous
 62
     5
100
AcDbLine
 10
0.4137255777355848
 20
0.2374383605934882
 30
0.0
 11
0.4084897352138836
 21
0.2515751354020818
 31
0.0
  0
LINE
  5
CAE
330
A
100
AcDbEntity
  8
PRODUCT
  6
Continuous
 62
     5
100
AcDbLine
 10
0.3103596758943834
 20
0.4881548808284931
 30
0.0
 11
0.3403596758943835
 21
0.488154880828493
 31
0.0
  0
LINE
  5
CAF
330
A
100
AcDbEntity
  8
PRODUCT
  6
Continuous
 62
     5
100
AcDbLine
 10
0.3403596758943835
 20
0.4770735511564462
 30
0.0
 11
0.3603596758943836
 21
0.4770735511564459
 31
0.0
  0
LINE
  5
CB3
330
A
100
AcDbEntity
  8
PRODUCT
  6
Continuous
 62
     5
100
AcDbLine
 10
0.4603596758943838
 20
0.4765735511564456
 30
0.0
 11
0.4803596758943839
 21
0.4765735511564457
 31
0.0
  0
LINE
  5
CB4
330
A
100
AcDbEntity
  8
PRODUCT
  6
Continuous
 62
     5
100
AcDbLine
 10
0.4803596758943849
 20
0.4881548808284927
 30
0.0
 11
0.5103596758943836
 21
0.4881548808284927
 31
0.0
  0
LINE
  5
CB5
330
A
100
AcDbEntity
  8
PRODUCT
  6
Continuous
 62
     5
100
AcDbLine
 10
0.3603596758943838
 20
0.488154880828493
 30
0.0
 11
0.4603596758943846
 21
0.4881548808284928
 31
0.0
  0
LINE
  5
D80
330
A
100
AcDbEntity
  8
PRODUCT
  6
Continuous
 62
     5
100
AcDbLine
 10
0.3103596758943834
 20
0.4881548808284931
 30
0.0
 11
0.3103596758943834
 21
0.5176548808284931
 31
0.0
  0
LINE
  5
D81
330
A
100
AcDbEntity
  8
PRODUCT
  6
Continuous
 62
     5
100
AcDbLine
 10
0.3103596758943834
 20
0.5176548808284931
 30
0.0
 11
0.5103596758943838
 21
0.5176548808284931
 31
0.0
  0
LINE
  5
D82
330
A
100
AcDbEntity
  8
PRODUCT
  6
Continuous
 62
     5
100
AcDbLine
 10
0.5103596758943838
 20
0.5176548808284931
 30
0.0
 11
0.5103596758943838
 21
0.5065735511564461
 31
0.0
  0
DIMENSION
  5
11B2
330
A
100
AcDbEntity
  8
DIMENSIONS
  6
Continuous
 62
     1
100
AcDbDimension
  2
*D11
 10
0.5437472022825194
 20
0.9246878380501453
 30
0.0
 11
0.5437472022825192
 21
0.8308360474035991
 31
0.0
 70
    32
 71
     5
 42
0.1877035812930927
  3
DIMSTYLE1$0
100
AcDbAlignedDimension
 13
0.4285699123124225
 23
0.7369842567570526
 33
0.0
 14
0.4285699123124225
 24
0.9246878380501453
 34
0.0
 50
90.0
100
AcDbRotatedDimension
1001
ACAD
1000
DSTYLE
1002
{
1070
    78
1070
     4
1070
   147
1040
0.009
1070
   178
1070
     1
1070
   271
1070
     3
1002
}
  0
DIMENSION
  5
11C1
330
A
100
AcDbEntity
  8
DIMENSIONS
  6
Continuous
 62
     1
100
AcDbDimension
  2
*D12
 10
0.3100664395396979
 20
1.185976293129841
 30
0.0
 11
0.3753149600178487
 21
1.185976293129841
 31
0.0
 70
    32
 71
     5
 42
0.1304970409563015
  3
DIMSTYLE1$0
100
AcDbAlignedDimension
 13
0.4405634804959995
 23
0.8189850467420569
 33
0.0
 14
0.3100664395396979
 24
0.8189850467420569
 34
0.0
100
AcDbRotatedDimension
1001
ACAD
1000
DSTYLE
1002
{
1070
    78
1070
     4
1070
   147
1040
0.009
1070
   178
1070
     1
1070
   271
1070
     3
1002
}
  0
DIMENSION
  5
11CF
330
A
100
AcDbEntity
  8
DIMENSIONS
  6
Continuous
 62
     1
100
AcDbDimension
  2
*D13
 10
0.3112418568048909
 20
0.155043025513466
 30
0.0
 11
0.4105412118891954
 21
0.155043025513466
 31
0.0
 70
    32
 71
     5
 42
0.1985987101686088
  3
DIMSTYLE1$0
100
AcDbAlignedDimension
 13
0.5098405669734998
 23
0.4988597272356295
 33
0.0
 14
0.3112418568048909
 24
0.4988597272356295
 34
0.0
100
AcDbRotatedDimension
1001
ACAD
1000
DSTYLE
1002
{
1070
    78
1070
     4
1070
   147
1040
0.009
1070
   178
1070
     1
1070
   271
1070
     3
1002
}
  0
ENDSEC
  0
SECTION
  2
OBJECTS
  0
DICTIONARY
  5
19
330
0
100
AcDbDictionary
281
     1
  3
ACAD_COLOR
350
171
  3
ACAD_GROUP
350
1A
  3
ACAD_LAYOUT
350
109
  3
ACAD_MATERIAL
350
170
  3
ACAD_MLINESTYLE
350
1B
  3
ACAD_PLOTSETTINGS
350
10A
  3
ACAD_PLOTSTYLENAME
350
107
  3
ACAD_TABLESTYLE
350
172
  3
AcDbVariableDictionary
350
15E
  3
AcmDictionary
350
A62
  3
AMG
350
A0B
  3
AMGSNAPSETTINGS
350
AA3
  3
ASE_INDEX_DICTIONARY
350
F54
  3
MAPISURF_MODULE
350
FD2
  0
DICTIONARY
  5
1010
330
2
100
AcDbDictionary
280
     1
281
     1
  3
ACAD_LAYERFILTERS
360
10DD
  3
ACLYDICTIONARY
360
10DC
  0
DICTIONARY
  5
AD5
330
A
100
AcDbDictionary
280
     1
281
     1
  3
ACAD_INDEX
360
10E0
  3
ACAD_SORTENTS
360
AD6
  0
DICTIONARY
  5
171
102
{ACAD_REACTORS
330
19
102
}
330
19
100
AcDbDictionary
281
     1
  0
DICTIONARY
  5
1A
102
{ACAD_REACTORS
330
19
102
}
330
19
100
AcDbDictionary
281
     1
  0
DICTIONARY
  5
109
102
{ACAD_REACTORS
330
19
102
}
330
19
100
AcDbDictionary
281
     1
  3
Layout1
350
10C
  3
Model
350
10B
  0
DICTIONARY
  5
170
102
{ACAD_REACTORS
330
19
102
}
330
19
100
AcDbDictionary
281
     1
  0
DICTIONARY
  5
1B
102
{ACAD_REACTORS
330
19
102
}
330
19
100
AcDbDictionary
281
     1
  3
STANDARD
350
1C
  0
DICTIONARY
  5
10A
102
{ACAD_REACTORS
330
19
102
}
330
19
100
AcDbDictionary
281
     1
  0
ACDBDICTIONARYWDFLT
  5
107
102
{ACAD_REACTORS
330
19
102
}
330
19
100
AcDbDictionary
281
     1
  3
Normal
350
108
100
AcDbDictionaryWithDefault
340
108
  0
DICTIONARY
  5
172
102
{ACAD_REACTORS
330
19
102
}
330
19
100
AcDbDictionary
281
     1
  3
Standard
350
173
  0
DICTIONARY
  5
15E
102
{ACAD_REACTORS
330
19
102
}
330
19
100
AcDbDictionary
281
     1
  3
CTABLESTYLE
350
19D
  3
DIMASSOC
350
15F
  0
DICTIONARY
  5
A62
102
{ACAD_REACTORS
330
19
102
}
330
19
100
AcDbDictionary
281
     1
  3
AcmBOMDATA
350
A63
  3
AcmStdDictionary
350
A6F
  3
AMDTSECTSYM_ARROWCOLOR
350
A8E
  0
DICTIONARY
  5
A0B
102
{ACAD_REACTORS
330
19
102
}
330
19
100
AcDbDictionary
281
     1
  3
AcMgSettings
350
A0C
  3
AMGLAYCFG
350
A71
  0
DICTIONARY
  5
AA3
102
{ACAD_REACTORS
330
19
102
}
330
19
100
AcDbDictionary
281
     1
  3
DIMENSION
350
AA8
  3
FEA
350
AA7
  3
HATCH (1)
350
AA4
  3
HATCH (2)
350
AA5
  3
SIMPLE WELD
350
AA9
  3
SYMBOLS
350
AA6
  0
DICTIONARY
  5
F54
102
{ACAD_REACTORS
330
19
102
}
330
19
100
AcDbDictionary
281
     1
  3
ASEBlockHierarchyIndexRecord
350
F55
1001
DCO15
1040
1538884178.76
  0
DICTIONARY
  5
10DD
102
{ACAD_REACTORS
330
1010
102
}
330
1010
100
AcDbDictionary
281
     1
  0
DICTIONARY
  5
10DC
102
{ACAD_REACTORS
330
1010
102
}
330
1010
100
AcDbDictionary
281
     1
1001
ACAD
1000
<All
  0
DICTIONARY
  5
10E0
102
{ACAD_REACTORS
330
AD5
102
}
330
AD5
100
AcDbDictionary
281
     1
  3
*A1
350
10E1
  0
SORTENTSTABLE
  5
AD6
102
{ACAD_REACTORS
330
AD5
102
}
330
AD5
100
AcDbSortentsTable
330
A
331
BF9
  5
C61
331
1F0
  5
1F0
331
BD2
  5
BD6
331
B3
  5
B3
331
BDA
  5
BE2
331
BE2
  5
BE8
331
191
  5
191
331
BEA
  5
BEE
331
199
  5
199
331
BF2
  5
BF6
331
A4
  5
A4
331
BFA
  5
C62
331
1F1
  5
1F1
331
BD3
  5
BD7
331
B4
  5
B4
331
BDB
  5
BE3
331
AC4
  5
BD1
331
BE3
  5
BEB
331
192
  5
192
331
BEB
  5
BEF
331
19A
  5
19A
331
BF3
  5
BF7
331
A5
  5
A5
331
1DA
  5
1DA
331
1EA
  5
1EA
331
1F2
  5
1F2
331
BD4
  5
BD8
331
B5
  5
B5
331
BDC
  5
BE4
331
BD
  5
BD
331
CB3
  5
CB5
331
BEC
  5
BF0
331
19B
  5
19B
331
BF4
  5
BF8
331
A6
  5
A6
331
AE
  5
AE
331
BD5
  5
BD9
331
B6
  5
B6
331
BDD
  5
BE6
331
CB4
  5
B74
331
BED
  5
BF1
331
BF5
  5
BF9
331
A7
  5
A7
331
1EC
  5
1EC
331
B76
  5
BD2
331
ABF
  5
B76
331
BD6
  5
BDA
331
B7
  5
B7
331
BE6
  5
BEC
331
CB5
  5
B63
331
BEE
  5
BF2
331
BF6
  5
BFA
331
A8
  5
A8
331
B77
  5
BD3
331
BD7
  5
BDB
331
B0
  5
B0
331
B8
  5
B8
331
CAE
  5
B62
331
BEF
  5
BF3
331
BF7
  5
BFB
331
AB1
  5
B5B
331
B78
  5
BD4
331
B1
  5
B1
331
BD8
  5
BDC
331
AC1
  5
B77
331
B9
  5
B9
331
CAF
  5
CB4
331
197
  5
197
331
BE8
  5
BED
331
BF0
  5
BF4
331
BF8
  5
C60
331
AA
  5
AA
331
BD1
  5
BD5
331
B2
  5
B2
331
AC2
  5
B78
331
BD9
  5
BDD
331
686
  5
AD4
331
198
  5
198
331
BF1
  5
BF5
  0
LAYOUT
  5
10C
102
{ACAD_REACTORS
330
109
102
}
330
109
100
AcDbPlotSettings
  1

  2
HP LaserJet 1100
  4

  6

 40
0.0
 41
0.0
 42
0.0
 43
0.0
 44
0.0
 45
0.0
 46
0.0
 47
0.0
 48
0.0
 49
0.0
140
0.0
141
0.0
142
1.0
143
1.0
 70
   688
 72
     0
 73
     0
 74
     5
  7

 75
    16
147
1.0
 76
     0
 77
     2
 78
   300
148
0.0
149
0.0
100
AcDbLayout
  1
Layout1
 70
     0
 71
     1
 10
0.0
 20
0.0
 11
12.0
 21
9.0
 12
0.0
 22
0.0
 32
0.0
 14
1.000000000000000E+20
 24
1.000000000000000E+20
 34
1.000000000000000E+20
 15
-1.000000000000000E+20
 25
-1.000000000000000E+20
 35
-1.000000000000000E+20
146
0.0
 13
0.0
 23
0.0
 33
0.0
 16
1.0
 26
0.0
 36
0.0
 17
0.0
 27
1.0
 37
0.0
 76
     0
330
B
  0
LAYOUT
  5
10B
102
{ACAD_REACTORS
330
109
102
}
330
109
100
AcDbPlotSettings
  1

  2
HP LaserJet 5000 Series PS
  4
Letter
  6

 40
5.365749835968017
 41
5.408084392547607
 42
5.4080810546875
 43
5.365753173828125
 44
215.8999938964844
 45
279.3999938964844
 46
0.0
 47
1.584384455400316
 48
0.0
 49
0.0
140
0.85
141
1.1
142
1.0
143
0.1052522978231036
 70
 11956
 72
     0
 73
     0
 74
     4
  7

 75
     0
147
9.50098022259513
 76
     0
 77
     2
 78
   300
148
0.0
149
0.0
100
AcDbLayout
  1
Model
 70
     1
 71
     0
 10
0.0
 20
0.0
 11
12.0
 21
9.0
 12
0.0
 22
0.0
 32
0.0
 14
0.0
 24
0.0
 34
0.0
 15
0.0
 25
0.0
 35
0.0
146
0.0
 13
0.0
 23
0.0
 33
0.0
 16
1.0
 26
0.0
 36
0.0
 17
0.0
 27
1.0
 37
0.0
 76
     0
330
A
1001
ACAD_PSEXT
1000
HP LaserJet 5000 Series PS
1000
HP LaserJet 5000 Series PS
1000
IP_10.1.1.28
1000

1070
     0
  0
MLINESTYLE
  5
1C
102
{ACAD_REACTORS
330
1B
102
}
330
1B
100
AcDbMlineStyle
  2
STANDARD
 70
     0
  3

 62
     0
 51
90.00000000000019
 52
90.00000000000019
 71
     2
 49
0.5
 62
   256
  6
BYLAYER
 49
-0.5
 62
   256
  6
BYLAYER
  0
ACDBPLACEHOLDER
  5
108
102
{ACAD_REACTORS
330
107
102
}
330
107
  0
TABLESTYLE
  5
173
102
{ACAD_REACTORS
330
172
102
}
330
172
100
AcDbTableStyle
  3
Standard
 70
     0
 71
     0
 40
0.06
 41
0.06
280
     0
281
     0
  7
STANDARD
140
0.18
170
     2
 62
     0
 63
     7
283
     0
274
    -2
284
     1
 64
     0
275
    -2
285
     1
 65
     0
276
    -2
286
     1
 66
     0
277
    -2
287
     1
 67
     0
278
    -2
288
     1
 68
     0
279
    -2
289
     1
 69
     0
  7
STANDARD
140
0.25
170
     5
 62
     0
 63
     7
283
     0
274
    -2
284
     1
 64
     0
275
    -2
285
     1
 65
     0
276
    -2
286
     1
 66
     0
277
    -2
287
     1
 67
     0
278
    -2
288
     1
 68
     0
279
    -2
289
     1
 69
     0
  7
STANDARD
140
0.18
170
     5
 62
     0
 63
     7
283
     0
274
    -2
284
     1
 64
     0
275
    -2
285
     1
 65
     0
276
    -2
286
     1
 66
     0
277
    -2
287
     1
 67
     0
278
    -2
288
     1
 68
     0
279
    -2
289
     1
 69
     0
  0
DICTIONARYVAR
  5
19D
102
{ACAD_REACTORS
330
15E
102
}
330
15E
100
DictionaryVariables
280
     0
  1
STANDARD
  0
DICTIONARYVAR
  5
15F
102
{ACAD_REACTORS
330
15E
102
}
330
15E
100
DictionaryVariables
280
     0
  1
1
  0
ACMDATADICTIONARY
  5
A63
102
{ACAD_REACTORS
330
A62
102
}
330
A62
100
AcDbDictionary
281
     1
  3
*A1
350
FEE
100
AcmDataDictionary
  0
DICTIONARY
  5
A6F
102
{ACAD_REACTORS
330
A62
102
}
330
A62
100
AcDbDictionary
281
     1
  3
ANSI
350
A70
  0
XRECORD
  5
A8E
102
{ACAD_REACTORS
330
A62
102
}
330
A62
100
AcDbXrecord
280
     1
 90
-1023410169
  0
DICTIONARY
  5
A0C
102
{ACAD_REACTORS
330
A0B
102
}
330
A0B
100
AcDbDictionary
281
     1
  3
DWGSETTINGS
350
A0D
  3
TRANSSETTINGS
350
A0E
  0
ACAMGFILTERDAT
  5
AA8
102
{ACAD_REACTORS
330
AA3
102
}
330
AA3
100
AcAmgFilterDat
 70
    15
  1
DIMENSION,AMDT_*_DIM
  2
*
  3
*
  4
*
  5
*
290
     1
  0
ACAMGFILTERDAT
  5
AA7
102
{ACAD_REACTORS
330
AA3
102
}
330
AA3
100
AcAmgFilterDat
 70
    15
  1
*
  2
AM_FEA-AM_*
  3
*
  4
*
  5
*
290
     1
  0
ACAMGFILTERDAT
  5
AA4
102
{ACAD_REACTORS
330
AA3
102
}
330
AA3
100
AcAmgFilterDat
 70
    15
  1
HATCH
  2
*
  3
*
  4
*
  5
*
290
     1
  0
ACAMGFILTERDAT
  5
AA5
102
{ACAD_REACTORS
330
AA3
102
}
330
AA3
100
AcAmgFilterDat
 70
    15
  1
LINE
  2
8,8N,*-8,*-8N,AM_8,AM_8N,*-AM_8,*-AM_8N
  3
*
  4
*
  5
INSERT,STDPART2D
290
     1
  0
ACAMGFILTERDAT
  5
AA9
102
{ACAD_REACTORS
330
AA3
102
}
330
AA3
100
AcAmgFilterDat
 70
    15
  1
ARC
  2
AM_5
  3
*
  4
2
  5
INSERT
290
     0
  0
ACAMGFILTERDAT
  5
AA6
102
{ACAD_REACTORS
330
AA3
102
}
330
AA3
100
AcAmgFilterDat
 70
    15
  1
ACMFCFRAME,ACMDATUMTARGET,ACMDATUMID,ACMWELDSYM,ACMSURFSYM,ACMFEATID,ACMPARTREF,ACMBALLOON,AMDTEDGESYM,AMGSCREWCALCTABLE
  2
*
  3
*
  4
*
  5
*
290
     1
  0
XRECORD
  5
F55
102
{ACAD_REACTORS
330
F54
102
}
330
F54
100
AcDbXrecord
280
     1
  0
LAYER_INDEX
  5
10E1
102
{ACAD_REACTORS
330
10E0
102
}
330
10E0
100
AcDbIndex
 40
2453621.450782176
100
AcDbLayerIndex
  8
0
360
10E2
 90
        0
  8
DIMENSIONS
360
10E3
 90
        4
  8
TITLE_BLOCK
360
10E4
 90
        1
  8
DEFPOINTS
360
10E5
 90
        0
  8
PRODUCT
360
10E6
 90
       80
  0
ACMDATAENTRYBLOCK
  5
FEE
102
{ACAD_REACTORS
330
A63
102
}
330
A63
100
AcmDataEntry
100
AcmDataEntryBlock
  0
IDBUFFER
  5
10E2
330
0
100
AcDbIdBuffer
  0
IDBUFFER
  5
10E3
330
0
100
AcDbIdBuffer
330
11CF
330
11C1
330
11B2
330
686
  0
IDBUFFER
  5
10E4
330
0
100
AcDbIdBuffer
330
BD
  0
IDBUFFER
  5
10E5
330
0
100
AcDbIdBuffer
  0
IDBUFFER
  5
10E6
330
0
100
AcDbIdBuffer
330
A4
330
A5
330
A6
330
A7
330
A8
330
AA
330
AE
330
B0
330
B1
330
B2
330
B3
330
B4
330
B5
330
B6
330
B7
330
B8
330
B9
330
191
330
192
330
197
330
198
330
199
330
19A
330
19B
330
1DA
330
1EA
330
1EC
330
1F0
330
1F1
330
1F2
330
AB1
330
ABF
330
AC1
330
AC2
330
AC4
330
B76
330
B77
330
B78
330
BD1
330
BD2
330
BD3
330
BD4
330
BD5
330
BD6
330
BD7
330
BD8
330
BD9
330
BDA
330
BDB
330
BDC
330
BDD
330
BE2
330
BE3
330
BE6
330
BE8
330
BEA
330
BEB
330
BEC
330
BED
330
BEE
330
BEF
330
BF0
330
BF1
330
BF2
330
BF3
330
BF4
330
BF5
330
BF6
330
BF7
330
BF8
330
BF9
330
BFA
330
CAE
330
CAF
330
CB3
330
CB4
330
CB5
330
D80
330
D81
330
D82
  0
ENDSEC
  0
EOF
