  0
SECTION
  2
HEADER
  9
$ACADVER
  1
AC1021
  9
$ACADMAINTVER
 70
     2
  9
$DWGCODEPAGE
  3
ANSI_1252
  9
$LASTSAVEDBY
  1
CAB
  9
$INSBASE
 10
0.0
 20
0.0
 30
0.0
  9
$EXTMIN
 10
7.454688509582041
 20
3.264233015331338
 30
0.0
  9
$EXTMAX
 10
8.970910707789773
 20
5.22640291889429
 30
0.0
  9
$LIMMIN
 10
0.0
 20
0.0
  9
$LIMMAX
 10
12.0
 20
9.0
  9
$ORTHOMODE
 70
     1
  9
$REGENMODE
 70
     1
  9
$FILLMODE
 70
     1
  9
$QTEXTMODE
 70
     0
  9
$MIRRTEXT
 70
     1
  9
$LTSCALE
 40
1.0
  9
$ATTMODE
 70
     1
  9
$TEXTSIZE
 40
0.2
  9
$TRACEWID
 40
0.05
  9
$TEXTSTYLE
  7
Standard
  9
$CLAYER
  8
0
  9
$CELTYPE
  6
ByLayer
  9
$CECOLOR
 62
   256
  9
$CELTSCALE
 40
1.0
  9
$DISPSILH
 70
     0
  9
$DIMSCALE
 40
1.0
  9
$DIMASZ
 40
0.03
  9
$DIMEXO
 40
0.03
  9
$DIMDLI
 40
0.03
  9
$DIMRND
 40
0.0
  9
$DIMDLE
 40
0.0
  9
$DIMEXE
 40
0.03
  9
$DIMTP
 40
0.0
  9
$DIMTM
 40
0.0
  9
$DIMTXT
 40
0.03
  9
$DIMCEN
 40
0.03
  9
$DIMTSZ
 40
0.0
  9
$DIMTOL
 70
     0
  9
$DIMLIM
 70
     0
  9
$DIMTIH
 70
     1
  9
$DIMTOH
 70
     1
  9
$DIMSE1
 70
     0
  9
$DIMSE2
 70
     0
  9
$DIMTAD
 70
     0
  9
$DIMZIN
 70
     0
  9
$DIMBLK
  1

  9
$DIMASO
 70
     1
  9
$DIMSHO
 70
     1
  9
$DIMPOST
  1

  9
$DIMAPOST
  1

  9
$DIMALT
 70
     0
  9
$DIMALTD
 70
     2
  9
$DIMALTF
 40
25.4
  9
$DIMLFAC
 40
4.0
  9
$DIMTOFL
 70
     0
  9
$DIMTVP
 40
0.0
  9
$DIMTIX
 70
     0
  9
$DIMSOXD
 70
     0
  9
$DIMSAH
 70
     0
  9
$DIMBLK1
  1

  9
$DIMBLK2
  1

  9
$DIMSTYLE
  2
Standard
  9
$DIMCLRD
 70
     0
  9
$DIMCLRE
 70
     0
  9
$DIMCLRT
 70
     0
  9
$DIMTFAC
 40
1.0
  9
$DIMGAP
 40
0.03
  9
$DIMJUST
 70
     0
  9
$DIMSD1
 70
     0
  9
$DIMSD2
 70
     0
  9
$DIMTOLJ
 70
     1
  9
$DIMTZIN
 70
     0
  9
$DIMALTZ
 70
     0
  9
$DIMALTTZ
 70
     0
  9
$DIMUPT
 70
     0
  9
$DIMDEC
 70
     3
  9
$DIMTDEC
 70
     3
  9
$DIMALTU
 70
     2
  9
$DIMALTTD
 70
     2
  9
$DIMTXSTY
  7
Standard
  9
$DIMAUNIT
 70
     0
  9
$DIMADEC
 70
     0
  9
$DIMALTRND
 40
0.0
  9
$DIMAZIN
 70
     0
  9
$DIMDSEP
 70
    46
  9
$DIMATFIT
 70
     1
  9
$DIMFRAC
 70
     0
  9
$DIMLDRBLK
  1

  9
$DIMLUNIT
 70
     2
  9
$DIMLWD
 70
    -2
  9
$DIMLWE
 70
    -2
  9
$DIMTMOVE
 70
     0
  9
$DIMFXL
 40
1.0
  9
$DIMFXLON
 70
     0
  9
$DIMJOGANG
 40
0.7853981633974483
  9
$DIMTFILL
 70
     0
  9
$DIMTFILLCLR
 70
     0
  9
$DIMARCSYM
 70
     0
  9
$DIMLTYPE
  6

  9
$DIMLTEX1
  6

  9
$DIMLTEX2
  6

  9
$LUNITS
 70
     2
  9
$LUPREC
 70
     4
  9
$SKETCHINC
 40
0.1
  9
$FILLETRAD
 40
0.04
  9
$AUNITS
 70
     0
  9
$AUPREC
 70
     0
  9
$MENU
  1
.
  9
$ELEVATION
 40
0.0
  9
$PELEVATION
 40
0.0
  9
$THICKNESS
 40
0.0
  9
$LIMCHECK
 70
     0
  9
$CHAMFERA
 40
0.5
  9
$CHAMFERB
 40
0.5
  9
$CHAMFERC
 40
1.0
  9
$CHAMFERD
 40
0.0
  9
$SKPOLY
 70
     0
  9
$TDCREATE
 40
2453314.383248877
  9
$TDUCREATE
 40
2453314.591582211
  9
$TDUPDATE
 40
2454418.598569769
  9
$TDUUPDATE
 40
2454418.806903102
  9
$TDINDWG
 40
0.8024266435
  9
$TDUSRTIMER
 40
0.8024266435
  9
$USRTIMER
 70
     1
  9
$ANGBASE
 50
0.0
  9
$ANGDIR
 70
     0
  9
$PDMODE
 70
     0
  9
$PDSIZE
 40
0.0
  9
$PLINEWID
 40
0.0
  9
$SPLFRAME
 70
     0
  9
$SPLINETYPE
 70
     6
  9
$SPLINESEGS
 70
     8
  9
$HANDSEED
  5
2555
  9
$SURFTAB1
 70
     6
  9
$SURFTAB2
 70
     6
  9
$SURFTYPE
 70
     6
  9
$SURFU
 70
     6
  9
$SURFV
 70
     6
  9
$UCSBASE
  2

  9
$UCSNAME
  2

  9
$UCSORG
 10
0.0
 20
0.0
 30
0.0
  9
$UCSXDIR
 10
1.0
 20
0.0
 30
0.0
  9
$UCSYDIR
 10
0.0
 20
1.0
 30
0.0
  9
$UCSORTHOREF
  2

  9
$UCSORTHOVIEW
 70
     0
  9
$UCSORGTOP
 10
0.0
 20
0.0
 30
0.0
  9
$UCSORGBOTTOM
 10
0.0
 20
0.0
 30
0.0
  9
$UCSORGLEFT
 10
0.0
 20
0.0
 30
0.0
  9
$UCSORGRIGHT
 10
0.0
 20
0.0
 30
0.0
  9
$UCSORGFRONT
 10
0.0
 20
0.0
 30
0.0
  9
$UCSORGBACK
 10
0.0
 20
0.0
 30
0.0
  9
$PUCSBASE
  2

  9
$PUCSNAME
  2

  9
$PUCSORG
 10
0.0
 20
0.0
 30
0.0
  9
$PUCSXDIR
 10
1.0
 20
0.0
 30
0.0
  9
$PUCSYDIR
 10
0.0
 20
1.0
 30
0.0
  9
$PUCSORTHOREF
  2

  9
$PUCSORTHOVIEW
 70
     0
  9
$PUCSORGTOP
 10
0.0
 20
0.0
 30
0.0
  9
$PUCSORGBOTTOM
 10
0.0
 20
0.0
 30
0.0
  9
$PUCSORGLEFT
 10
0.0
 20
0.0
 30
0.0
  9
$PUCSORGRIGHT
 10
0.0
 20
0.0
 30
0.0
  9
$PUCSORGFRONT
 10
0.0
 20
0.0
 30
0.0
  9
$PUCSORGBACK
 10
0.0
 20
0.0
 30
0.0
  9
$USERI1
 70
     0
  9
$USERI2
 70
     0
  9
$USERI3
 70
     0
  9
$USERI4
 70
     0
  9
$USERI5
 70
     0
  9
$USERR1
 40
0.0
  9
$USERR2
 40
0.0
  9
$USERR3
 40
0.0
  9
$USERR4
 40
0.0
  9
$USERR5
 40
0.0
  9
$WORLDVIEW
 70
     1
  9
$SHADEDGE
 70
     3
  9
$SHADEDIF
 70
    70
  9
$TILEMODE
 70
     0
  9
$MAXACTVP
 70
    64
  9
$PINSBASE
 10
0.0
 20
0.0
 30
0.0
  9
$PLIMCHECK
 70
     0
  9
$PEXTMIN
 10
0.0110182133805168
 20
0.0120183154040312
 30
0.0
  9
$PEXTMAX
 10
7.854568112722461
 20
10.01812142761775
 30
0.0
  9
$PLIMMIN
 10
-0.2312499894870548
 20
-0.4312491980124646
  9
$PLIMMAX
 10
8.268749770217056
 20
10.56875056169164
  9
$UNITMODE
 70
     0
  9
$VISRETAIN
 70
     1
  9
$PLINEGEN
 70
     0
  9
$PSLTSCALE
 70
     1
  9
$TREEDEPTH
 70
  3020
  9
$CMLSTYLE
  2
Standard
  9
$CMLJUST
 70
     0
  9
$CMLSCALE
 40
1.0
  9
$PROXYGRAPHICS
 70
     1
  9
$MEASUREMENT
 70
     0
  9
$CELWEIGHT
370
    -1
  9
$ENDCAPS
280
     0
  9
$JOINSTYLE
280
     0
  9
$LWDISPLAY
290
     0
  9
$INSUNITS
 70
     1
  9
$HYPERLINKBASE
  1

  9
$STYLESHEET
  1
monochrome.ctb
  9
$XEDIT
290
     1
  9
$CEPSNTYPE
380
     0
  9
$PSTYLEMODE
290
     1
  9
$FINGERPRINTGUID
  2
{E84763E2-1B15-46C7-BC47-59EF1557DD6B}
  9
$VERSIONGUID
  2
{2C24ACF2-796A-4543-BA42-70DC914F702C}
  9
$EXTNAMES
290
     1
  9
$PSVPSCALE
 40
0.0
  9
$OLESTARTUP
290
     0
  9
$SORTENTS
280
   127
  9
$INDEXCTL
280
     0
  9
$HIDETEXT
280
     1
  9
$XCLIPFRAME
290
     0
  9
$HALOGAP
280
     0
  9
$OBSCOLOR
 70
   257
  9
$OBSLTYPE
280
     0
  9
$INTERSECTIONDISPLAY
280
     0
  9
$INTERSECTIONCOLOR
 70
   257
  9
$DIMASSOC
280
     2
  9
$PROJECTNAME
  1

  9
$CAMERADISPLAY
290
     0
  9
$LENSLENGTH
 40
50.0
  9
$CAMERAHEIGHT
 40
0.0
  9
$STEPSPERSEC
 40
2.0
  9
$STEPSIZE
 40
6.0
  9
$3DDWFPREC
 40
2.0
  9
$PSOLWIDTH
 40
0.25
  9
$PSOLHEIGHT
 40
4.0
  9
$LOFTANG1
 40
1.570796326794896
  9
$LOFTANG2
 40
1.570796326794896
  9
$LOFTMAG1
 40
0.0
  9
$LOFTMAG2
 40
0.0
  9
$LOFTPARAM
 70
     7
  9
$LOFTNORMALS
280
     1
  9
$LATITUDE
 40
37.795
  9
$LONGITUDE
 40
-122.394
  9
$NORTHDIRECTION
 40
0.0
  9
$TIMEZONE
 70
 -8000
  9
$LIGHTGLYPHDISPLAY
280
     1
  9
$TILEMODELIGHTSYNCH
280
     1
  9
$CMATERIAL
347
24F5
  9
$SOLIDHIST
280
     1
  9
$SHOWHIST
280
     1
  9
$DWFFRAME
280
     2
  9
$DGNFRAME
280
     0
  9
$REALWORLDSCALE
290
     1
  9
$INTERFERECOLOR
 62
     1
  9
$INTERFEREOBJVS
345
2502
  9
$INTERFEREVPVS
346
24FF
  9
$CSHADOW
280
     0
  9
$SHADOWPLANELOCATION
 40
0.0
  0
ENDSEC
  0
SECTION
  2
CLASSES
  0
CLASS
  1
ACDBDICTIONARYWDFLT
  2
AcDbDictionaryWithDefault
  3
ObjectDBX Classes
 90
        0
 91
        1
280
     0
281
     0
  0
CLASS
  1
DIMASSOC
  2
AcDbDimAssoc
  3
"AcDbDimAssoc|Product Desc:     AcDim ARX App For Dimension|Company:          Autodesk, Inc.|WEB Address:      www.autodesk.com"
 90
        0
 91
       11
280
     0
281
     0
  0
CLASS
  1
PLOTSETTINGS
  2
AcDbPlotSettings
  3
ObjectDBX Classes
 90
        0
 91
        1
280
     0
281
     0
  0
CLASS
  1
DICTIONARYVAR
  2
AcDbDictionaryVar
  3
ObjectDBX Classes
 90
        0
 91
        3
280
     0
281
     0
  0
CLASS
  1
TABLESTYLE
  2
AcDbTableStyle
  3
ObjectDBX Classes
 90
     4095
 91
        1
280
     0
281
     0
  0
CLASS
  1
SORTENTSTABLE
  2
AcDbSortentsTable
  3
ObjectDBX Classes
 90
        0
 91
        1
280
     0
281
     0
  0
CLASS
  1
MATERIAL
  2
AcDbMaterial
  3
ObjectDBX Classes
 90
     1153
 91
        3
280
     0
281
     0
  0
CLASS
  1
VISUALSTYLE
  2
AcDbVisualStyle
  3
ObjectDBX Classes
 90
     4095
 91
       16
280
     0
281
     0
  0
CLASS
  1
EXACXREFPANELOBJECT
  2
ExAcXREFPanelObject
  3
EXAC_ESW
 90
     1025
 91
        1
280
     0
281
     0
  0
CLASS
  1
NPOCOLLECTION
  2
AcDbImpNonPersistentObjectsCollection
  3
ObjectDBX Classes
 90
     1153
 91
        1
280
     0
281
     0
  0
ENDSEC
  0
SECTION
  2
TABLES
  0
TABLE
  2
VPORT
  5
8
330
0
100
AcDbSymbolTable
 70
     1
  0
VPORT
  5
24F3
330
8
100
AcDbSymbolTableRecord
100
AcDbViewportTableRecord
  2
*Active
 70
     0
 10
0.0
 20
0.0
 11
1.0
 21
1.0
 12
8.212465759511676
 22
4.245254537259757
 13
0.0
 23
0.0
 14
0.5
 24
0.5
 15
0.5
 25
0.5
 16
0.0
 26
0.0
 36
1.0
 17
0.0
 27
0.0
 37
0.0
 40
1.984157202063015
 41
1.739371534195933
 42
50.0
 43
0.0
 44
0.0
 50
0.0
 51
0.0
 71
     0
 72
   100
 73
     1
 74
     3
 75
     0
 76
     0
 77
     0
 78
     0
281
     0
 65
     1
110
0.0
120
0.0
130
0.0
111
1.0
121
0.0
131
0.0
112
0.0
122
1.0
132
0.0
 79
     0
146
0.0
348
24FE
 60
     3
 61
     5
292
     1
282
     1
141
0.0
142
0.0
 63
   250
421
  3355443
  0
ENDTAB
  0
TABLE
  2
LTYPE
  5
5
330
0
100
AcDbSymbolTable
 70
     1
  0
LTYPE
  5
14
330
5
100
AcDbSymbolTableRecord
100
AcDbLinetypeTableRecord
  2
ByBlock
 70
     0
  3

 72
    65
 73
     0
 40
0.0
  0
LTYPE
  5
15
330
5
100
AcDbSymbolTableRecord
100
AcDbLinetypeTableRecord
  2
ByLayer
 70
     0
  3

 72
    65
 73
     0
 40
0.0
  0
LTYPE
  5
16
330
5
100
AcDbSymbolTableRecord
100
AcDbLinetypeTableRecord
  2
Continuous
 70
     0
  3
Solid line
 72
    65
 73
     0
 40
0.0
  0
ENDTAB
  0
TABLE
  2
LAYER
  5
2
102
{ACAD_XDICTIONARY
360
2519
102
}
330
0
100
AcDbSymbolTable
 70
    12
  0
LAYER
  5
10
330
2
100
AcDbSymbolTableRecord
100
AcDbLayerTableRecord
  2
0
 70
     0
 62
     7
  6
Continuous
370
    -3
390
F
347
24F7
  0
LAYER
  5
2B
330
2
100
AcDbSymbolTableRecord
100
AcDbLayerTableRecord
  2
Fin
 70
     0
 62
     7
  6
Continuous
370
    35
390
F
347
24F7
  0
LAYER
  5
1D0
330
2
100
AcDbSymbolTableRecord
100
AcDbLayerTableRecord
  2
Defpoints
 70
     0
 62
     7
  6
Continuous
290
     0
370
    -3
390
F
347
24F7
  0
LAYER
  5
2A6
330
2
100
AcDbSymbolTableRecord
100
AcDbLayerTableRecord
  2
dimensions
 70
     0
 62
     1
  6
Continuous
370
    -3
390
F
347
24F7
  0
LAYER
  5
2EE
330
2
100
AcDbSymbolTableRecord
100
AcDbLayerTableRecord
  2
flexible
 70
     0
 62
     6
  6
Continuous
370
    -3
390
F
347
24F7
  0
LAYER
  5
2EF
330
2
100
AcDbSymbolTableRecord
100
AcDbLayerTableRecord
  2
rigid
 70
     0
 62
     5
  6
Continuous
370
    -3
390
F
347
24F7
  0
LAYER
  5
2F0
330
2
100
AcDbSymbolTableRecord
100
AcDbLayerTableRecord
  2
poly pro
 70
     0
 62
     6
  6
Continuous
370
    -3
390
F
347
24F7
  0
LAYER
  5
3AA
330
2
100
AcDbSymbolTableRecord
100
AcDbLayerTableRecord
  2
TITLE_BLOCK
 70
     0
 62
     7
  6
Continuous
370
    -3
390
F
347
24F7
  0
LAYER
  5
4B1
330
2
100
AcDbSymbolTableRecord
100
AcDbLayerTableRecord
  2
X10023
 70
     0
 62
     7
  6
Continuous
370
    -3
390
F
347
24F7
  0
LAYER
  5
1C60
330
2
100
AcDbSymbolTableRecord
100
AcDbLayerTableRecord
  2
NOTES
 70
     0
 62
     7
  6
Continuous
370
    -3
390
F
347
24F7
  0
LAYER
  5
1F8E
330
2
100
AcDbSymbolTableRecord
100
AcDbLayerTableRecord
  2
MISC_
 70
     0
 62
     7
  6
Continuous
370
    -3
390
F
347
24F7
  0
LAYER
  5
24C3
330
2
100
AcDbSymbolTableRecord
100
AcDbLayerTableRecord
  2
AREA
 70
     0
 62
     7
  6
Continuous
370
    -3
390
F
347
24F7
  0
ENDTAB
  0
TABLE
  2
STYLE
  5
3
330
0
100
AcDbSymbolTable
 70
     1
  0
STYLE
  5
11
330
3
100
AcDbSymbolTableRecord
100
AcDbTextStyleTableRecord
  2
Standard
 70
     0
 40
0.0
 41
1.0
 50
0.0
 71
     0
 42
0.2
  3
txt
  4

  0
ENDTAB
  0
TABLE
  2
VIEW
  5
6
330
0
100
AcDbSymbolTable
 70
     0
  0
ENDTAB
  0
TABLE
  2
UCS
  5
7
330
0
100
AcDbSymbolTable
 70
     0
  0
ENDTAB
  0
TABLE
  2
APPID
  5
9
330
0
100
AcDbSymbolTable
 70
     3
  0
APPID
  5
12
330
9
100
AcDbSymbolTableRecord
100
AcDbRegAppTableRecord
  2
ACAD
 70
     0
  0
APPID
  5
3EB
330
9
100
AcDbSymbolTableRecord
100
AcDbRegAppTableRecord
  2
DCO15
 70
     0
  0
APPID
  5
7E7
330
9
100
AcDbSymbolTableRecord
100
AcDbRegAppTableRecord
  2
ACAD_PSEXT
 70
     0
  0
ENDTAB
  0
TABLE
  2
DIMSTYLE
  5
A
330
0
100
AcDbSymbolTable
 70
     9
100
AcDbDimStyleTable
 71
     1
340
27
  0
DIMSTYLE
105
27
102
{ACAD_REACTORS
330
53D
330
561
330
4EE
330
5D4
330
8E7
330
AD8
330
B10
330
CAD
330
D9D
330
602
330
11F4
330
1907
330
192B
330
1B25
330
755
330
6C2
330
727
330
8A5
330
877
102
}
330
A
100
AcDbSymbolTableRecord
100
AcDbDimStyleTableRecord
  2
Standard
 70
     0
 41
0.03
 42
0.03
 43
0.03
 44
0.03
140
0.03
141
0.03
147
0.03
271
     3
272
     3
289
     1
340
11
  0
DIMSTYLE
105
7E6
330
A
100
AcDbSymbolTableRecord
100
AcDbDimStyleTableRecord
  2
DIMSTYLE1
 70
     0
 41
0.0125
 44
0.0125
140
0.0125
289
     0
340
11
  0
DIMSTYLE
105
A1C
330
A
100
AcDbSymbolTableRecord
100
AcDbDimStyleTableRecord
  2
DIMSTYLE1$0
 70
     0
 41
0.0125
 44
0.0125
140
0.0125
289
     0
340
11
  0
DIMSTYLE
105
BEB
330
A
100
AcDbSymbolTableRecord
100
AcDbDimStyleTableRecord
  2
DIMSTYLE4
 70
     0
 41
0.0125
 44
0.0125
140
0.0125
289
     0
340
11
  0
DIMSTYLE
105
1C61
330
A
100
AcDbSymbolTableRecord
100
AcDbDimStyleTableRecord
  2
DIMSTYLE8
 70
     0
 41
0.0125
 44
0.0125
140
0.0125
289
     0
340
11
  0
DIMSTYLE
105
1C62
330
A
100
AcDbSymbolTableRecord
100
AcDbDimStyleTableRecord
  2
DIMSTYLE15
 70
     0
 41
0.0125
 44
0.0125
140
0.0125
289
     0
340
11
  0
DIMSTYLE
105
1C63
330
A
100
AcDbSymbolTableRecord
100
AcDbDimStyleTableRecord
  2
DIMSTYLE16
 70
     0
 41
0.0125
 44
0.0125
140
0.0125
289
     0
340
11
  0
DIMSTYLE
105
1C64
330
A
100
AcDbSymbolTableRecord
100
AcDbDimStyleTableRecord
  2
DIMSTYLE17
 70
     0
 41
0.0125
 44
0.0125
140
0.0125
289
     0
340
11
  0
DIMSTYLE
105
1C65
330
A
100
AcDbSymbolTableRecord
100
AcDbDimStyleTableRecord
  2
DIMSTYLE18
 70
     0
 41
0.0125
 44
0.0125
140
0.0125
289
     0
340
11
  0
ENDTAB
  0
TABLE
  2
BLOCK_RECORD
  5
1
330
0
100
AcDbSymbolTable
 70
    21
  0
BLOCK_RECORD
  5
1F
102
{ACAD_XDICTIONARY
360
49B
102
}
330
1
100
AcDbSymbolTableRecord
100
AcDbBlockTableRecord
  2
*Model_Space
340
22
 70
     0
280
     1
281
     0
  0
BLOCK_RECORD
  5
1B
330
1
100
AcDbSymbolTableRecord
100
AcDbBlockTableRecord
  2
*Paper_Space
340
1E
 70
     0
280
     1
281
     0
  0
BLOCK_RECORD
  5
37D
330
1
100
AcDbSymbolTableRecord
100
AcDbBlockTableRecord
  2
Extruded Part Boarder
340
0
 70
     1
280
     1
281
     0
  0
BLOCK_RECORD
  5
4EF
330
1
100
AcDbSymbolTableRecord
100
AcDbBlockTableRecord
  2
*D1
340
0
 70
     0
280
     1
281
     0
  0
BLOCK_RECORD
  5
53E
330
1
100
AcDbSymbolTableRecord
100
AcDbBlockTableRecord
  2
*D2
340
0
 70
     0
280
     1
281
     0
  0
BLOCK_RECORD
  5
562
330
1
100
AcDbSymbolTableRecord
100
AcDbBlockTableRecord
  2
*D3
340
0
 70
     0
280
     1
281
     0
  0
BLOCK_RECORD
  5
5D5
330
1
100
AcDbSymbolTableRecord
100
AcDbBlockTableRecord
  2
*D4
340
0
 70
     0
280
     1
281
     0
  0
BLOCK_RECORD
  5
603
330
1
100
AcDbSymbolTableRecord
100
AcDbBlockTableRecord
  2
*D5
340
0
 70
     0
280
     1
281
     0
  0
BLOCK_RECORD
  5
6C3
330
1
100
AcDbSymbolTableRecord
100
AcDbBlockTableRecord
  2
*D6
340
0
 70
     0
280
     1
281
     0
  0
BLOCK_RECORD
  5
728
330
1
100
AcDbSymbolTableRecord
100
AcDbBlockTableRecord
  2
*D7
340
0
 70
     0
280
     1
281
     0
  0
BLOCK_RECORD
  5
756
330
1
100
AcDbSymbolTableRecord
100
AcDbBlockTableRecord
  2
*D8
340
0
 70
     0
280
     1
281
     0
  0
BLOCK_RECORD
  5
878
330
1
100
AcDbSymbolTableRecord
100
AcDbBlockTableRecord
  2
*D9
340
0
 70
     0
280
     1
281
     0
  0
BLOCK_RECORD
  5
8A6
330
1
100
AcDbSymbolTableRecord
100
AcDbBlockTableRecord
  2
*D10
340
0
 70
     0
280
     1
281
     0
  0
BLOCK_RECORD
  5
8E8
330
1
100
AcDbSymbolTableRecord
100
AcDbBlockTableRecord
  2
*D11
340
0
 70
     0
280
     1
281
     0
  0
BLOCK_RECORD
  5
AD9
330
1
100
AcDbSymbolTableRecord
100
AcDbBlockTableRecord
  2
*D12
340
0
 70
     0
280
     1
281
     0
  0
BLOCK_RECORD
  5
B11
330
1
100
AcDbSymbolTableRecord
100
AcDbBlockTableRecord
  2
*D13
340
0
 70
     0
280
     1
281
     0
  0
BLOCK_RECORD
  5
CAE
330
1
100
AcDbSymbolTableRecord
100
AcDbBlockTableRecord
  2
*D14
340
0
 70
     0
280
     1
281
     0
  0
BLOCK_RECORD
  5
D9E
330
1
100
AcDbSymbolTableRecord
100
AcDbBlockTableRecord
  2
*D15
340
0
 70
     0
280
     1
281
     0
  0
BLOCK_RECORD
  5
11F5
330
1
100
AcDbSymbolTableRecord
100
AcDbBlockTableRecord
  2
*D16
340
0
 70
     0
280
     1
281
     0
  0
BLOCK_RECORD
  5
1908
330
1
100
AcDbSymbolTableRecord
100
AcDbBlockTableRecord
  2
*D17
340
0
 70
     0
280
     1
281
     0
  0
BLOCK_RECORD
  5
192C
330
1
100
AcDbSymbolTableRecord
100
AcDbBlockTableRecord
  2
*D18
340
0
 70
     0
280
     1
281
     0
  0
BLOCK_RECORD
  5
1B26
330
1
100
AcDbSymbolTableRecord
100
AcDbBlockTableRecord
  2
*D19
340
0
 70
     0
280
     1
281
     0
  0
BLOCK_RECORD
  5
238C
330
1
100
AcDbSymbolTableRecord
100
AcDbBlockTableRecord
  2
GENDIM3
340
0
 70
     0
280
     1
281
     0
  0
ENDTAB
  0
ENDSEC
  0
SECTION
  2
BLOCKS
  0
BLOCK
  5
20
330
1F
100
AcDbEntity
  8
0
100
AcDbBlockBegin
  2
*Model_Space
 70
     0
 10
0.0
 20
0.0
 30
0.0
  3
*Model_Space
  1

  0
ENDBLK
  5
21
330
1F
100
AcDbEntity
  8
0
100
AcDbBlockEnd
  0
BLOCK
  5
1C
330
1B
100
AcDbEntity
 67
     1
  8
0
100
AcDbBlockBegin
  2
*Paper_Space
 70
     0
 10
0.0
 20
0.0
 30
0.0
  3
*Paper_Space
  1

  0
ENDBLK
  5
1D
330
1B
100
AcDbEntity
 67
     1
  8
0
100
AcDbBlockEnd
  0
BLOCK
  5
3A8
330
37D
100
AcDbEntity
  8
0
100
AcDbBlockBegin
  2
Extruded Part Boarder
 70
     0
 10
0.0
 20
0.0
 30
0.0
  3
Extruded Part Boarder
  1

  0
LINE
  5
37E
330
37D
100
AcDbEntity
  8
TITLE_BLOCK
  6
Continuous
 62
     7
100
AcDbLine
 10
14.78302213198278
 20
11.57516829586068
 30
0.0
 11
13.93302213198278
 21
11.57516829586068
 31
0.0
  0
LINE
  5
37F
330
37D
100
AcDbEntity
  8
TITLE_BLOCK
  6
Continuous
 62
     7
100
AcDbLine
 10
13.95802213198278
 20
11.55016829586068
 30
0.0
 11
14.75802213198278
 21
11.55016829586068
 31
0.0
  0
LINE
  5
380
330
37D
100
AcDbEntity
  8
TITLE_BLOCK
  6
Continuous
 62
     7
100
AcDbLine
 10
13.93302213198278
 20
10.47516829586068
 30
0.0
 11
13.93302213198278
 21
11.57516829586068
 31
0.0
  0
LINE
  5
381
330
37D
100
AcDbEntity
  8
TITLE_BLOCK
  6
Continuous
 62
     7
100
AcDbLine
 10
13.95802213198278
 20
10.50016829586068
 30
0.0
 11
13.95802213198278
 21
11.55016829586068
 31
0.0
  0
LINE
  5
382
330
37D
100
AcDbEntity
  8
TITLE_BLOCK
  6
Continuous
 62
     7
100
AcDbLine
 10
14.75802213198278
 20
11.55016829586068
 30
0.0
 11
14.75802213198278
 21
10.50016829586068
 31
0.0
  0
LINE
  5
383
330
37D
100
AcDbEntity
  8
TITLE_BLOCK
  6
Continuous
 62
     7
100
AcDbLine
 10
14.78302213198278
 20
10.47516829586068
 30
0.0
 11
14.78302213198278
 21
11.57516829586068
 31
0.0
  0
MTEXT
  5
384
330
37D
100
AcDbEntity
  8
0
  6
Continuous
 62
     2
100
AcDbMText
 10
14.15972580042397
 20
10.58345414730853
 30
0.0
 40
0.00625
 41
0.2959652489
 46
0.0
 71
     1
 72
     5
  3
{\Fisocp.shx;\C7;NOTICE OF CONFIDENTIAL INFORMATION:  INFORMATION CONTAINED HEREIN IS CONFIDENTIAL AND PROPRIETARY IN NATURE AND SHALL AT ALL TIMES REMAIN THE PROPERTY OF ULTRAFAB, INC. 1050 HOOK ROAD FARMINGTON NY 14425.  BY REVIEWING THE CONTENTS O
  1
F THIS DOCUMENT, YOU HEREBY AGREE TO ALL THE TERMS AND CONDITIONS SET FORTH ABOVE.}
 73
     1
 44
1.0
  0
LINE
  5
385
330
37D
100
AcDbEntity
  8
TITLE_BLOCK
  6
Continuous
 62
     7
100
AcDbLine
 10
14.78302213198278
 20
10.47516829586068
 30
0.0
 11
13.93302213198278
 21
10.47516829586068
 31
0.0
  0
LINE
  5
386
330
37D
100
AcDbEntity
  8
TITLE_BLOCK
  6
Continuous
 62
     7
100
AcDbLine
 10
14.75802213198278
 20
10.50016829586068
 30
0.0
 11
13.95802213198278
 21
10.50016829586068
 31
0.0
  0
LINE
  5
387
330
37D
100
AcDbEntity
  8
TITLE_BLOCK
  6
Continuous
 62
     7
100
AcDbLine
 10
13.95802213198278
 20
10.66266829586068
 30
0.0
 11
14.75802213198278
 21
10.66266829586068
 31
0.0
  0
LINE
  5
388
330
37D
100
AcDbEntity
  8
TITLE_BLOCK
  6
Continuous
 62
     7
100
AcDbLine
 10
14.15802213198278
 20
10.58766829586068
 30
0.0
 11
14.35802213198278
 21
10.58766829586068
 31
0.0
  0
LINE
  5
389
330
37D
100
AcDbEntity
  8
TITLE_BLOCK
  6
Continuous
 62
     7
100
AcDbLine
 10
14.15802213198278
 20
10.53766829586068
 30
0.0
 11
13.95802213198278
 21
10.53766829586068
 31
0.0
  0
LINE
  5
38A
330
37D
100
AcDbEntity
  8
TITLE_BLOCK
  6
Continuous
 62
     7
100
AcDbLine
 10
13.97052213198278
 20
10.60641829586068
 30
0.0
 11
14.14552213198278
 21
10.60641829586068
 31
0.0
  0
LINE
  5
38B
330
37D
100
AcDbEntity
  8
TITLE_BLOCK
  6
Continuous
 62
     7
100
AcDbLine
 10
13.97052213198278
 20
10.55016829586068
 30
0.0
 11
14.14552213198278
 21
10.55016829586068
 31
0.0
  0
TEXT
  5
38C
330
37D
100
AcDbEntity
  8
TITLE_BLOCK
  6
Continuous
 62
     7
100
AcDbText
 10
13.96427213198278
 20
10.64391829586068
 30
0.0
 40
0.01
  1
CUSTOMER APPROVAL:
 41
0.5
100
AcDbText
  0
TEXT
  5
38D
330
37D
100
AcDbEntity
  8
TITLE_BLOCK
  6
Continuous
 62
     7
100
AcDbText
 10
13.96427213198278
 20
10.58766829586068
 30
0.0
 40
0.01
  1
DATE:
 41
0.5
100
AcDbText
  0
LINE
  5
38E
330
37D
100
AcDbEntity
  8
TITLE_BLOCK
  6
Continuous
 62
     7
100
AcDbLine
 10
14.15802213198278
 20
10.63766829586068
 30
0.0
 11
14.25802213198278
 21
10.63766829586068
 31
0.0
  0
LINE
  5
38F
330
37D
100
AcDbEntity
  8
TITLE_BLOCK
  6
Continuous
 62
     7
100
AcDbLine
 10
14.15802213198278
 20
10.61266829586068
 30
0.0
 11
14.25802213198278
 21
10.61266829586068
 31
0.0
  0
LINE
  5
390
330
37D
100
AcDbEntity
  8
TITLE_BLOCK
  6
Continuous
 62
     7
100
AcDbLine
 10
14.15802213198278
 20
10.66266829586068
 30
0.0
 11
14.15802213198278
 21
10.50016829586068
 31
0.0
  0
TEXT
  5
391
330
37D
100
AcDbEntity
  8
TITLE_BLOCK
  6
Continuous
 62
     7
100
AcDbText
 10
14.16427213198278
 20
10.62516829586068
 30
0.0
 40
0.00625
  1
SIZE:
 41
0.5
100
AcDbText
  0
TEXT
  5
392
330
37D
100
AcDbEntity
  8
TITLE_BLOCK
  6
Continuous
 62
     7
100
AcDbText
 10
14.16427213198278
 20
10.60016829586068
 30
0.0
 40
0.00625
  1
SHEET:
 41
0.5
100
AcDbText
  0
TEXT
  5
393
330
37D
100
AcDbEntity
  8
TITLE_BLOCK
  6
Continuous
 62
     7
100
AcDbText
 10
14.16427213198278
 20
10.65016829586068
 30
0.0
 40
0.00625
  1
SCALE:
 41
0.5
100
AcDbText
  0
TEXT
  5
394
330
37D
100
AcDbEntity
  8
TITLE_BLOCK
  6
Continuous
 62
     7
100
AcDbText
 10
14.19552213198278
 20
10.61891829586068
 30
0.0
 40
0.0125
  1
A
 41
0.5
100
AcDbText
  0
LINE
  5
395
330
37D
100
AcDbEntity
  8
TITLE_BLOCK
  6
Continuous
 62
     7
100
AcDbLine
 10
14.25802213198278
 20
10.66266829586068
 30
0.0
 11
14.25802213198278
 21
10.58766829586068
 31
0.0
  0
TEXT
  5
396
330
37D
100
AcDbEntity
  8
TITLE_BLOCK
  6
Continuous
 62
     7
100
AcDbText
 10
14.26427213198278
 20
10.65016829586068
 30
0.0
 40
0.00625
  1
MATERIAL:
 41
0.5
100
AcDbText
  0
LINE
  5
397
330
37D
100
AcDbEntity
  8
TITLE_BLOCK
  6
Continuous
 62
     7
100
AcDbLine
 10
14.45802213198278
 20
10.62516829586068
 30
0.0
 11
14.75802213198278
 21
10.62516829586068
 31
0.0
  0
LINE
  5
398
330
37D
100
AcDbEntity
  8
TITLE_BLOCK
  6
Continuous
 62
     7
100
AcDbLine
 10
14.45802213198278
 20
10.53766829586068
 30
0.0
 11
14.75802213198278
 21
10.53766829586068
 31
0.0
  0
TEXT
  5
399
330
37D
100
AcDbEntity
  8
TITLE_BLOCK
  6
Continuous
 62
     7
100
AcDbText
 10
14.60437046955896
 20
10.63963879844496
 30
0.0
 40
0.01
  1
Extruded Components Division
 41
0.5
100
AcDbText
  0
TEXT
  5
39A
330
37D
100
AcDbEntity
  8
TITLE_BLOCK
  6
Continuous
 62
     7
100
AcDbText
 10
14.54814713198278
 20
10.55016829586068
 30
0.0
 40
0.01875
  1
PART DRAWING
 41
0.5
100
AcDbText
  0
TEXT
  5
39B
330
37D
100
AcDbEntity
  8
TITLE_BLOCK
  6
Continuous
 62
     7
100
AcDbText
 10
14.56214713198278
 20
10.60016829586068
 30
0.0
 40
0.01875
  1
.290 HIGH
 41
0.5
100
AcDbText
  0
TEXT
  5
39C
330
37D
100
AcDbEntity
  8
TITLE_BLOCK
  6
Continuous
 62
     7
100
AcDbText
 10
14.55314713198278
 20
10.57516829586068
 30
0.0
 40
0.01875
  1
.187 T-SLOT
 41
0.5
100
AcDbText
  0
TEXT
  5
39D
330
37D
100
AcDbEntity
  8
TITLE_BLOCK
  6
Continuous
 62
     7
100
AcDbText
 10
14.47052213198278
 20
10.63141829586068
 30
0.0
 40
0.025
  1
ULTRAFAB
 41
0.5
100
AcDbText
  0
TEXT
  5
39E
330
37D
100
AcDbEntity
  8
TITLE_BLOCK
  6
Continuous
 62
     7
100
AcDbText
 10
14.46427213198278
 20
10.51891829586068
 30
0.0
 40
0.01
  1
PART NO.:
 41
0.5
100
AcDbText
  0
LINE
  5
39F
330
37D
100
AcDbEntity
  8
TITLE_BLOCK
  6
Continuous
 62
     7
100
AcDbLine
 10
14.45802213198278
 20
10.66266829586068
 30
0.0
 11
14.45802213198278
 21
10.50016829586068
 31
0.0
  0
LINE
  5
3A0
330
37D
100
AcDbEntity
  8
TITLE_BLOCK
  6
Continuous
 62
     7
100
AcDbLine
 10
14.35802213198278
 20
10.58766829586068
 30
0.0
 11
14.45802213198278
 21
10.58766829586068
 31
0.0
  0
LINE
  5
3A1
330
37D
100
AcDbEntity
  8
TITLE_BLOCK
  6
Continuous
 62
     7
100
AcDbLine
 10
14.35802213198278
 20
10.58766829586068
 30
0.0
 11
14.45802213198278
 21
10.58766829586068
 31
0.0
  0
LINE
  5
3A2
330
37D
100
AcDbEntity
  8
TITLE_BLOCK
  6
Continuous
 62
     7
100
AcDbLine
 10
14.35802213198278
 20
10.66266829586068
 30
0.0
 11
14.35802213198278
 21
10.58766829586068
 31
0.0
  0
TEXT
  5
3A3
330
37D
100
AcDbEntity
  8
TITLE_BLOCK
  6
Continuous
 62
     7
100
AcDbText
 10
14.36427213198278
 20
10.65016829586068
 30
0.0
 40
0.00625
  1
COLOR:
 41
0.5
100
AcDbText
  0
TEXT
  5
3A4
330
37D
100
AcDbEntity
  8
TITLE_BLOCK
  6
Continuous
 62
     7
100
AcDbText
 10
14.46427213198278
 20
10.60641829586068
 30
0.0
 40
0.01
  1
TITLE:
 41
0.5
100
AcDbText
  0
TEXT
  5
3A5
330
37D
100
AcDbEntity
  8
TITLE_BLOCK
  6
Continuous
 62
     7
100
AcDbText
 10
14.59172427378823
 20
10.62921506225416
 30
0.0
 40
0.01875
  1
INC
 50
90.0
 41
0.5
100
AcDbText
  0
LINE
  5
3A6
330
37D
100
AcDbEntity
  8
TITLE_BLOCK
  6
Continuous
 62
     7
100
AcDbLine
 10
14.65802213198278
 20
10.53766829586068
 30
0.0
 11
14.65802213198278
 21
10.50016829586068
 31
0.0
  0
TEXT
  5
3A7
330
37D
100
AcDbEntity
  8
TITLE_BLOCK
  6
Continuous
 62
     7
100
AcDbText
 10
14.66427213198278
 20
10.51891829586068
 30
0.0
 40
0.01
  1
REV.:
 41
0.5
100
AcDbText
  0
ENDBLK
  5
3A9
330
37D
100
AcDbEntity
  8
0
100
AcDbBlockEnd
  0
BLOCK
  5
4FC
330
4EF
100
AcDbEntity
  8
0
100
AcDbBlockBegin
  2
*D1
 70
     1
 10
0.0
 20
0.0
 30
0.0
  3
*D1
  1

  0
LINE
  5
1A06
330
4EF
100
AcDbEntity
  8
dimensions
 62
     0
370
    -2
100
AcDbLine
 10
8.279854849346726
 20
4.656292370392345
 30
0.0
 11
8.279854849346721
 21
4.411226745991442
 31
0.0
  0
LINE
  5
1A07
330
4EF
100
AcDbEntity
  8
dimensions
 62
     0
370
    -2
100
AcDbLine
 10
8.327682398977762
 20
4.770585110970206
 30
0.0
 11
8.614982097282853
 21
4.604712552778425
 31
0.0
  0
ARC
  5
1A08
330
4EF
100
AcDbEntity
  8
dimensions
 62
     0
370
    -2
100
AcDbCircle
 10
8.279854849346724
 20
4.798198359630565
 30
0.0
 40
0.3719716136391244
100
AcDbArc
 50
273.0810245346323
 51
294.5110076002196
  0
ARC
  5
1A09
330
4EF
100
AcDbEntity
  8
dimensions
 62
     0
370
    -2
100
AcDbCircle
 10
8.279854849346724
 20
4.798198359630565
 30
0.0
 40
0.3719716136391244
100
AcDbArc
 50
305.6828793006121
 51
326.9189754597975
  0
SOLID
  5
1A0A
330
4EF
100
AcDbEntity
  8
dimensions
 62
     0
100
AcDbTrace
 10
8.299937233241353
 20
4.423432292875043
 30
0.0
 11
8.299758008095611
 21
4.430096549982297
 31
0.0
 12
8.279854849346723
 22
4.426226745991442
 32
0.0
 13
8.279854849346723
 23
4.426226745991442
 33
0.0
  0
SOLID
  5
1A0B
330
4EF
100
AcDbEntity
  8
dimensions
 62
     0
100
AcDbTrace
 10
8.588688788287138
 20
4.596910813684317
 30
0.0
 11
8.594370591666161
 21
4.593423471600928
 31
0.0
 12
8.601991716226818
 22
4.61221255277969
 32
0.0
 13
8.601991716226818
 23
4.61221255277969
 33
0.0
  0
MTEXT
  5
1A0C
330
4EF
100
AcDbEntity
  8
dimensions
 62
     0
100
AcDbMText
 10
8.465840656150627
 20
4.476061492723354
 30
0.0
 40
0.02
 41
0.0
 46
0.0
 71
     5
 72
     1
  1
\A1;60°
 73
     1
 44
1.0
  0
POINT
  5
1A0D
330
4EF
100
AcDbEntity
  8
Defpoints
 62
     0
100
AcDbPoint
 10
8.407076633945328
 20
4.44865937914793
 30
0.0
  0
POINT
  5
1A0E
330
4EF
100
AcDbEntity
  8
Defpoints
 62
     0
100
AcDbPoint
 10
8.279854849346723
 20
4.798198359630568
 30
0.0
  0
POINT
  5
1A0F
330
4EF
100
AcDbEntity
  8
Defpoints
 62
     0
100
AcDbPoint
 10
8.279854849346726
 20
4.821292370392352
 30
0.0
  0
POINT
  5
1A10
330
4EF
100
AcDbEntity
  8
Defpoints
 62
     0
100
AcDbPoint
 10
8.279854849346724
 20
4.671292370392346
 30
0.0
  0
POINT
  5
1A11
330
4EF
100
AcDbEntity
  8
Defpoints
 62
     0
100
AcDbPoint
 10
8.314692017921725
 20
4.778085110971471
 30
0.0
  0
ENDBLK
  5
4FD
330
4EF
100
AcDbEntity
  8
0
100
AcDbBlockEnd
  0
BLOCK
  5
549
330
53E
100
AcDbEntity
  8
0
100
AcDbBlockBegin
  2
*D2
 70
     1
 10
0.0
 20
0.0
 30
0.0
  3
*D2
  1

  0
LINE
  5
178E
330
53E
100
AcDbEntity
  8
dimensions
 62
     0
370
    -2
100
AcDbLine
 10
7.959854849346726
 20
4.61629237039235
 30
0.0
 11
7.959854849346726
 21
4.327871450385139
 31
0.0
  0
LINE
  5
178F
330
53E
100
AcDbEntity
  8
dimensions
 62
     0
370
    -2
100
AcDbLine
 10
8.279854849346724
 20
4.656292370392346
 30
0.0
 11
8.279854849346724
 21
4.327871450385139
 31
0.0
  0
LINE
  5
1790
330
53E
100
AcDbEntity
  8
dimensions
 62
     0
370
    -2
100
AcDbLine
 10
7.979854849346725
 20
4.342871450385139
 30
0.0
 11
8.05377087370967
 21
4.342871450385139
 31
0.0
  0
LINE
  5
1791
330
53E
100
AcDbEntity
  8
dimensions
 62
     0
370
    -2
100
AcDbLine
 10
8.259854849346725
 20
4.342871450385139
 30
0.0
 11
8.210437540376336
 21
4.342871450385139
 31
0.0
  0
SOLID
  5
1792
330
53E
100
AcDbEntity
  8
dimensions
 62
     0
100
AcDbTrace
 10
7.979854849346725
 20
4.346204783718472
 30
0.0
 11
7.979854849346725
 21
4.339538117051806
 31
0.0
 12
7.959854849346726
 22
4.342871450385139
 32
0.0
 13
7.959854849346726
 23
4.342871450385139
 33
0.0
  0
SOLID
  5
1793
330
53E
100
AcDbEntity
  8
dimensions
 62
     0
100
AcDbTrace
 10
8.259854849346725
 20
4.346204783718472
 30
0.0
 11
8.259854849346725
 21
4.339538117051806
 31
0.0
 12
8.279854849346724
 22
4.342871450385139
 32
0.0
 13
8.279854849346724
 23
4.342871450385139
 33
0.0
  0
MTEXT
  5
1794
330
53E
100
AcDbEntity
  8
dimensions
 62
     0
100
AcDbMText
 10
8.132104207043003
 20
4.342871450385139
 30
0.0
 40
0.02
 41
0.0
 46
0.0
 71
     5
 72
     1
  1
\A1;.320±.020
 73
     1
 44
1.0
  0
POINT
  5
1795
330
53E
100
AcDbEntity
  8
Defpoints
 62
     0
100
AcDbPoint
 10
7.959854849346726
 20
4.631292370392349
 30
0.0
  0
POINT
  5
1796
330
53E
100
AcDbEntity
  8
Defpoints
 62
     0
100
AcDbPoint
 10
8.279854849346724
 20
4.671292370392346
 30
0.0
  0
POINT
  5
1797
330
53E
100
AcDbEntity
  8
Defpoints
 62
     0
100
AcDbPoint
 10
8.279854849346724
 20
4.342871450385139
 30
0.0
  0
ENDBLK
  5
54A
330
53E
100
AcDbEntity
  8
0
100
AcDbBlockEnd
  0
BLOCK
  5
56E
330
562
100
AcDbEntity
  8
0
100
AcDbBlockBegin
  2
*D3
 70
     1
 10
0.0
 20
0.0
 30
0.0
  3
*D3
  1

  0
LINE
  5
249A
330
562
100
AcDbEntity
  8
dimensions
 62
     0
370
    -2
100
AcDbLine
 10
8.187027299715461
 20
4.790792370392038
 30
0.0
 11
8.136618562431745
 21
4.761688872349433
 31
0.0
  0
LINE
  5
249B
330
562
100
AcDbEntity
  8
dimensions
 62
     0
370
    -2
100
AcDbLine
 10
8.202027299716068
 20
4.764811608279544
 30
0.0
 11
8.151618562432352
 21
4.735708110236939
 31
0.0
  0
LINE
  5
249C
330
562
100
AcDbEntity
  8
dimensions
 62
     0
370
    -2
100
AcDbLine
 10
8.174608943489463
 20
4.725887602162052
 30
0.0
 11
8.184608943490067
 21
4.708567094086712
 31
0.0
  0
LINE
  5
249D
330
562
100
AcDbEntity
  8
dimensions
 62
     0
370
    -2
100
AcDbLine
 10
8.139608943487647
 20
4.786509380425226
 30
0.0
 11
8.118905943030886
 21
4.822368029082568
 31
0.0
  0
LINE
  5
249E
330
562
100
AcDbEntity
  8
dimensions
 62
     0
370
    -2
100
AcDbLine
 10
8.118905943030886
 20
4.822368029082568
 30
0.0
 11
8.098905943030887
 21
4.822368029082568
 31
0.0
  0
SOLID
  5
249F
330
562
100
AcDbEntity
  8
dimensions
 62
     0
100
AcDbTrace
 10
8.177495694835354
 20
4.72755426882882
 30
0.0
 11
8.171722192143572
 21
4.724220935495285
 31
0.0
 12
8.164608943488858
 22
4.743208110237392
 32
0.0
 13
8.164608943488858
 23
4.743208110237392
 33
0.0
  0
SOLID
  5
24A0
330
562
100
AcDbEntity
  8
dimensions
 62
     0
100
AcDbTrace
 10
8.142495694833538
 20
4.788176047091993
 30
0.0
 11
8.136722192141757
 21
4.784842713758458
 31
0.0
 12
8.149608943488251
 22
4.769188872349886
 32
0.0
 13
8.149608943488251
 23
4.769188872349886
 33
0.0
  0
MTEXT
  5
24A1
330
562
100
AcDbEntity
  8
dimensions
 62
     0
100
AcDbMText
 10
8.022239276364221
 20
4.822368029082568
 30
0.0
 40
0.02
 41
0.0
 46
0.0
 71
     5
 72
     1
  1
\A1;.030±.005
 73
     1
 44
1.0
  0
POINT
  5
24A2
330
562
100
AcDbEntity
  8
Defpoints
 62
     0
100
AcDbPoint
 10
8.200017680771965
 20
4.798292370392491
 30
0.0
  0
POINT
  5
24A3
330
562
100
AcDbEntity
  8
Defpoints
 62
     0
100
AcDbPoint
 10
8.215017680772572
 20
4.772311608279998
 30
0.0
  0
POINT
  5
24A4
330
562
100
AcDbEntity
  8
Defpoints
 62
     0
100
AcDbPoint
 10
8.164608943488858
 20
4.743208110237392
 30
0.0
  0
ENDBLK
  5
56F
330
562
100
AcDbEntity
  8
0
100
AcDbBlockEnd
  0
BLOCK
  5
5E0
330
5D5
100
AcDbEntity
  8
0
100
AcDbBlockBegin
  2
*D4
 70
     1
 10
0.0
 20
0.0
 30
0.0
  3
*D4
  1

  0
LINE
  5
24A5
330
5D5
100
AcDbEntity
  8
dimensions
 62
     0
370
    -2
100
AcDbLine
 10
8.195012701480052
 20
4.801948801981097
 30
0.0
 11
8.195012701480052
 21
5.031492753833821
 31
0.0
  0
LINE
  5
24A6
330
5D5
100
AcDbEntity
  8
dimensions
 62
     0
370
    -2
100
AcDbLine
 10
8.324673279203324
 20
4.802801989336016
 30
0.0
 11
8.324673279203324
 21
5.031492753833821
 31
0.0
  0
LINE
  5
24A7
330
5D5
100
AcDbEntity
  8
dimensions
 62
     0
370
    -2
100
AcDbLine
 10
8.175012701480053
 20
5.016492753833821
 30
0.0
 11
8.155012701480053
 21
5.016492753833821
 31
0.0
  0
LINE
  5
24A8
330
5D5
100
AcDbEntity
  8
dimensions
 62
     0
370
    -2
100
AcDbLine
 10
8.344673279203323
 20
5.016492753833821
 30
0.0
 11
8.37969201792143
 21
5.016492753833821
 31
0.0
  0
SOLID
  5
24A9
330
5D5
100
AcDbEntity
  8
dimensions
 62
     0
100
AcDbTrace
 10
8.175012701480053
 20
5.019826087167154
 30
0.0
 11
8.175012701480053
 21
5.013159420500488
 31
0.0
 12
8.195012701480052
 22
5.016492753833821
 32
0.0
 13
8.195012701480052
 23
5.016492753833821
 33
0.0
  0
SOLID
  5
24AA
330
5D5
100
AcDbEntity
  8
dimensions
 62
     0
100
AcDbTrace
 10
8.344673279203323
 20
5.019826087167154
 30
0.0
 11
8.344673279203323
 21
5.013159420500488
 31
0.0
 12
8.324673279203324
 22
5.016492753833821
 32
0.0
 13
8.324673279203324
 23
5.016492753833821
 33
0.0
  0
MTEXT
  5
24AB
330
5D5
100
AcDbEntity
  8
dimensions
 62
     0
100
AcDbMText
 10
8.451358684588097
 20
5.016492753833821
 30
0.0
 40
0.02
 41
0.0
 46
0.0
 71
     5
 72
     1
  1
\A1;.130±.010
 73
     1
 44
1.0
  0
POINT
  5
24AC
330
5D5
100
AcDbEntity
  8
Defpoints
 62
     0
100
AcDbPoint
 10
8.195012701480052
 20
4.786948801981098
 30
0.0
  0
POINT
  5
24AD
330
5D5
100
AcDbEntity
  8
Defpoints
 62
     0
100
AcDbPoint
 10
8.324673279203324
 20
4.787801989336016
 30
0.0
  0
POINT
  5
24AE
330
5D5
100
AcDbEntity
  8
Defpoints
 62
     0
100
AcDbPoint
 10
8.324673279203324
 20
5.016492753833821
 30
0.0
  0
ENDBLK
  5
5E1
330
5D5
100
AcDbEntity
  8
0
100
AcDbBlockEnd
  0
BLOCK
  5
60E
330
603
100
AcDbEntity
  8
0
100
AcDbBlockBegin
  2
*D5
 70
     1
 10
0.0
 20
0.0
 30
0.0
  3
*D5
  1

  0
LINE
  5
1A29
330
603
100
AcDbEntity
  8
dimensions
 62
     0
370
    -2
100
AcDbLine
 10
8.279854849346724
 20
4.836292370392354
 30
0.0
 11
8.279854849346724
 21
4.963220981742986
 31
0.0
  0
LINE
  5
1A2A
330
603
100
AcDbEntity
  8
dimensions
 62
     0
370
    -2
100
AcDbLine
 10
8.324692017921426
 20
4.80174536500897
 30
0.0
 11
8.324692017921426
 21
4.963220981742986
 31
0.0
  0
LINE
  5
1A2B
330
603
100
AcDbEntity
  8
dimensions
 62
     0
370
    -2
100
AcDbLine
 10
8.259854849346725
 20
4.948220981742986
 30
0.0
 11
8.239854849346725
 21
4.948220981742986
 31
0.0
  0
LINE
  5
1A2C
330
603
100
AcDbEntity
  8
dimensions
 62
     0
370
    -2
100
AcDbLine
 10
8.344692017921426
 20
4.948220981742986
 30
0.0
 11
8.378025351254764
 21
4.948220981742986
 31
0.0
  0
SOLID
  5
1A2D
330
603
100
AcDbEntity
  8
dimensions
 62
     0
100
AcDbTrace
 10
8.259854849346725
 20
4.951554315076319
 30
0.0
 11
8.259854849346725
 21
4.944887648409653
 31
0.0
 12
8.279854849346724
 22
4.948220981742986
 32
0.0
 13
8.279854849346724
 23
4.948220981742986
 33
0.0
  0
SOLID
  5
1A2E
330
603
100
AcDbEntity
  8
dimensions
 62
     0
100
AcDbTrace
 10
8.344692017921426
 20
4.951554315076319
 30
0.0
 11
8.344692017921426
 21
4.944887648409653
 31
0.0
 12
8.324692017921426
 22
4.948220981742986
 32
0.0
 13
8.324692017921426
 23
4.948220981742986
 33
0.0
  0
MTEXT
  5
1A2F
330
603
100
AcDbEntity
  8
dimensions
 62
     0
100
AcDbMText
 10
8.456358684588098
 20
4.948220981742986
 30
0.0
 40
0.02
 41
0.0
 46
0.0
 71
     5
 72
     1
  1
\A1;.045±.005
 73
     1
 44
1.0
  0
POINT
  5
1A30
330
603
100
AcDbEntity
  8
Defpoints
 62
     0
100
AcDbPoint
 10
8.279854849346724
 20
4.821292370392354
 30
0.0
  0
POINT
  5
1A31
330
603
100
AcDbEntity
  8
Defpoints
 62
     0
100
AcDbPoint
 10
8.324692017921426
 20
4.786745365008971
 30
0.0
  0
POINT
  5
1A32
330
603
100
AcDbEntity
  8
Defpoints
 62
     0
100
AcDbPoint
 10
8.324692017921426
 20
4.948220981742986
 30
0.0
  0
ENDBLK
  5
60F
330
603
100
AcDbEntity
  8
0
100
AcDbBlockEnd
  0
BLOCK
  5
6CF
330
6C3
100
AcDbEntity
  8
0
100
AcDbBlockBegin
  2
*D6
 70
     1
 10
0.0
 20
0.0
 30
0.0
  3
*D6
  1

  0
LINE
  5
1B6F
330
6C3
100
AcDbEntity
  8
dimensions
 62
     0
370
    -2
100
AcDbLine
 10
8.279854849346726
 20
4.841292370392353
 30
0.0
 11
8.375157319192675
 21
4.841292370392353
 31
0.0
  0
LINE
  5
1B70
330
6C3
100
AcDbEntity
  8
dimensions
 62
     0
370
    -2
100
AcDbLine
 10
8.294854849346727
 20
4.821292370392354
 30
0.0
 11
8.375157319192675
 21
4.821292370392354
 31
0.0
  0
LINE
  5
1B71
330
6C3
100
AcDbEntity
  8
dimensions
 62
     0
370
    -2
100
AcDbLine
 10
8.360157319192675
 20
4.801292370392355
 30
0.0
 11
8.360157319192675
 21
4.781292370392354
 31
0.0
  0
LINE
  5
1B72
330
6C3
100
AcDbEntity
  8
dimensions
 62
     0
370
    -2
100
AcDbLine
 10
8.360157319192675
 20
4.861292370392352
 30
0.0
 11
8.360157319192675
 21
4.881292370392353
 31
0.0
  0
LINE
  5
1B73
330
6C3
100
AcDbEntity
  8
dimensions
 62
     0
370
    -2
100
AcDbLine
 10
8.360157319192675
 20
4.881292370392353
 30
0.0
 11
8.380157319192674
 21
4.881292370392353
 31
0.0
  0
SOLID
  5
1B74
330
6C3
100
AcDbEntity
  8
dimensions
 62
     0
100
AcDbTrace
 10
8.356823985859341
 20
4.801292370392355
 30
0.0
 11
8.363490652526008
 21
4.801292370392355
 31
0.0
 12
8.360157319192675
 22
4.821292370392354
 32
0.0
 13
8.360157319192675
 23
4.821292370392354
 33
0.0
  0
SOLID
  5
1B75
330
6C3
100
AcDbEntity
  8
dimensions
 62
     0
100
AcDbTrace
 10
8.356823985859341
 20
4.861292370392352
 30
0.0
 11
8.363490652526008
 21
4.861292370392352
 31
0.0
 12
8.360157319192675
 22
4.841292370392353
 32
0.0
 13
8.360157319192675
 23
4.841292370392353
 33
0.0
  0
MTEXT
  5
1B76
330
6C3
100
AcDbEntity
  8
dimensions
 62
     0
100
AcDbMText
 10
8.456823985859339
 20
4.881292370392354
 30
0.0
 40
0.02
 41
0.0
 46
0.0
 71
     5
 72
     1
  1
\A1;.020±.020
 73
     1
 44
1.0
  0
POINT
  5
1B77
330
6C3
100
AcDbEntity
  8
Defpoints
 62
     0
100
AcDbPoint
 10
8.264854849346725
 20
4.841292370392353
 30
0.0
  0
POINT
  5
1B78
330
6C3
100
AcDbEntity
  8
Defpoints
 62
     0
100
AcDbPoint
 10
8.279854849346726
 20
4.821292370392354
 30
0.0
  0
POINT
  5
1B79
330
6C3
100
AcDbEntity
  8
Defpoints
 62
     0
100
AcDbPoint
 10
8.360157319192675
 20
4.821292370392354
 30
0.0
  0
ENDBLK
  5
6D0
330
6C3
100
AcDbEntity
  8
0
100
AcDbBlockEnd
  0
BLOCK
  5
733
330
728
100
AcDbEntity
  8
0
100
AcDbBlockBegin
  2
*D7
 70
     1
 10
0.0
 20
0.0
 30
0.0
  3
*D7
  1

  0
LINE
  5
1B84
330
728
100
AcDbEntity
  8
dimensions
 62
     0
370
    -2
100
AcDbLine
 10
8.279854849346726
 20
4.841292370392353
 30
0.0
 11
8.50052032603239
 21
4.841292370392353
 31
0.0
  0
LINE
  5
1B85
330
728
100
AcDbEntity
  8
dimensions
 62
     0
370
    -2
100
AcDbLine
 10
8.294854849346725
 20
4.741292370392354
 30
0.0
 11
8.50052032603239
 21
4.741292370392354
 31
0.0
  0
LINE
  5
1B86
330
728
100
AcDbEntity
  8
dimensions
 62
     0
370
    -2
100
AcDbLine
 10
8.485520326032389
 20
4.821292370392353
 30
0.0
 11
8.485520326032389
 21
4.810134765215097
 31
0.0
  0
LINE
  5
1B87
330
728
100
AcDbEntity
  8
dimensions
 62
     0
370
    -2
100
AcDbLine
 10
8.485520326032389
 20
4.761292370392354
 30
0.0
 11
8.485520326032389
 21
4.770134765215098
 31
0.0
  0
SOLID
  5
1B88
330
728
100
AcDbEntity
  8
dimensions
 62
     0
100
AcDbTrace
 10
8.482186992699055
 20
4.821292370392353
 30
0.0
 11
8.488853659365723
 21
4.821292370392353
 31
0.0
 12
8.485520326032389
 22
4.841292370392353
 32
0.0
 13
8.485520326032389
 23
4.841292370392353
 33
0.0
  0
SOLID
  5
1B89
330
728
100
AcDbEntity
  8
dimensions
 62
     0
100
AcDbTrace
 10
8.482186992699055
 20
4.761292370392354
 30
0.0
 11
8.488853659365723
 21
4.761292370392354
 31
0.0
 12
8.485520326032389
 22
4.741292370392354
 32
0.0
 13
8.485520326032389
 23
4.741292370392354
 33
0.0
  0
MTEXT
  5
1B8A
330
728
100
AcDbEntity
  8
dimensions
 62
     0
100
AcDbMText
 10
8.485520326032387
 20
4.790134765215098
 30
0.0
 40
0.02
 41
0.0
 46
0.0
 71
     5
 72
     1
  1
\A1;.100±.020
 73
     1
 44
1.0
  0
POINT
  5
1B8B
330
728
100
AcDbEntity
  8
Defpoints
 62
     0
100
AcDbPoint
 10
8.264854849346725
 20
4.841292370392353
 30
0.0
  0
POINT
  5
1B8C
330
728
100
AcDbEntity
  8
Defpoints
 62
     0
100
AcDbPoint
 10
8.279854849346724
 20
4.741292370392354
 30
0.0
  0
POINT
  5
1B8D
330
728
100
AcDbEntity
  8
Defpoints
 62
     0
100
AcDbPoint
 10
8.485520326032389
 20
4.741292370392354
 30
0.0
  0
ENDBLK
  5
734
330
728
100
AcDbEntity
  8
0
100
AcDbBlockEnd
  0
BLOCK
  5
761
330
756
100
AcDbEntity
  8
0
100
AcDbBlockBegin
  2
*D8
 70
     1
 10
0.0
 20
0.0
 30
0.0
  3
*D8
  1

  0
LINE
  5
1B65
330
756
100
AcDbEntity
  8
dimensions
 62
     0
370
    -2
100
AcDbLine
 10
8.279854849346726
 20
4.841292370392353
 30
0.0
 11
8.690191671238853
 21
4.841292370392353
 31
0.0
  0
LINE
  5
1B66
330
756
100
AcDbEntity
  8
dimensions
 62
     0
370
    -2
100
AcDbLine
 10
8.244854849346731
 20
4.651292370392352
 30
0.0
 11
8.690191671238853
 21
4.651292370392352
 31
0.0
  0
LINE
  5
1B67
330
756
100
AcDbEntity
  8
dimensions
 62
     0
370
    -2
100
AcDbLine
 10
8.675191671238852
 20
4.821292370392353
 30
0.0
 11
8.675191671238852
 21
4.780594331408625
 31
0.0
  0
LINE
  5
1B68
330
756
100
AcDbEntity
  8
dimensions
 62
     0
370
    -2
100
AcDbLine
 10
8.675191671238852
 20
4.671292370392351
 30
0.0
 11
8.675191671238852
 21
4.740594331408626
 31
0.0
  0
SOLID
  5
1B69
330
756
100
AcDbEntity
  8
dimensions
 62
     0
100
AcDbTrace
 10
8.671858337905518
 20
4.821292370392353
 30
0.0
 11
8.678525004572186
 21
4.821292370392353
 31
0.0
 12
8.675191671238852
 22
4.841292370392353
 32
0.0
 13
8.675191671238852
 23
4.841292370392353
 33
0.0
  0
SOLID
  5
1B6A
330
756
100
AcDbEntity
  8
dimensions
 62
     0
100
AcDbTrace
 10
8.671858337905518
 20
4.671292370392351
 30
0.0
 11
8.678525004572186
 21
4.671292370392351
 31
0.0
 12
8.675191671238852
 22
4.651292370392352
 32
0.0
 13
8.675191671238852
 23
4.651292370392352
 33
0.0
  0
MTEXT
  5
1B6B
330
756
100
AcDbEntity
  8
dimensions
 62
     0
100
AcDbMText
 10
8.675191671238851
 20
4.760594331408626
 30
0.0
 40
0.02
 41
0.0
 46
0.0
 71
     5
 72
     1
  1
\A1;.190±.020
 73
     1
 44
1.0
  0
POINT
  5
1B6C
330
756
100
AcDbEntity
  8
Defpoints
 62
     0
100
AcDbPoint
 10
8.264854849346725
 20
4.841292370392353
 30
0.0
  0
POINT
  5
1B6D
330
756
100
AcDbEntity
  8
Defpoints
 62
     0
100
AcDbPoint
 10
8.229854849346731
 20
4.651292370392352
 30
0.0
  0
POINT
  5
1B6E
330
756
100
AcDbEntity
  8
Defpoints
 62
     0
100
AcDbPoint
 10
8.675191671238852
 20
4.651292370392352
 30
0.0
  0
ENDBLK
  5
762
330
756
100
AcDbEntity
  8
0
100
AcDbBlockEnd
  0
BLOCK
  5
883
330
878
100
AcDbEntity
  8
0
100
AcDbBlockBegin
  2
*D9
 70
     1
 10
0.0
 20
0.0
 30
0.0
  3
*D9
  1

  0
LINE
  5
1C10
330
878
100
AcDbEntity
  8
dimensions
 62
     0
370
    -2
100
AcDbLine
 10
7.959854849346726
 20
4.60629237039235
 30
0.0
 11
7.959854849346726
 21
4.485360796839789
 31
0.0
  0
LINE
  5
1C11
330
878
100
AcDbEntity
  8
dimensions
 62
     0
370
    -2
100
AcDbLine
 10
7.989854849346722
 20
4.596292370392351
 30
0.0
 11
7.989854849346722
 21
4.485360796839789
 31
0.0
  0
LINE
  5
1C12
330
878
100
AcDbEntity
  8
dimensions
 62
     0
370
    -2
100
AcDbLine
 10
8.009854849346723
 20
4.500360796839789
 30
0.0
 11
8.029854849346723
 21
4.500360796839789
 31
0.0
  0
LINE
  5
1C13
330
878
100
AcDbEntity
  8
dimensions
 62
     0
370
    -2
100
AcDbLine
 10
7.939854849346726
 20
4.500360796839789
 30
0.0
 11
7.91818818268006
 21
4.500360796839789
 31
0.0
  0
SOLID
  5
1C14
330
878
100
AcDbEntity
  8
dimensions
 62
     0
100
AcDbTrace
 10
8.009854849346723
 20
4.503694130173122
 30
0.0
 11
8.009854849346723
 21
4.497027463506456
 31
0.0
 12
7.989854849346722
 22
4.500360796839789
 32
0.0
 13
7.989854849346722
 23
4.500360796839789
 33
0.0
  0
SOLID
  5
1C15
330
878
100
AcDbEntity
  8
dimensions
 62
     0
100
AcDbTrace
 10
7.939854849346726
 20
4.503694130173122
 30
0.0
 11
7.939854849346726
 21
4.497027463506456
 31
0.0
 12
7.959854849346726
 22
4.500360796839789
 32
0.0
 13
7.959854849346726
 23
4.500360796839789
 33
0.0
  0
MTEXT
  5
1C16
330
878
100
AcDbEntity
  8
dimensions
 62
     0
100
AcDbMText
 10
7.841521516013393
 20
4.500360796839789
 30
0.0
 40
0.02
 41
0.0
 46
0.0
 71
     5
 72
     1
  1
\A1;.030±.005
 73
     1
 44
1.0
  0
POINT
  5
1C17
330
878
100
AcDbEntity
  8
Defpoints
 62
     0
100
AcDbPoint
 10
7.959854849346726
 20
4.62129237039235
 30
0.0
  0
POINT
  5
1C18
330
878
100
AcDbEntity
  8
Defpoints
 62
     0
100
AcDbPoint
 10
7.989854849346722
 20
4.611292370392351
 30
0.0
  0
POINT
  5
1C19
330
878
100
AcDbEntity
  8
Defpoints
 62
     0
100
AcDbPoint
 10
7.989854849346722
 20
4.500360796839789
 30
0.0
  0
ENDBLK
  5
884
330
878
100
AcDbEntity
  8
0
100
AcDbBlockEnd
  0
BLOCK
  5
8B1
330
8A6
100
AcDbEntity
  8
0
100
AcDbBlockBegin
  2
*D10
 70
     1
 10
0.0
 20
0.0
 30
0.0
  3
*D10
  1

  0
LINE
  5
1BFC
330
8A6
100
AcDbEntity
  8
dimensions
 62
     0
370
    -2
100
AcDbLine
 10
8.009854849346721
 20
4.59629237039235
 30
0.0
 11
8.009854849346721
 21
4.427601435309763
 31
0.0
  0
LINE
  5
1BFD
330
8A6
100
AcDbEntity
  8
dimensions
 62
     0
370
    -2
100
AcDbLine
 10
8.109854849346724
 20
4.596292370392351
 30
0.0
 11
8.109854849346724
 21
4.427601435309763
 31
0.0
  0
LINE
  5
1BFE
330
8A6
100
AcDbEntity
  8
dimensions
 62
     0
370
    -2
100
AcDbLine
 10
8.129854849346724
 20
4.442601435309763
 30
0.0
 11
8.149854849346723
 21
4.442601435309763
 31
0.0
  0
LINE
  5
1BFF
330
8A6
100
AcDbEntity
  8
dimensions
 62
     0
370
    -2
100
AcDbLine
 10
7.989854849346722
 20
4.442601435309763
 30
0.0
 11
7.910721207197448
 21
4.442601435309763
 31
0.0
  0
SOLID
  5
1C00
330
8A6
100
AcDbEntity
  8
dimensions
 62
     0
100
AcDbTrace
 10
8.129854849346724
 20
4.445934768643096
 30
0.0
 11
8.129854849346724
 21
4.43926810197643
 31
0.0
 12
8.109854849346724
 22
4.442601435309763
 32
0.0
 13
8.109854849346724
 23
4.442601435309763
 33
0.0
  0
SOLID
  5
1C01
330
8A6
100
AcDbEntity
  8
dimensions
 62
     0
100
AcDbTrace
 10
7.989854849346722
 20
4.445934768643096
 30
0.0
 11
7.989854849346722
 21
4.43926810197643
 31
0.0
 12
8.009854849346721
 22
4.442601435309763
 32
0.0
 13
8.009854849346721
 23
4.442601435309763
 33
0.0
  0
MTEXT
  5
1C02
330
8A6
100
AcDbEntity
  8
dimensions
 62
     0
100
AcDbMText
 10
7.837387873864114
 20
4.442601435309763
 30
0.0
 40
0.02
 41
0.0
 46
0.0
 71
     5
 72
     1
  1
\A1;.100±.005
 73
     1
 44
1.0
  0
POINT
  5
1C03
330
8A6
100
AcDbEntity
  8
Defpoints
 62
     0
100
AcDbPoint
 10
8.009854849346721
 20
4.61129237039235
 30
0.0
  0
POINT
  5
1C04
330
8A6
100
AcDbEntity
  8
Defpoints
 62
     0
100
AcDbPoint
 10
8.109854849346724
 20
4.611292370392351
 30
0.0
  0
POINT
  5
1C05
330
8A6
100
AcDbEntity
  8
Defpoints
 62
     0
100
AcDbPoint
 10
8.109854849346724
 20
4.442601435309763
 30
0.0
  0
ENDBLK
  5
8B2
330
8A6
100
AcDbEntity
  8
0
100
AcDbBlockEnd
  0
BLOCK
  5
8F4
330
8E8
100
AcDbEntity
  8
0
100
AcDbBlockBegin
  2
*D11
 70
     1
 10
0.0
 20
0.0
 30
0.0
  3
*D11
  1

  0
LINE
  5
1AF7
330
8E8
100
AcDbEntity
  8
dimensions
 62
     0
370
    -2
100
AcDbLine
 10
7.954854849346725
 20
4.61129237039235
 30
0.0
 11
7.873861516058429
 21
4.61129237039235
 31
0.0
  0
LINE
  5
1AF8
330
8E8
100
AcDbEntity
  8
dimensions
 62
     0
370
    -2
100
AcDbLine
 10
7.984854849346723
 20
4.601292370392351
 30
0.0
 11
7.873861516058429
 21
4.601292370392351
 31
0.0
  0
LINE
  5
1AF9
330
8E8
100
AcDbEntity
  8
dimensions
 62
     0
370
    -2
100
AcDbLine
 10
7.888861516058429
 20
4.631292370392349
 30
0.0
 11
7.888861516058429
 21
4.65129237039235
 31
0.0
  0
LINE
  5
1AFA
330
8E8
100
AcDbEntity
  8
dimensions
 62
     0
370
    -2
100
AcDbLine
 10
7.888861516058429
 20
4.581292370392351
 30
0.0
 11
7.888861516058429
 21
4.561292370392351
 31
0.0
  0
LINE
  5
1AFB
330
8E8
100
AcDbEntity
  8
dimensions
 62
     0
370
    -2
100
AcDbLine
 10
7.868861516058429
 20
4.554449743489237
 30
0.0
 11
7.888861516058429
 21
4.554449743489237
 31
0.0
  0
LINE
  5
1AFC
330
8E8
100
AcDbEntity
  8
dimensions
 62
     0
370
    -2
100
AcDbLine
 10
7.888861516058429
 20
4.554449743489237
 30
0.0
 11
7.888861516058429
 21
4.561292370392351
 31
0.0
  0
MTEXT
  5
1AFD
330
8E8
100
AcDbEntity
  8
dimensions
 62
     0
100
AcDbMText
 10
7.795528182725094
 20
4.554449743489238
 30
0.0
 40
0.02
 41
0.0
 46
0.0
 71
     5
 72
     1
  1
\A1;.010±.003
 73
     1
 44
1.0
  0
SOLID
  5
1AFE
330
8E8
100
AcDbEntity
  8
dimensions
 62
     0
100
AcDbTrace
 10
7.885528182725096
 20
4.631292370392349
 30
0.0
 11
7.892194849391762
 21
4.631292370392349
 31
0.0
 12
7.888861516058429
 22
4.61129237039235
 32
0.0
 13
7.888861516058429
 23
4.61129237039235
 33
0.0
  0
SOLID
  5
1AFF
330
8E8
100
AcDbEntity
  8
dimensions
 62
     0
100
AcDbTrace
 10
7.885528182725096
 20
4.581292370392351
 30
0.0
 11
7.892194849391762
 21
4.581292370392351
 31
0.0
 12
7.888861516058429
 22
4.601292370392351
 32
0.0
 13
7.888861516058429
 23
4.601292370392351
 33
0.0
  0
POINT
  5
1B00
330
8E8
100
AcDbEntity
  8
Defpoints
 62
     0
100
AcDbPoint
 10
7.969854849346725
 20
4.61129237039235
 30
0.0
  0
POINT
  5
1B01
330
8E8
100
AcDbEntity
  8
Defpoints
 62
     0
100
AcDbPoint
 10
7.999854849346722
 20
4.601292370392351
 30
0.0
  0
POINT
  5
1B02
330
8E8
100
AcDbEntity
  8
Defpoints
 62
     0
100
AcDbPoint
 10
7.888861516058429
 20
4.601292370392351
 30
0.0
  0
ENDBLK
  5
8F5
330
8E8
100
AcDbEntity
  8
0
100
AcDbBlockEnd
  0
BLOCK
  5
AE4
330
AD9
100
AcDbEntity
  8
0
100
AcDbBlockBegin
  2
*D12
 70
     1
 10
0.0
 20
0.0
 30
0.0
  3
*D12
  1

  0
LINE
  5
EE0
330
AD9
100
AcDbEntity
  8
dimensions
 62
     0
370
    -2
100
AcDbLine
 10
7.964854849346725
 20
4.176741938256799
 30
0.0
 11
7.964854849346725
 21
4.21625275486831
 31
0.0
  0
LINE
  5
EE1
330
AD9
100
AcDbEntity
  8
dimensions
 62
     0
370
    -2
100
AcDbLine
 10
8.164854849346726
 20
4.176741938256799
 30
0.0
 11
8.164854849346726
 21
4.21625275486831
 31
0.0
  0
LINE
  5
EE2
330
AD9
100
AcDbEntity
  8
dimensions
 62
     0
370
    -2
100
AcDbLine
 10
7.944854849346725
 20
4.201252754868311
 30
0.0
 11
7.924854849346725
 21
4.201252754868311
 31
0.0
  0
LINE
  5
EE3
330
AD9
100
AcDbEntity
  8
dimensions
 62
     0
370
    -2
100
AcDbLine
 10
8.184854849346725
 20
4.201252754868311
 30
0.0
 11
8.204854849346725
 21
4.201252754868311
 31
0.0
  0
SOLID
  5
EE4
330
AD9
100
AcDbEntity
  8
dimensions
 62
     0
100
AcDbTrace
 10
7.944854849346725
 20
4.204586088201644
 30
0.0
 11
7.944854849346725
 21
4.197919421534978
 31
0.0
 12
7.964854849346725
 22
4.201252754868311
 32
0.0
 13
7.964854849346725
 23
4.201252754868311
 33
0.0
  0
SOLID
  5
EE5
330
AD9
100
AcDbEntity
  8
dimensions
 62
     0
100
AcDbTrace
 10
8.184854849346725
 20
4.204586088201644
 30
0.0
 11
8.184854849346725
 21
4.197919421534978
 31
0.0
 12
8.164854849346726
 22
4.201252754868311
 32
0.0
 13
8.164854849346726
 23
4.201252754868311
 33
0.0
  0
MTEXT
  5
EE6
330
AD9
100
AcDbEntity
  8
dimensions
 62
     0
100
AcDbMText
 10
8.064854849346726
 20
4.201252754868311
 30
0.0
 40
0.02
 41
0.0
 46
0.0
 71
     5
 72
     1
  1
\A1;.200±.005
 73
     1
 44
1.0
  0
POINT
  5
EE7
330
AD9
100
AcDbEntity
  8
Defpoints
 62
     0
100
AcDbPoint
 10
7.964854849346725
 20
4.161741938256799
 30
0.0
  0
POINT
  5
EE8
330
AD9
100
AcDbEntity
  8
Defpoints
 62
     0
100
AcDbPoint
 10
8.164854849346726
 20
4.161741938256799
 30
0.0
  0
POINT
  5
EE9
330
AD9
100
AcDbEntity
  8
Defpoints
 62
     0
100
AcDbPoint
 10
8.164854849346726
 20
4.201252754868311
 30
0.0
  0
ENDBLK
  5
AE5
330
AD9
100
AcDbEntity
  8
0
100
AcDbBlockEnd
  0
BLOCK
  5
B1D
330
B11
100
AcDbEntity
  8
0
100
AcDbBlockBegin
  2
*D13
 70
     1
 10
0.0
 20
0.0
 30
0.0
  3
*D13
  1

  0
LINE
  5
EEA
330
B11
100
AcDbEntity
  8
dimensions
 62
     0
370
    -2
100
AcDbLine
 10
7.949854849346725
 20
4.161741938256799
 30
0.0
 11
7.87766444211419
 21
4.161741938256799
 31
0.0
  0
LINE
  5
EEB
330
B11
100
AcDbEntity
  8
dimensions
 62
     0
370
    -2
100
AcDbLine
 10
7.949854849346725
 20
4.132241938256799
 30
0.0
 11
7.87766444211419
 21
4.132241938256799
 31
0.0
  0
LINE
  5
EEC
330
B11
100
AcDbEntity
  8
dimensions
 62
     0
370
    -2
100
AcDbLine
 10
7.89266444211419
 20
4.181741938256799
 30
0.0
 11
7.89266444211419
 21
4.201741938256799
 31
0.0
  0
LINE
  5
EED
330
B11
100
AcDbEntity
  8
dimensions
 62
     0
370
    -2
100
AcDbLine
 10
7.89266444211419
 20
4.1122419382568
 30
0.0
 11
7.89266444211419
 21
4.092241938256799
 31
0.0
  0
LINE
  5
EEE
330
B11
100
AcDbEntity
  8
dimensions
 62
     0
370
    -2
100
AcDbLine
 10
7.87266444211419
 20
4.210616989420978
 30
0.0
 11
7.89266444211419
 21
4.210616989420978
 31
0.0
  0
LINE
  5
EEF
330
B11
100
AcDbEntity
  8
dimensions
 62
     0
370
    -2
100
AcDbLine
 10
7.89266444211419
 20
4.210616989420978
 30
0.0
 11
7.89266444211419
 21
4.201741938256799
 31
0.0
  0
MTEXT
  5
EF0
330
B11
100
AcDbEntity
  8
dimensions
 62
     0
100
AcDbMText
 10
7.784331108780856
 20
4.210616989420979
 30
0.0
 40
0.02
 41
0.0
 46
0.0
 71
     5
 72
     1
  1
\A1;.0295±.002
 73
     1
 44
1.0
  0
SOLID
  5
EF1
330
B11
100
AcDbEntity
  8
dimensions
 62
     0
100
AcDbTrace
 10
7.889331108780857
 20
4.181741938256799
 30
0.0
 11
7.895997775447523
 21
4.181741938256799
 31
0.0
 12
7.89266444211419
 22
4.161741938256799
 32
0.0
 13
7.89266444211419
 23
4.161741938256799
 33
0.0
  0
SOLID
  5
EF2
330
B11
100
AcDbEntity
  8
dimensions
 62
     0
100
AcDbTrace
 10
7.889331108780857
 20
4.1122419382568
 30
0.0
 11
7.895997775447523
 21
4.1122419382568
 31
0.0
 12
7.89266444211419
 22
4.132241938256799
 32
0.0
 13
7.89266444211419
 23
4.132241938256799
 33
0.0
  0
POINT
  5
EF3
330
B11
100
AcDbEntity
  8
Defpoints
 62
     0
100
AcDbPoint
 10
7.964854849346725
 20
4.161741938256799
 30
0.0
  0
POINT
  5
EF4
330
B11
100
AcDbEntity
  8
Defpoints
 62
     0
100
AcDbPoint
 10
7.964854849346725
 20
4.132241938256799
 30
0.0
  0
POINT
  5
EF5
330
B11
100
AcDbEntity
  8
Defpoints
 62
     0
100
AcDbPoint
 10
7.89266444211419
 20
4.132241938256799
 30
0.0
  0
ENDBLK
  5
B1E
330
B11
100
AcDbEntity
  8
0
100
AcDbBlockEnd
  0
BLOCK
  5
CBA
330
CAE
100
AcDbEntity
  8
0
100
AcDbBlockBegin
  2
*D14
 70
     1
 10
0.0
 20
0.0
 30
0.0
  3
*D14
  1

  0
LINE
  5
12B2
330
CAE
100
AcDbEntity
  8
dimensions
 62
     0
370
    -2
100
AcDbLine
 10
8.049854849346726
 20
3.8612419382568
 30
0.0
 11
7.920465899036592
 21
3.8612419382568
 31
0.0
  0
LINE
  5
12B3
330
CAE
100
AcDbEntity
  8
dimensions
 62
     0
370
    -2
100
AcDbLine
 10
7.955465899036594
 20
3.8912419382568
 30
0.0
 11
7.920465899036592
 21
3.8912419382568
 31
0.0
  0
LINE
  5
12B4
330
CAE
100
AcDbEntity
  8
dimensions
 62
     0
370
    -2
100
AcDbLine
 10
7.935465899036592
 20
3.8412419382568
 30
0.0
 11
7.935465899036592
 21
3.8212419382568
 31
0.0
  0
LINE
  5
12B5
330
CAE
100
AcDbEntity
  8
dimensions
 62
     0
370
    -2
100
AcDbLine
 10
7.935465899036592
 20
3.9112419382568
 30
0.0
 11
7.935465899036592
 21
3.9312419382568
 31
0.0
  0
LINE
  5
12B6
330
CAE
100
AcDbEntity
  8
dimensions
 62
     0
370
    -2
100
AcDbLine
 10
7.915465899036592
 20
3.941658789334357
 30
0.0
 11
7.935465899036592
 21
3.941658789334357
 31
0.0
  0
LINE
  5
12B7
330
CAE
100
AcDbEntity
  8
dimensions
 62
     0
370
    -2
100
AcDbLine
 10
7.935465899036592
 20
3.941658789334357
 30
0.0
 11
7.935465899036592
 21
3.9312419382568
 31
0.0
  0
MTEXT
  5
12B8
330
CAE
100
AcDbEntity
  8
dimensions
 62
     0
100
AcDbMText
 10
7.842132565703257
 20
3.941658789334359
 30
0.0
 40
0.02
 41
0.0
 46
0.0
 71
     5
 72
     1
  1
\A1;.030±.010
 73
     1
 44
1.0
  0
SOLID
  5
12B9
330
CAE
100
AcDbEntity
  8
dimensions
 62
     0
100
AcDbTrace
 10
7.932132565703259
 20
3.8412419382568
 30
0.0
 11
7.938799232369925
 21
3.8412419382568
 31
0.0
 12
7.935465899036592
 22
3.8612419382568
 32
0.0
 13
7.935465899036592
 23
3.8612419382568
 33
0.0
  0
SOLID
  5
12BA
330
CAE
100
AcDbEntity
  8
dimensions
 62
     0
100
AcDbTrace
 10
7.932132565703259
 20
3.9112419382568
 30
0.0
 11
7.938799232369925
 21
3.9112419382568
 31
0.0
 12
7.935465899036592
 22
3.8912419382568
 32
0.0
 13
7.935465899036592
 23
3.8912419382568
 33
0.0
  0
POINT
  5
12BB
330
CAE
100
AcDbEntity
  8
Defpoints
 62
     0
100
AcDbPoint
 10
8.064854849346726
 20
3.8612419382568
 30
0.0
  0
POINT
  5
12BC
330
CAE
100
AcDbEntity
  8
Defpoints
 62
     0
100
AcDbPoint
 10
7.970465899036594
 20
3.8912419382568
 30
0.0
  0
POINT
  5
12BD
330
CAE
100
AcDbEntity
  8
Defpoints
 62
     0
100
AcDbPoint
 10
7.935465899036592
 20
3.8912419382568
 30
0.0
  0
ENDBLK
  5
CBB
330
CAE
100
AcDbEntity
  8
0
100
AcDbBlockEnd
  0
BLOCK
  5
DA9
330
D9E
100
AcDbEntity
  8
0
100
AcDbBlockBegin
  2
*D15
 70
     1
 10
0.0
 20
0.0
 30
0.0
  3
*D15
  1

  0
LINE
  5
13DD
330
D9E
100
AcDbEntity
  8
dimensions
 62
     0
370
    -2
100
AcDbLine
 10
8.179854849346726
 20
4.161741938256799
 30
0.0
 11
8.263205445837026
 21
4.161741938256799
 31
0.0
  0
LINE
  5
13DE
330
D9E
100
AcDbEntity
  8
dimensions
 62
     0
370
    -2
100
AcDbLine
 10
8.174243799656858
 20
3.8912419382568
 30
0.0
 11
8.263205445837025
 21
3.8912419382568
 31
0.0
  0
LINE
  5
13DF
330
D9E
100
AcDbEntity
  8
dimensions
 62
     0
370
    -2
100
AcDbLine
 10
8.248205445837026
 20
4.141741938256799
 30
0.0
 11
8.248205445837026
 21
4.046491938256799
 31
0.0
  0
LINE
  5
13E0
330
D9E
100
AcDbEntity
  8
dimensions
 62
     0
370
    -2
100
AcDbLine
 10
8.248205445837024
 20
3.9112419382568
 30
0.0
 11
8.248205445837026
 21
4.0064919382568
 31
0.0
  0
SOLID
  5
13E1
330
D9E
100
AcDbEntity
  8
dimensions
 62
     0
100
AcDbTrace
 10
8.244872112503692
 20
4.141741938256799
 30
0.0
 11
8.25153877917036
 21
4.141741938256799
 31
0.0
 12
8.248205445837026
 22
4.161741938256799
 32
0.0
 13
8.248205445837026
 23
4.161741938256799
 33
0.0
  0
SOLID
  5
13E2
330
D9E
100
AcDbEntity
  8
dimensions
 62
     0
100
AcDbTrace
 10
8.24487211250369
 20
3.9112419382568
 30
0.0
 11
8.251538779170358
 21
3.9112419382568
 31
0.0
 12
8.248205445837024
 22
3.8912419382568
 32
0.0
 13
8.248205445837024
 23
3.8912419382568
 33
0.0
  0
MTEXT
  5
13E3
330
D9E
100
AcDbEntity
  8
dimensions
 62
     0
100
AcDbMText
 10
8.248205445837024
 20
4.026491938256801
 30
0.0
 40
0.02
 41
0.0
 46
0.0
 71
     5
 72
     1
  1
\A1;.270±.020
 73
     1
 44
1.0
  0
POINT
  5
13E4
330
D9E
100
AcDbEntity
  8
Defpoints
 62
     0
100
AcDbPoint
 10
8.164854849346726
 20
4.161741938256799
 30
0.0
  0
POINT
  5
13E5
330
D9E
100
AcDbEntity
  8
Defpoints
 62
     0
100
AcDbPoint
 10
8.159243799656858
 20
3.8912419382568
 30
0.0
  0
POINT
  5
13E6
330
D9E
100
AcDbEntity
  8
Defpoints
 62
     0
100
AcDbPoint
 10
8.248205445837024
 20
3.8912419382568
 30
0.0
  0
ENDBLK
  5
DAA
330
D9E
100
AcDbEntity
  8
0
100
AcDbBlockEnd
  0
BLOCK
  5
1202
330
11F5
100
AcDbEntity
  8
0
100
AcDbBlockBegin
  2
*D16
 70
     1
 10
0.0
 20
0.0
 30
0.0
  3
*D16
  1

  0
LINE
  5
1B19
330
11F5
100
AcDbEntity
  8
dimensions
 62
     0
370
    -2
100
AcDbLine
 10
8.23985484934673
 20
4.833405619046471
 30
0.0
 11
8.23985484934673
 21
5.10556945551868
 31
0.0
  0
LINE
  5
1B1A
330
11F5
100
AcDbEntity
  8
dimensions
 62
     0
370
    -2
100
AcDbLine
 10
7.954854849346725
 20
4.651292370392351
 30
0.0
 11
7.785577764220405
 21
4.651292370392349
 31
0.0
  0
ARC
  5
1B1B
330
11F5
100
AcDbEntity
  8
dimensions
 62
     0
370
    -2
100
AcDbCircle
 10
8.239854849346732
 20
4.651292370392353
 30
0.0
 40
0.4392770851263264
100
AcDbArc
 50
92.60886494395696
 51
128.4649311723276
  0
ARC
  5
1B1C
330
11F5
100
AcDbEntity
  8
dimensions
 62
     0
370
    -2
100
AcDbCircle
 10
8.239854849346732
 20
4.651292370392353
 30
0.0
 40
0.4392770851263264
100
AcDbArc
 50
140.8594758384684
 51
177.3911350560437
  0
SOLID
  5
1B1D
330
11F5
100
AcDbEntity
  8
dimensions
 62
     0
100
AcDbTrace
 10
8.219784150073101
 20
5.093446631526261
 30
0.0
 11
8.219935914571919
 21
5.086781692518187
 31
0.0
 12
8.23985484934673
 22
5.09056945551868
 32
0.0
 13
8.23985484934673
 23
5.09056945551868
 33
0.0
  0
SOLID
  5
1B1E
330
11F5
100
AcDbEntity
  8
dimensions
 62
     0
100
AcDbTrace
 10
7.804365527220898
 20
4.671211305167161
 30
0.0
 11
7.797700588212824
 21
4.671363069665979
 31
0.0
 12
7.800577764220406
 22
4.651292370392347
 32
0.0
 13
7.800577764220406
 23
4.651292370392347
 33
0.0
  0
MTEXT
  5
1B1F
330
11F5
100
AcDbEntity
  8
dimensions
 62
     0
100
AcDbMText
 10
7.929239043634046
 20
4.961908176105035
 30
0.0
 40
0.02
 41
0.0
 46
0.0
 71
     5
 72
     1
  1
\A1;90°\S+0°^ -5°;
 73
     1
 44
1.0
  0
POINT
  5
1B20
330
11F5
100
AcDbEntity
  8
Defpoints
 62
     0
100
AcDbPoint
 10
8.020216306783567
 20
5.031717485412129
 30
0.0
  0
POINT
  5
1B21
330
11F5
100
AcDbEntity
  8
Defpoints
 62
     0
100
AcDbPoint
 10
8.229854849346731
 20
4.651292370392352
 30
0.0
  0
POINT
  5
1B22
330
11F5
100
AcDbEntity
  8
Defpoints
 62
     0
100
AcDbPoint
 10
8.239854849346732
 20
4.818405619046471
 30
0.0
  0
POINT
  5
1B23
330
11F5
100
AcDbEntity
  8
Defpoints
 62
     0
100
AcDbPoint
 10
8.239854849346732
 20
4.671292370392353
 30
0.0
  0
POINT
  5
1B24
330
11F5
100
AcDbEntity
  8
Defpoints
 62
     0
100
AcDbPoint
 10
7.969854849346725
 20
4.651292370392351
 30
0.0
  0
ENDBLK
  5
1203
330
11F5
100
AcDbEntity
  8
0
100
AcDbBlockEnd
  0
BLOCK
  5
1913
330
1908
100
AcDbEntity
  8
0
100
AcDbBlockBegin
  2
*D17
 70
     1
 10
0.0
 20
0.0
 30
0.0
  3
*D17
  1

  0
LINE
  5
24AF
330
1908
100
AcDbEntity
  8
dimensions
 62
     0
370
    -2
100
AcDbLine
 10
7.65930962276567
 20
5.068264436280084
 30
0.0
 11
7.65930962276567
 21
4.962736864921608
 31
0.0
  0
LINE
  5
24B0
330
1908
100
AcDbEntity
  8
dimensions
 62
     0
370
    -2
100
AcDbLine
 10
7.739309622765668
 20
5.077014436280083
 30
0.0
 11
7.739309622765668
 21
4.962736864921608
 31
0.0
  0
LINE
  5
24B1
330
1908
100
AcDbEntity
  8
dimensions
 62
     0
370
    -2
100
AcDbLine
 10
7.63930962276567
 20
4.977736864921608
 30
0.0
 11
7.61930962276567
 21
4.977736864921608
 31
0.0
  0
LINE
  5
24B2
330
1908
100
AcDbEntity
  8
dimensions
 62
     0
370
    -2
100
AcDbLine
 10
7.759309622765668
 20
4.977736864921608
 30
0.0
 11
7.779309622765668
 21
4.977736864921608
 31
0.0
  0
SOLID
  5
24B3
330
1908
100
AcDbEntity
  8
dimensions
 62
     0
100
AcDbTrace
 10
7.63930962276567
 20
4.981070198254941
 30
0.0
 11
7.63930962276567
 21
4.974403531588275
 31
0.0
 12
7.65930962276567
 22
4.977736864921608
 32
0.0
 13
7.65930962276567
 23
4.977736864921608
 33
0.0
  0
SOLID
  5
24B4
330
1908
100
AcDbEntity
  8
dimensions
 62
     0
100
AcDbTrace
 10
7.759309622765668
 20
4.981070198254941
 30
0.0
 11
7.759309622765668
 21
4.974403531588275
 31
0.0
 12
7.739309622765668
 22
4.977736864921608
 32
0.0
 13
7.739309622765668
 23
4.977736864921608
 33
0.0
  0
MTEXT
  5
24B5
330
1908
100
AcDbEntity
  8
dimensions
 62
     0
100
AcDbMText
 10
7.699309622765669
 20
4.977736864921608
 30
0.0
 40
0.02
 41
0.0
 46
0.0
 71
     5
 72
     1
  1
\A1;.320
 73
     1
 44
1.0
  0
POINT
  5
24B6
330
1908
100
AcDbEntity
  8
Defpoints
 62
     0
100
AcDbPoint
 10
7.65930962276567
 20
5.083264436280083
 30
0.0
  0
POINT
  5
24B7
330
1908
100
AcDbEntity
  8
Defpoints
 62
     0
100
AcDbPoint
 10
7.739309622765668
 20
5.092014436280082
 30
0.0
  0
POINT
  5
24B8
330
1908
100
AcDbEntity
  8
Defpoints
 62
     0
100
AcDbPoint
 10
7.739309622765668
 20
4.977736864921608
 30
0.0
  0
ENDBLK
  5
1914
330
1908
100
AcDbEntity
  8
0
100
AcDbBlockEnd
  0
BLOCK
  5
1937
330
192C
100
AcDbEntity
  8
0
100
AcDbBlockBegin
  2
*D18
 70
     1
 10
0.0
 20
0.0
 30
0.0
  3
*D18
  1

  0
LINE
  5
24B9
330
192C
100
AcDbEntity
  8
dimensions
 62
     0
370
    -2
100
AcDbLine
 10
7.645712385188137
 20
5.011889436280084
 30
0.0
 11
7.572962461619843
 21
5.011889436280084
 31
0.0
  0
LINE
  5
24BA
330
192C
100
AcDbEntity
  8
dimensions
 62
     0
370
    -2
100
AcDbLine
 10
7.72055962276567
 20
5.134389436280084
 30
0.0
 11
7.572962461619843
 21
5.134389436280084
 31
0.0
  0
LINE
  5
24BB
330
192C
100
AcDbEntity
  8
dimensions
 62
     0
370
    -2
100
AcDbLine
 10
7.587962461619842
 20
5.031889436280083
 30
0.0
 11
7.587962461619842
 21
5.053139436280084
 31
0.0
  0
LINE
  5
24BC
330
192C
100
AcDbEntity
  8
dimensions
 62
     0
370
    -2
100
AcDbLine
 10
7.587962461619842
 20
5.114389436280085
 30
0.0
 11
7.587962461619842
 21
5.093139436280083
 31
0.0
  0
SOLID
  5
24BD
330
192C
100
AcDbEntity
  8
dimensions
 62
     0
100
AcDbTrace
 10
7.584629128286509
 20
5.031889436280083
 30
0.0
 11
7.591295794953175
 21
5.031889436280083
 31
0.0
 12
7.587962461619842
 22
5.011889436280084
 32
0.0
 13
7.587962461619842
 23
5.011889436280084
 33
0.0
  0
SOLID
  5
24BE
330
192C
100
AcDbEntity
  8
dimensions
 62
     0
100
AcDbTrace
 10
7.584629128286509
 20
5.114389436280085
 30
0.0
 11
7.591295794953175
 21
5.114389436280085
 31
0.0
 12
7.587962461619842
 22
5.134389436280084
 32
0.0
 13
7.587962461619842
 23
5.134389436280084
 33
0.0
  0
MTEXT
  5
24BF
330
192C
100
AcDbEntity
  8
dimensions
 62
     0
100
AcDbMText
 10
7.587962461619842
 20
5.073139436280085
 30
0.0
 40
0.02
 41
0.0
 46
0.0
 71
     5
 72
     1
  1
\A1;.490
 73
     1
 44
1.0
  0
POINT
  5
24C0
330
192C
100
AcDbEntity
  8
Defpoints
 62
     0
100
AcDbPoint
 10
7.660712385188137
 20
5.011889436280084
 30
0.0
  0
POINT
  5
24C1
330
192C
100
AcDbEntity
  8
Defpoints
 62
     0
100
AcDbPoint
 10
7.73555962276567
 20
5.134389436280084
 30
0.0
  0
POINT
  5
24C2
330
192C
100
AcDbEntity
  8
Defpoints
 62
     0
100
AcDbPoint
 10
7.587962461619842
 20
5.134389436280084
 30
0.0
  0
ENDBLK
  5
1938
330
192C
100
AcDbEntity
  8
0
100
AcDbBlockEnd
  0
BLOCK
  5
1B2F
330
1B26
100
AcDbEntity
  8
0
100
AcDbBlockBegin
  2
*D19
 70
     1
 10
0.0
 20
0.0
 30
0.0
  3
*D19
  1

  0
LINE
  5
1B55
330
1B26
100
AcDbEntity
  8
dimensions
 62
     0
370
    -2
100
AcDbLine
 10
8.290330293010931
 20
4.618854281871271
 30
0.0
 11
8.328755726012705
 21
4.594160143361773
 31
0.0
  0
LINE
  5
1B56
330
1B26
100
AcDbEntity
  8
dimensions
 62
     0
370
    -2
100
AcDbLine
 10
8.328755726012705
 20
4.594160143361773
 30
0.0
 11
8.348755726012704
 21
4.594160143361774
 31
0.0
  0
SOLID
  5
1B57
330
1B26
100
AcDbEntity
  8
dimensions
 62
     0
100
AcDbTrace
 10
8.292132409039881
 20
4.62165847318595
 30
0.0
 11
8.288528176981982
 21
4.616050090556592
 31
0.0
 12
8.273505145122863
 22
4.629666978044966
 32
0.0
 13
8.273505145122863
 23
4.629666978044966
 33
0.0
  0
MTEXT
  5
1B58
330
1B26
100
AcDbEntity
  8
dimensions
 62
     0
100
AcDbMText
 10
8.395422392679371
 20
4.594160143361773
 30
0.0
 40
0.02
 41
0.0
 46
0.0
 71
     5
 72
     1
  1
\A1;R.040
 73
     1
 44
1.0
  0
POINT
  5
1B59
330
1B26
100
AcDbEntity
  8
Defpoints
 62
     0
100
AcDbPoint
 10
8.273505145122863
 20
4.629666978044966
 30
0.0
  0
POINT
  5
1B5A
330
1B26
100
AcDbEntity
  8
Defpoints
 62
     0
100
AcDbPoint
 10
8.23985484934673
 20
4.651292370392349
 30
0.0
  0
ENDBLK
  5
1B30
330
1B26
100
AcDbEntity
  8
0
100
AcDbBlockEnd
  0
BLOCK
  5
238D
330
238C
100
AcDbEntity
  8
0
100
AcDbBlockBegin
  2
GENDIM3
 70
     0
 10
0.0
 20
0.0
 30
0.0
  3
GENDIM3
  1

  0
TEXT
  5
238E
330
238C
100
AcDbEntity
  8
dimensions
  6
Continuous
 62
     1
100
AcDbText
 10
3.508309371666038
 20
-0.6244913644099235
 30
0.0
 40
0.02
  1
SEE MATERIAL
 41
0.5
100
AcDbText
  0
TEXT
  5
238F
330
238C
100
AcDbEntity
  8
dimensions
  6
Continuous
 62
     1
100
AcDbText
 10
3.508309371666038
 20
-0.6544913644099236
 30
0.0
 40
0.02
  1
NOTE # 1
 41
0.5
100
AcDbText
  0
ENDBLK
  5
2390
330
238C
100
AcDbEntity
  8
0
100
AcDbBlockEnd
  0
ENDSEC
  0
SECTION
  2
ENTITIES
  0
LINE
  5
3B3
330
1F
100
AcDbEntity
  8
TITLE_BLOCK
  6
Continuous
 62
     7
100
AcDbLine
 10
8.970910707789773
 20
5.22640291889429
 30
0.0
 11
7.454688509582041
 21
5.22640291889429
 31
0.0
  0
LINE
  5
3B4
330
1F
100
AcDbEntity
  8
TITLE_BLOCK
  6
Continuous
 62
     7
100
AcDbLine
 10
7.499283280117563
 20
5.181808148358769
 30
0.0
 11
8.926315937254251
 21
5.181808148358769
 31
0.0
  0
LINE
  5
3B5
330
1F
100
AcDbEntity
  8
TITLE_BLOCK
  6
Continuous
 62
     7
100
AcDbLine
 10
7.454688509582041
 20
3.264233015331338
 30
0.0
 11
7.454688509582041
 21
5.22640291889429
 31
0.0
  0
LINE
  5
3B6
330
1F
100
AcDbEntity
  8
TITLE_BLOCK
  6
Continuous
 62
     7
100
AcDbLine
 10
7.499283280117563
 20
3.308827785866863
 30
0.0
 11
7.499283280117563
 21
5.181808148358769
 31
0.0
  0
LINE
  5
3B7
330
1F
100
AcDbEntity
  8
TITLE_BLOCK
  6
Continuous
 62
     7
100
AcDbLine
 10
8.926315937254251
 20
5.181808148358769
 30
0.0
 11
8.926315937254251
 21
3.308827785866863
 31
0.0
  0
LINE
  5
3B8
330
1F
100
AcDbEntity
  8
TITLE_BLOCK
  6
Continuous
 62
     7
100
AcDbLine
 10
8.970910707789773
 20
3.264233015331338
 30
0.0
 11
8.970910707789773
 21
5.22640291889429
 31
0.0
  0
MTEXT
  5
3B9
330
1F
100
AcDbEntity
  8
0
  6
Continuous
 62
     2
100
AcDbMText
 10
7.859080432529871
 20
3.457392323233758
 30
0.0
 40
0.0111486926338804
 41
0.5279400944473617
 46
0.0
 71
     1
 72
     5
  3
{\Fisocp.shx;\C7;NOTICE OF CONFIDENTIAL INFORMATION:  INFORMATION CONTAINED HEREIN IS CONFIDENTIAL AND PROPRIETARY IN NATURE AND SHALL AT ALL TIMES REMAIN THE PROPERTY OF ULTRAFAB, INC. 1050 HOOK ROAD FARMINGTON NY 14425.  BY REVIEWING THE CONTENTS O
  1
F THIS DOCUMENT, YOU HEREBY AGREE TO ALL THE TERMS AND CONDITIONS SET FORTH ABOVE.}
 73
     1
 44
1.0
  0
LINE
  5
3BA
330
1F
100
AcDbEntity
  8
TITLE_BLOCK
  6
Continuous
 62
     7
100
AcDbLine
 10
8.970910707789773
 20
3.264233015331338
 30
0.0
 11
7.454688509582041
 21
3.264233015331338
 31
0.0
  0
LINE
  5
3BB
330
1F
100
AcDbEntity
  8
TITLE_BLOCK
  6
Continuous
 62
     7
100
AcDbLine
 10
8.926315937254251
 20
3.308827785866863
 30
0.0
 11
7.499283280117563
 21
3.308827785866863
 31
0.0
  0
LINE
  5
3BC
330
1F
100
AcDbEntity
  8
TITLE_BLOCK
  6
Continuous
 62
     7
100
AcDbLine
 10
7.499283280117563
 20
3.598693794347752
 30
0.0
 11
8.926315937254251
 21
3.598693794347752
 31
0.0
  0
LINE
  5
3BD
330
1F
100
AcDbEntity
  8
TITLE_BLOCK
  6
Continuous
 62
     7
100
AcDbLine
 10
7.856041444401732
 20
3.464909482741184
 30
0.0
 11
8.212799608685909
 21
3.464909482741184
 31
0.0
  0
LINE
  5
3BE
330
1F
100
AcDbEntity
  8
TITLE_BLOCK
  6
Continuous
 62
     7
100
AcDbLine
 10
7.856041444401732
 20
3.375719941670144
 30
0.0
 11
7.499283280117563
 21
3.375719941670144
 31
0.0
  0
LINE
  5
3BF
330
1F
100
AcDbEntity
  8
TITLE_BLOCK
  6
Continuous
 62
     7
100
AcDbLine
 10
7.521580665385322
 20
3.498355560642828
 30
0.0
 11
7.833744059133973
 21
3.498355560642828
 31
0.0
  0
LINE
  5
3C0
330
1F
100
AcDbEntity
  8
TITLE_BLOCK
  6
Continuous
 62
     7
100
AcDbLine
 10
7.521580665385322
 20
3.398017326937903
 30
0.0
 11
7.833744059133973
 21
3.398017326937903
 31
0.0
  0
TEXT
  5
3C1
330
1F
100
AcDbEntity
  8
TITLE_BLOCK
  6
Continuous
 62
     7
100
AcDbText
 10
7.51043197275144
 20
3.565247716446108
 30
0.0
 40
0.0178379082142087
  1
CUSTOMER APPROVAL:
 41
0.5
100
AcDbText
  0
TEXT
  5
3C2
330
1F
100
AcDbEntity
  8
TITLE_BLOCK
  6
Continuous
 62
     7
100
AcDbText
 10
7.51043197275144
 20
3.464909482741184
 30
0.0
 40
0.0178379082142087
  1
DATE:
 41
0.5
100
AcDbText
  0
LINE
  5
3C3
330
1F
100
AcDbEntity
  8
TITLE_BLOCK
  6
Continuous
 62
     7
100
AcDbLine
 10
7.856041444401732
 20
3.554099023812231
 30
0.0
 11
8.034420526543819
 21
3.554099023812231
 31
0.0
  0
LINE
  5
3C4
330
1F
100
AcDbEntity
  8
TITLE_BLOCK
  6
Continuous
 62
     7
100
AcDbLine
 10
7.856041444401732
 20
3.509504253276706
 30
0.0
 11
8.034420526543819
 21
3.509504253276706
 31
0.0
  0
LINE
  5
3C5
330
1F
100
AcDbEntity
  8
TITLE_BLOCK
  6
Continuous
 62
     7
100
AcDbLine
 10
7.856041444401732
 20
3.598693794347752
 30
0.0
 11
7.856041444401732
 21
3.308827785866863
 31
0.0
  0
TEXT
  5
3C6
330
1F
100
AcDbEntity
  8
TITLE_BLOCK
  6
Continuous
 62
     7
100
AcDbText
 10
7.867190137035613
 20
3.531801638544472
 30
0.0
 40
0.0111486926338804
  1
SIZE:
 41
0.5
100
AcDbText
  0
TEXT
  5
3C7
330
1F
100
AcDbEntity
  8
TITLE_BLOCK
  6
Continuous
 62
     7
100
AcDbText
 10
7.867190137035613
 20
3.487206868008946
 30
0.0
 40
0.0111486926338804
  1
SHEET:
 41
0.5
100
AcDbText
  0
TEXT
  5
3C8
330
1F
100
AcDbEntity
  8
TITLE_BLOCK
  6
Continuous
 62
     7
100
AcDbText
 10
7.867190137035613
 20
3.57639640907999
 30
0.0
 40
0.0111486926338804
  1
SCALE:
 41
0.5
100
AcDbText
  0
TEXT
  5
3C9
330
1F
100
AcDbEntity
  8
TITLE_BLOCK
  6
Continuous
 62
     7
100
AcDbText
 10
7.922933600205016
 20
3.520652945910587
 30
0.0
 40
0.0222973852677608
  1
A
 41
0.5
100
AcDbText
  0
LINE
  5
3CA
330
1F
100
AcDbEntity
  8
TITLE_BLOCK
  6
Continuous
 62
     7
100
AcDbLine
 10
8.034420526543819
 20
3.598693794347752
 30
0.0
 11
8.034420526543819
 21
3.464909482741184
 31
0.0
  0
TEXT
  5
3CB
330
1F
100
AcDbEntity
  8
TITLE_BLOCK
  6
Continuous
 62
     7
100
AcDbText
 10
8.045569219177703
 20
3.57639640907999
 30
0.0
 40
0.0111486926338804
  1
MATERIAL:
 41
0.5
100
AcDbText
  0
LINE
  5
3CC
330
1F
100
AcDbEntity
  8
TITLE_BLOCK
  6
Continuous
 62
     7
100
AcDbLine
 10
8.391178690827995
 20
3.531801638544472
 30
0.0
 11
8.926315937254251
 21
3.531801638544472
 31
0.0
  0
LINE
  5
3CD
330
1F
100
AcDbEntity
  8
TITLE_BLOCK
  6
Continuous
 62
     7
100
AcDbLine
 10
8.391178690827995
 20
3.375719941670144
 30
0.0
 11
8.926315937254251
 21
3.375719941670144
 31
0.0
  0
TEXT
  5
3CE
330
1F
100
AcDbEntity
  8
TITLE_BLOCK
  6
Continuous
 62
     7
100
AcDbText
 10
8.652233512126585
 20
3.557613988235651
 30
0.0
 40
0.0178379082142087
  1
Extruded Components Division
 41
0.5
100
AcDbText
  0
TEXT
  5
3D2
330
1F
100
AcDbEntity
  8
TITLE_BLOCK
  6
Continuous
 62
     7
100
AcDbText
 10
8.413476076095754
 20
3.542950331178349
 30
0.0
 40
0.0445947705355216
  1
ULTRAFAB
 41
0.5
100
AcDbText
  0
TEXT
  5
3D3
330
1F
100
AcDbEntity
  8
TITLE_BLOCK
  6
Continuous
 62
     7
100
AcDbText
 10
8.402327383461873
 20
3.3422738637685
 30
0.0
 40
0.0178379082142087
  1
PART NO.:
 41
0.5
100
AcDbText
  0
LINE
  5
3D4
330
1F
100
AcDbEntity
  8
TITLE_BLOCK
  6
Continuous
 62
     7
100
AcDbLine
 10
8.391178690827995
 20
3.598693794347752
 30
0.0
 11
8.391178690827995
 21
3.308827785866863
 31
0.0
  0
LINE
  5
3D5
330
1F
100
AcDbEntity
  8
TITLE_BLOCK
  6
Continuous
 62
     7
100
AcDbLine
 10
8.212799608685909
 20
3.464909482741184
 30
0.0
 11
8.391178690827995
 21
3.464909482741184
 31
0.0
  0
LINE
  5
3D6
330
1F
100
AcDbEntity
  8
TITLE_BLOCK
  6
Continuous
 62
     7
100
AcDbLine
 10
8.212799608685905
 20
3.464909482741184
 30
0.0
 11
8.391178690827995
 21
3.464909482741184
 31
0.0
  0
LINE
  5
3D7
330
1F
100
AcDbEntity
  8
TITLE_BLOCK
  6
Continuous
 62
     7
100
AcDbLine
 10
8.212799608685909
 20
3.598693794347752
 30
0.0
 11
8.212799608685909
 21
3.464909482741184
 31
0.0
  0
TEXT
  5
3D8
330
1F
100
AcDbEntity
  8
TITLE_BLOCK
  6
Continuous
 62
     7
100
AcDbText
 10
8.223948301319786
 20
3.57639640907999
 30
0.0
 40
0.0111486926338804
  1
COLOR:
 41
0.5
100
AcDbText
  0
TEXT
  5
3D9
330
1F
100
AcDbEntity
  8
TITLE_BLOCK
  6
Continuous
 62
     7
100
AcDbText
 10
8.402327383461873
 20
3.498355560642828
 30
0.0
 40
0.0178379082142087
  1
TITLE:
 41
0.5
100
AcDbText
  0
TEXT
  5
3DA
330
1F
100
AcDbEntity
  8
TITLE_BLOCK
  6
Continuous
 62
     7
100
AcDbText
 10
8.629675344184878
 20
3.539020223293587
 30
0.0
 40
0.0334460779016412
  1
INC
 50
90.0
 41
0.5
100
AcDbText
  0
LINE
  5
3DB
330
1F
100
AcDbEntity
  8
TITLE_BLOCK
  6
Continuous
 62
     7
100
AcDbLine
 10
8.747936855112165
 20
3.375719941670144
 30
0.0
 11
8.747936855112165
 21
3.308827785866863
 31
0.0
  0
TEXT
  5
3DC
330
1F
100
AcDbEntity
  8
TITLE_BLOCK
  6
Continuous
 62
     7
100
AcDbText
 10
8.759085547746046
 20
3.3422738637685
 30
0.0
 40
0.0178379082142087
  1
REV.:
 41
0.5
100
AcDbText
  0
TEXT
  5
3DD
330
1F
100
AcDbEntity
  8
TITLE_BLOCK
  6
Continuous
 62
     7
100
AcDbText
 10
7.920803705920899
 20
3.563208496994864
 30
0.0
 40
0.0222973852677608
  1
NTS
 41
0.5
100
AcDbText
  0
TEXT
  5
3DE
330
1F
100
AcDbEntity
  8
TITLE_BLOCK
  6
Continuous
 62
     7
100
AcDbText
 10
8.55194283860855
 20
3.469089579471372
 30
0.0
 40
0.0334460779016412
  1
.320 x .230 OFFSET KERF
 41
0.5
100
AcDbText
  0
LINE
  5
4A1
102
{ACAD_REACTORS
330
6DD
330
740
330
76E
102
}
330
1F
100
AcDbEntity
  8
dimensions
  6
Continuous
 62
     6
100
AcDbLine
 10
8.264854849346727
 20
4.841292370392354
 30
0.0
 11
8.264854849346725
 21
4.841292370392353
 31
0.0
  0
ARC
  5
4A4
330
1F
100
AcDbEntity
  8
dimensions
  6
Continuous
 62
     6
100
AcDbCircle
 10
7.969854849346725
 20
4.641292370392349
 30
0.0
 40
0.01
100
AcDbArc
 50
90.00000000000019
 51
180.0000000000025
  0
ARC
  5
4A5
102
{ACAD_REACTORS
330
902
102
}
330
1F
100
AcDbEntity
  8
dimensions
  6
Continuous
 62
     6
100
AcDbCircle
 10
7.969854849346725
 20
4.62129237039235
 30
0.0
 40
0.01
100
AcDbArc
 50
180.0
 51
270.0
  0
LINE
  5
4D6
330
1F
100
AcDbEntity
  8
rigid
100
AcDbLine
 10
8.239854849346729
 20
4.741292370392354
 30
0.0
 11
8.200017680771731
 21
4.718292370392354
 31
0.0
  0
LINE
  5
4DD
330
1F
100
AcDbEntity
  8
rigid
100
AcDbLine
 10
8.239854849346729
 20
4.821292370392354
 30
0.0
 11
8.200017680771731
 21
4.798292370392355
 31
0.0
  0
LINE
  5
4DE
330
1F
100
AcDbEntity
  8
rigid
100
AcDbLine
 10
8.205017680771728
 20
4.798292370392355
 30
0.0
 11
8.205017680771728
 21
4.798292370392355
 31
0.0
  0
ARC
  5
4E9
330
1F
100
AcDbEntity
  8
rigid
100
AcDbCircle
 10
8.211847807790499
 20
4.707801989336097
 30
0.0
 40
0.0158113883003887
100
AcDbArc
 50
138.4349488239353
 51
281.5650511811054
  0
LINE
  5
4ED
330
1F
100
AcDbEntity
  8
rigid
100
AcDbLine
 10
8.205017680771728
 20
4.721179121738237
 30
0.0
 11
8.205017680771728
 21
4.721179121738237
 31
0.0
  0
DIMENSION
  5
4EE
330
1F
100
AcDbEntity
  8
dimensions
100
AcDbDimension
  2
*D1
 10
8.314692017921727
 20
4.778085110971471
 30
0.0
 11
8.465840656150627
 21
4.476061492723354
 31
0.0
 70
    34
 71
     5
 42
1.047197551099395
 73
     0
 74
     0
 75
     0
  3
Standard
100
AcDb2LineAngularDimension
 13
8.279854849346726
 23
4.821292370392353
 33
0.0
 14
8.279854849346724
 24
4.671292370392346
 34
0.0
 15
8.279854849346723
 25
4.798198359630569
 35
0.0
 16
8.407076633945328
 26
4.44865937914793
 36
0.0
1001
ACAD
1000
DSTYLE
1002
{
1070
    41
1040
0.02
1070
    42
1040
0.015
1070
    44
1040
0.015
1070
    78
1070
     4
1070
   140
1040
0.02
1070
   147
1040
0.01
1002
}
  0
DIMENSION
  5
53D
330
1F
100
AcDbEntity
  8
dimensions
100
AcDbDimension
  2
*D2
 10
8.279854849346724
 20
4.342871450385139
 30
0.0
 11
8.132104207043003
 21
4.342871450385139
 31
0.0
 70
   160
 71
     5
 42
0.3199999999999985
 73
     0
 74
     0
 75
     0
  3
Standard
100
AcDbAlignedDimension
 13
7.959854849346726
 23
4.631292370392349
 33
0.0
 14
8.279854849346724
 24
4.671292370392346
 34
0.0
100
AcDbRotatedDimension
1001
ACAD
1000
DSTYLE
1002
{
1070
   284
1070
     4
1070
    47
1040
0.02
1070
    48
1040
0.02
1070
    72
1070
     0
1070
    71
1070
     1
1070
   140
1040
0.02
1070
    41
1040
0.02
1070
    78
1070
     4
1070
    42
1040
0.015
1070
    44
1040
0.015
1070
   147
1040
0.01
1002
}
  0
DIMENSION
  5
561
330
1F
100
AcDbEntity
  8
dimensions
100
AcDbDimension
  2
*D3
 10
8.164608943488858
 20
4.743208110237392
 30
0.0
 11
8.022239276364221
 21
4.822368029082568
 31
0.0
 70
   161
 71
     5
 42
0.0299999999994034
 73
     0
 74
     0
 75
     0
  3
Standard
100
AcDbAlignedDimension
 13
8.200017680771965
 23
4.798292370392491
 33
0.0
 14
8.215017680772573
 24
4.772311608279997
 34
0.0
1001
ACAD
1000
DSTYLE
1002
{
1070
   284
1070
     4
1070
    41
1040
0.02
1070
   140
1040
0.02
1070
    47
1040
0.005
1070
    48
1040
0.005
1070
    72
1070
     0
1070
    71
1070
     1
1070
    42
1040
0.015
1070
    44
1040
0.015
1070
    78
1070
     4
1070
   147
1040
0.01
1002
}
  0
DIMENSION
  5
5D4
330
1F
100
AcDbEntity
  8
dimensions
100
AcDbDimension
  2
*D4
 10
8.324673279203324
 20
5.016492753833821
 30
0.0
 11
8.451358684588097
 21
5.016492753833821
 31
0.0
 70
   160
 71
     5
 42
0.1296605777232713
 73
     0
 74
     0
 75
     0
  3
Standard
100
AcDbAlignedDimension
 13
8.195012701480052
 23
4.786948801981098
 33
0.0
 14
8.324673279203324
 24
4.787801989336016
 34
0.0
100
AcDbRotatedDimension
1001
ACAD
1000
DSTYLE
1002
{
1070
   284
1070
     4
1070
    47
1040
0.01
1070
    48
1040
0.01
1070
    72
1070
     0
1070
    71
1070
     1
1070
    41
1040
0.02
1070
    42
1040
0.015
1070
    44
1040
0.015
1070
    78
1070
     4
1070
   140
1040
0.02
1070
   147
1040
0.01
1002
}
  0
DIMENSION
  5
602
330
1F
100
AcDbEntity
  8
dimensions
100
AcDbDimension
  2
*D5
 10
8.324692017921426
 20
4.948220981742986
 30
0.0
 11
8.456358684588098
 21
4.948220981742986
 31
0.0
 70
   160
 71
     5
 42
0.044837168574702
 73
     0
 74
     0
 75
     0
  3
Standard
100
AcDbAlignedDimension
 13
8.279854849346724
 23
4.821292370392354
 33
0.0
 14
8.324692017921426
 24
4.786745365008971
 34
0.0
100
AcDbRotatedDimension
1001
ACAD
1000
DSTYLE
1002
{
1070
   284
1070
     4
1070
    47
1040
0.005
1070
    48
1040
0.005
1070
    72
1070
     0
1070
    71
1070
     1
1070
    41
1040
0.02
1070
    42
1040
0.015
1070
    44
1040
0.015
1070
    78
1070
     4
1070
   140
1040
0.02
1070
   147
1040
0.01
1002
}
  0
DIMENSION
  5
6C2
102
{ACAD_XDICTIONARY
360
6D1
102
}
102
{ACAD_REACTORS
330
6DD
102
}
330
1F
100
AcDbEntity
  8
dimensions
100
AcDbDimension
  2
*D6
 10
8.360157319192675
 20
4.821292370392354
 30
0.0
 11
8.456823985859339
 21
4.881292370392354
 31
0.0
 70
   160
 71
     5
 42
0.0199999999999987
 73
     0
 74
     0
 75
     0
  3
Standard
100
AcDbAlignedDimension
 13
8.264854849346725
 23
4.841292370392353
 33
0.0
 14
8.279854849346726
 24
4.821292370392354
 34
0.0
 50
90.0
100
AcDbRotatedDimension
1001
ACAD
1000
DSTYLE
1002
{
1070
    41
1040
0.02
1070
    42
1040
0.015
1070
    44
1040
0.015
1070
    47
1040
0.02
1070
    48
1040
0.02
1070
    71
1070
     1
1070
    78
1070
     4
1070
   140
1040
0.02
1070
   147
1040
0.01
1070
   284
1070
     4
1002
}
  0
DIMENSION
  5
727
102
{ACAD_XDICTIONARY
360
735
102
}
102
{ACAD_REACTORS
330
740
102
}
330
1F
100
AcDbEntity
  8
dimensions
100
AcDbDimension
  2
*D7
 10
8.485520326032389
 20
4.741292370392354
 30
0.0
 11
8.485520326032387
 21
4.790134765215098
 31
0.0
 70
   160
 71
     5
 42
0.0999999999999988
 73
     0
 74
     0
 75
     0
  3
Standard
100
AcDbAlignedDimension
 13
8.264854849346725
 23
4.841292370392353
 33
0.0
 14
8.279854849346724
 24
4.741292370392354
 34
0.0
 50
90.0
100
AcDbRotatedDimension
1001
ACAD
1000
DSTYLE
1002
{
1070
    41
1040
0.02
1070
    42
1040
0.015
1070
    44
1040
0.015
1070
    47
1040
0.02
1070
    48
1040
0.02
1070
    71
1070
     1
1070
    78
1070
     4
1070
   140
1040
0.02
1070
   147
1040
0.01
1070
   284
1070
     4
1002
}
  0
DIMENSION
  5
755
102
{ACAD_XDICTIONARY
360
763
102
}
102
{ACAD_REACTORS
330
76E
102
}
330
1F
100
AcDbEntity
  8
dimensions
100
AcDbDimension
  2
*D8
 10
8.675191671238852
 20
4.651292370392352
 30
0.0
 11
8.675191671238851
 21
4.760594331408626
 31
0.0
 70
   160
 71
     5
 42
0.1900000000000013
 73
     0
 74
     0
 75
     0
  3
Standard
100
AcDbAlignedDimension
 13
8.264854849346725
 23
4.841292370392353
 33
0.0
 14
8.229854849346731
 24
4.651292370392352
 34
0.0
 50
90.0
100
AcDbRotatedDimension
1001
ACAD
1000
DSTYLE
1002
{
1070
    41
1040
0.02
1070
    42
1040
0.015
1070
    44
1040
0.015
1070
    47
1040
0.02
1070
    48
1040
0.02
1070
    71
1070
     1
1070
    78
1070
     4
1070
   140
1040
0.02
1070
   147
1040
0.01
1070
   284
1070
     4
1002
}
  0
LINE
  5
869
330
1F
100
AcDbEntity
  8
dimensions
  6
Continuous
 62
     6
100
AcDbLine
 10
8.119854849346722
 20
4.60129237039235
 30
0.0
 11
8.129854849346724
 21
4.611292370392351
 31
0.0
  0
LINE
  5
86A
330
1F
100
AcDbEntity
  8
dimensions
  6
Continuous
 62
     6
100
AcDbLine
 10
8.119854849346722
 20
4.60129237039235
 30
0.0
 11
8.109854849346724
 21
4.611292370392351
 31
0.0
  0
LINE
  5
86B
330
1F
100
AcDbEntity
  8
dimensions
  6
Continuous
 62
     6
100
AcDbLine
 10
7.999854849346722
 20
4.601292370392351
 30
0.0
 11
7.989854849346722
 21
4.611292370392351
 31
0.0
  0
LINE
  5
86C
102
{ACAD_REACTORS
330
902
102
}
330
1F
100
AcDbEntity
  8
dimensions
  6
Continuous
 62
     6
100
AcDbLine
 10
7.999854849346722
 20
4.601292370392351
 30
0.0
 11
8.009854849346723
 21
4.611292370392351
 31
0.0
  0
DIMENSION
  5
877
330
1F
100
AcDbEntity
  8
dimensions
100
AcDbDimension
  2
*D9
 10
7.989854849346722
 20
4.500360796839789
 30
0.0
 11
7.841521516013393
 21
4.500360796839789
 31
0.0
 70
   160
 71
     5
 42
0.0299999999999967
 73
     0
 74
     0
 75
     0
  3
Standard
100
AcDbAlignedDimension
 13
7.959854849346726
 23
4.62129237039235
 33
0.0
 14
7.989854849346722
 24
4.611292370392351
 34
0.0
100
AcDbRotatedDimension
1001
ACAD
1000
DSTYLE
1002
{
1070
    41
1040
0.02
1070
    42
1040
0.015
1070
    44
1040
0.015
1070
    47
1040
0.005
1070
    48
1040
0.005
1070
    71
1070
     1
1070
    78
1070
     4
1070
   140
1040
0.02
1070
   147
1040
0.01
1070
   284
1070
     4
1002
}
  0
DIMENSION
  5
8A5
330
1F
100
AcDbEntity
  8
dimensions
100
AcDbDimension
  2
*D10
 10
8.109854849346724
 20
4.442601435309763
 30
0.0
 11
7.837387873864114
 21
4.442601435309763
 31
0.0
 70
   160
 71
     5
 42
0.1000000000000032
 73
     0
 74
     0
 75
     0
  3
Standard
100
AcDbAlignedDimension
 13
8.009854849346721
 23
4.61129237039235
 33
0.0
 14
8.109854849346724
 24
4.611292370392351
 34
0.0
100
AcDbRotatedDimension
1001
ACAD
1000
DSTYLE
1002
{
1070
    41
1040
0.02
1070
    42
1040
0.015
1070
    44
1040
0.015
1070
    47
1040
0.005
1070
    48
1040
0.005
1070
    71
1070
     1
1070
    78
1070
     4
1070
   140
1040
0.02
1070
   147
1040
0.01
1070
   284
1070
     4
1002
}
  0
DIMENSION
  5
8E7
102
{ACAD_XDICTIONARY
360
8F6
102
}
102
{ACAD_REACTORS
330
902
102
}
330
1F
100
AcDbEntity
  8
dimensions
100
AcDbDimension
  2
*D11
 10
7.888861516058429
 20
4.601292370392351
 30
0.0
 11
7.862833105979592
 21
4.554449743489238
 31
0.0
 70
   160
 71
     5
 42
0.0099999999999989
 73
     0
 74
     0
 75
     0
  3
Standard
100
AcDbAlignedDimension
 13
7.969854849346725
 23
4.61129237039235
 33
0.0
 14
7.999854849346722
 24
4.601292370392351
 34
0.0
 50
90.0
100
AcDbRotatedDimension
1001
ACAD
1000
DSTYLE
1002
{
1070
   284
1070
     4
1070
    41
1040
0.02
1070
    42
1040
0.015
1070
    44
1040
0.015
1070
    47
1040
0.003
1070
    48
1040
0.003
1070
    71
1070
     1
1070
    78
1070
     4
1070
   140
1040
0.02
1070
   147
1040
0.01
1070
   279
1070
     1
1002
}
  0
LINE
  5
AC9
330
1F
100
AcDbEntity
  8
rigid
100
AcDbLine
 10
8.164854849346726
 20
4.132241938256799
 30
0.0
 11
8.164854849346726
 21
4.161741938256799
 31
0.0
  0
LINE
  5
ACA
330
1F
100
AcDbEntity
  8
rigid
100
AcDbLine
 10
7.964854849346725
 20
4.132241938256799
 30
0.0
 11
7.994854849346726
 21
4.132241938256799
 31
0.0
  0
LINE
  5
ACB
330
1F
100
AcDbEntity
  8
rigid
100
AcDbLine
 10
8.014854849346725
 20
4.132241938256799
 30
0.0
 11
8.114854849346727
 21
4.132241938256799
 31
0.0
  0
LINE
  5
ACC
330
1F
100
AcDbEntity
  8
rigid
100
AcDbLine
 10
8.134854849346726
 20
4.132241938256799
 30
0.0
 11
8.164854849346726
 21
4.132241938256799
 31
0.0
  0
LINE
  5
ACD
330
1F
100
AcDbEntity
  8
rigid
100
AcDbLine
 10
7.994854849346726
 20
4.132241938256799
 30
0.0
 11
7.994854849346726
 21
4.120660608584752
 31
0.0
  0
LINE
  5
ACE
330
1F
100
AcDbEntity
  8
rigid
100
AcDbLine
 10
8.014854849346725
 20
4.120660608584752
 30
0.0
 11
8.014854849346725
 21
4.132241938256799
 31
0.0
  0
LINE
  5
ACF
330
1F
100
AcDbEntity
  8
rigid
100
AcDbLine
 10
8.114854849346725
 20
4.125660608584753
 30
0.0
 11
8.114854849346725
 21
4.120660608584752
 31
0.0
  0
LINE
  5
AD0
330
1F
100
AcDbEntity
  8
rigid
100
AcDbLine
 10
8.134854849346725
 20
4.120660608584752
 30
0.0
 11
8.134854849346725
 21
4.125660608584753
 31
0.0
  0
LINE
  5
AD1
330
1F
100
AcDbEntity
  8
rigid
100
AcDbLine
 10
8.134854849346726
 20
4.132241938256799
 30
0.0
 11
8.134854849346726
 21
4.121160608584752
 31
0.0
  0
LINE
  5
AD2
330
1F
100
AcDbEntity
  8
rigid
100
AcDbLine
 10
8.114854849346727
 20
4.121160608584752
 30
0.0
 11
8.114854849346727
 21
4.132241938256799
 31
0.0
  0
LINE
  5
AD3
330
1F
100
AcDbEntity
  8
rigid
100
AcDbLine
 10
7.994854849346726
 20
4.120660608584752
 30
0.0
 11
8.014854849346725
 21
4.120660608584752
 31
0.0
  0
LINE
  5
AD4
330
1F
100
AcDbEntity
  8
rigid
100
AcDbLine
 10
8.114854849346725
 20
4.120660608584752
 30
0.0
 11
8.134854849346725
 21
4.120660608584752
 31
0.0
  0
LINE
  5
AD5
102
{ACAD_REACTORS
330
B2B
102
}
330
1F
100
AcDbEntity
  8
rigid
100
AcDbLine
 10
7.964854849346725
 20
4.132241938256799
 30
0.0
 11
7.964854849346725
 21
4.161741938256799
 31
0.0
  0
LINE
  5
AD6
102
{ACAD_REACTORS
330
AF1
330
B2B
330
DB6
102
}
330
1F
100
AcDbEntity
  8
rigid
100
AcDbLine
 10
7.964854849346725
 20
4.161741938256799
 30
0.0
 11
8.164854849346726
 21
4.161741938256799
 31
0.0
  0
DIMENSION
  5
AD8
102
{ACAD_XDICTIONARY
360
AE6
102
}
102
{ACAD_REACTORS
330
AF1
102
}
330
1F
100
AcDbEntity
  8
dimensions
100
AcDbDimension
  2
*D12
 10
8.164854849346726
 20
4.201252754868311
 30
0.0
 11
8.064854849346726
 21
4.201252754868311
 31
0.0
 70
    32
 71
     5
 42
0.2000000000000011
 73
     0
 74
     0
 75
     0
  3
Standard
100
AcDbAlignedDimension
 13
7.964854849346725
 23
4.161741938256799
 33
0.0
 14
8.164854849346726
 24
4.161741938256799
 34
0.0
100
AcDbRotatedDimension
1001
ACAD
1000
DSTYLE
1002
{
1070
   284
1070
     4
1070
    41
1040
0.02
1070
    42
1040
0.015
1070
    44
1040
0.015
1070
    47
1040
0.005
1070
    48
1040
0.005
1070
    71
1070
     1
1070
    78
1070
     4
1070
   140
1040
0.02
1070
   147
1040
0.01
1070
   279
1070
     1
1002
}
  0
DIMENSION
  5
B10
102
{ACAD_XDICTIONARY
360
B1F
102
}
102
{ACAD_REACTORS
330
B2B
102
}
330
1F
100
AcDbEntity
  8
dimensions
100
AcDbDimension
  2
*D13
 10
7.89266444211419
 20
4.132241938256799
 30
0.0
 11
7.852664442114191
 21
4.210616989420979
 31
0.0
 70
   160
 71
     5
 42
0.0294999999999996
 73
     0
 74
     0
 75
     0
  3
Standard
100
AcDbAlignedDimension
 13
7.964854849346725
 23
4.161741938256799
 33
0.0
 14
7.964854849346725
 24
4.132241938256799
 34
0.0
 50
90.0
100
AcDbRotatedDimension
1001
ACAD
1000
DSTYLE
1002
{
1070
   284
1070
     4
1070
    41
1040
0.02
1070
    42
1040
0.015
1070
    44
1040
0.015
1070
    47
1040
0.002
1070
    48
1040
0.002
1070
    71
1070
     1
1070
    77
1070
     0
1070
    78
1070
     4
1070
   140
1040
0.02
1070
   147
1040
0.01
1070
   271
1070
     4
1070
   279
1070
     1
1002
}
  0
LINE
  5
C4C
102
{ACAD_REACTORS
330
CC8
102
}
330
1F
100
AcDbEntity
  8
rigid
100
AcDbLine
 10
8.064854849346726
 20
4.132241938256799
 30
0.0
 11
8.064854849346726
 21
3.8612419382568
 31
0.0
  0
LINE
  5
C4F
330
1F
100
AcDbEntity
  8
rigid
100
AcDbLine
 10
8.072854849346725
 20
4.132241938256799
 30
0.0
 11
8.072854849346727
 21
4.120660608584751
 31
0.0
  0
LINE
  5
C50
330
1F
100
AcDbEntity
  8
rigid
100
AcDbLine
 10
8.080854849346724
 20
4.132241938256799
 30
0.0
 11
8.080854849346726
 21
4.120660608584761
 31
0.0
  0
LINE
  5
C51
330
1F
100
AcDbEntity
  8
rigid
100
AcDbLine
 10
8.088854849346724
 20
4.132241938256799
 30
0.0
 11
8.088854849346725
 21
4.120660608584751
 31
0.0
  0
LINE
  5
C52
330
1F
100
AcDbEntity
  8
rigid
100
AcDbLine
 10
8.096854849346723
 20
4.132241938256799
 30
0.0
 11
8.096854849346723
 21
4.120660608584761
 31
0.0
  0
LINE
  5
C53
330
1F
100
AcDbEntity
  8
rigid
100
AcDbLine
 10
8.104854849346722
 20
4.132241938256799
 30
0.0
 11
8.104854849346724
 21
4.120660608584761
 31
0.0
  0
LINE
  5
C5F
330
1F
100
AcDbEntity
  8
rigid
100
AcDbLine
 10
8.056854849346725
 20
4.132241938256799
 30
0.0
 11
8.056854849346724
 21
4.120660608584751
 31
0.0
  0
LINE
  5
C60
330
1F
100
AcDbEntity
  8
rigid
100
AcDbLine
 10
8.048854849346726
 20
4.132241938256799
 30
0.0
 11
8.048854849346724
 21
4.120660608584761
 31
0.0
  0
LINE
  5
C61
330
1F
100
AcDbEntity
  8
rigid
100
AcDbLine
 10
8.040854849346727
 20
4.132241938256799
 30
0.0
 11
8.040854849346725
 21
4.120660608584751
 31
0.0
  0
LINE
  5
C62
330
1F
100
AcDbEntity
  8
rigid
100
AcDbLine
 10
8.032854849346728
 20
4.132241938256799
 30
0.0
 11
8.032854849346728
 21
4.120660608584761
 31
0.0
  0
LINE
  5
C63
330
1F
100
AcDbEntity
  8
rigid
100
AcDbLine
 10
8.024854849346729
 20
4.132241938256799
 30
0.0
 11
8.024854849346727
 21
4.120660608584761
 31
0.0
  0
LINE
  5
C7B
102
{ACAD_REACTORS
330
DB6
102
}
330
1F
100
AcDbEntity
  8
rigid
100
AcDbLine
 10
8.114854849346725
 20
4.120660608584752
 30
0.0
 11
8.159243799656858
 21
3.8912419382568
 31
0.0
  0
LINE
  5
C7C
102
{ACAD_REACTORS
330
CC8
102
}
330
1F
100
AcDbEntity
  8
rigid
100
AcDbLine
 10
8.014854849346725
 20
4.120660608584752
 30
0.0
 11
7.970465899036594
 21
3.8912419382568
 31
0.0
  0
LINE
  5
CA1
330
1F
100
AcDbEntity
  8
rigid
100
AcDbLine
 10
8.024854849346727
 20
4.120660608584752
 30
0.0
 11
7.984017015061404
 21
3.8912419382568
 31
0.0
  0
LINE
  5
CA2
330
1F
100
AcDbEntity
  8
rigid
100
AcDbLine
 10
8.032854849346728
 20
4.120660608584752
 30
0.0
 11
7.997343689098619
 21
3.8912419382568
 31
0.0
  0
LINE
  5
CA3
330
1F
100
AcDbEntity
  8
rigid
100
AcDbLine
 10
8.040854849346725
 20
4.120660608584751
 30
0.0
 11
8.010670363135835
 21
3.8912419382568
 31
0.0
  0
LINE
  5
CA4
330
1F
100
AcDbEntity
  8
rigid
100
AcDbLine
 10
8.048854849346724
 20
4.120660608584752
 30
0.0
 11
8.02399703717305
 21
3.8912419382568
 31
0.0
  0
LINE
  5
CA5
330
1F
100
AcDbEntity
  8
rigid
100
AcDbLine
 10
8.056854849346724
 20
4.120660608584751
 30
0.0
 11
8.037323711210264
 21
3.8912419382568
 31
0.0
  0
LINE
  5
CA6
330
1F
100
AcDbEntity
  8
rigid
100
AcDbLine
 10
8.064854849346726
 20
4.120660608584752
 30
0.0
 11
8.050650385247481
 21
3.8912419382568
 31
0.0
  0
LINE
  5
CA7
330
1F
100
AcDbEntity
  8
rigid
100
AcDbLine
 10
8.104854849346725
 20
4.120660608584752
 30
0.0
 11
8.145692683632049
 21
3.8912419382568
 31
0.0
  0
LINE
  5
CA8
330
1F
100
AcDbEntity
  8
rigid
100
AcDbLine
 10
8.096854849346724
 20
4.120660608584752
 30
0.0
 11
8.132366009594834
 21
3.8912419382568
 31
0.0
  0
LINE
  5
CA9
330
1F
100
AcDbEntity
  8
rigid
100
AcDbLine
 10
8.088854849346727
 20
4.120660608584751
 30
0.0
 11
8.119039335557621
 21
3.8912419382568
 31
0.0
  0
LINE
  5
CAA
330
1F
100
AcDbEntity
  8
rigid
100
AcDbLine
 10
8.080854849346728
 20
4.120660608584752
 30
0.0
 11
8.105712661520405
 21
3.8912419382568
 31
0.0
  0
LINE
  5
CAB
330
1F
100
AcDbEntity
  8
rigid
100
AcDbLine
 10
8.072854849346729
 20
4.120660608584751
 30
0.0
 11
8.09238598748319
 21
3.8912419382568
 31
0.0
  0
LINE
  5
CAC
330
1F
100
AcDbEntity
  8
rigid
100
AcDbLine
 10
8.064854849346726
 20
4.120660608584752
 30
0.0
 11
8.079059313445974
 21
3.8912419382568
 31
0.0
  0
DIMENSION
  5
CAD
102
{ACAD_XDICTIONARY
360
CBC
102
}
102
{ACAD_REACTORS
330
CC8
102
}
330
1F
100
AcDbEntity
  8
dimensions
100
AcDbDimension
  2
*D14
 10
7.935465899036592
 20
3.8912419382568
 30
0.0
 11
7.900392957147901
 21
3.941658789334359
 31
0.0
 70
   160
 71
     5
 42
0.0299999999999998
 73
     0
 74
     0
 75
     0
  3
Standard
100
AcDbAlignedDimension
 13
8.064854849346726
 23
3.8612419382568
 33
0.0
 14
7.970465899036594
 24
3.8912419382568
 34
0.0
 50
90.0
100
AcDbRotatedDimension
1001
ACAD
1000
DSTYLE
1002
{
1070
   284
1070
     4
1070
    41
1040
0.02
1070
    42
1040
0.015
1070
    44
1040
0.015
1070
    47
1040
0.01
1070
    48
1040
0.01
1070
    71
1070
     1
1070
    78
1070
     4
1070
   140
1040
0.02
1070
   147
1040
0.01
1070
   279
1070
     1
1002
}
  0
DIMENSION
  5
D9D
102
{ACAD_XDICTIONARY
360
DAB
102
}
102
{ACAD_REACTORS
330
DB6
102
}
330
1F
100
AcDbEntity
  8
dimensions
100
AcDbDimension
  2
*D15
 10
8.248205445837024
 20
3.8912419382568
 30
0.0
 11
8.248205445837024
 21
4.026491938256801
 31
0.0
 70
    32
 71
     5
 42
0.2704999999999988
 73
     0
 74
     0
 75
     0
  3
Standard
100
AcDbAlignedDimension
 13
8.164854849346726
 23
4.161741938256799
 33
0.0
 14
8.159243799656858
 24
3.8912419382568
 34
0.0
 50
90.0
100
AcDbRotatedDimension
1001
ACAD
1000
DSTYLE
1002
{
1070
    41
1040
0.02
1070
    42
1040
0.015
1070
    44
1040
0.015
1070
    47
1040
0.02
1070
    48
1040
0.02
1070
    71
1070
     1
1070
    78
1070
     4
1070
   140
1040
0.02
1070
   147
1040
0.01
1070
   279
1070
     1
1070
   284
1070
     4
1002
}
  0
TEXT
  5
F0C
330
1F
100
AcDbEntity
  8
TITLE_BLOCK
  6
Continuous
 62
     7
100
AcDbText
 10
8.045569219177703
 20
3.55374535997433
 30
0.0
 40
0.0111486926338804
  1
BASE: POLYPROPYLENE
 41
0.5
100
AcDbText
  0
TEXT
  5
F0E
330
1F
100
AcDbEntity
  8
TITLE_BLOCK
  6
Continuous
 62
     7
100
AcDbText
 10
8.045569219177703
 20
3.532618920845346
 30
0.0
 40
0.0111486926338804
  1
KERF: TPE
 41
0.5
100
AcDbText
  0
TEXT
  5
F0F
330
1F
100
AcDbEntity
  8
TITLE_BLOCK
  6
Continuous
 62
     7
100
AcDbText
 10
8.223948301319786
 20
3.552751058118967
 30
0.0
 40
0.0111486926338804
  1
GRAY
 41
0.5
100
AcDbText
  0
MTEXT
  5
F19
330
1F
100
AcDbEntity
  8
dimensions
100
AcDbMText
 10
7.909413569711079
 20
4.829586535692585
 30
0.0
 40
0.02
 41
0.024013156306653
 46
0.0
 71
     1
 72
     5
  1
{\Fromans.shx|c0;4X}
 73
     1
 44
1.0
  0
LEADER
  5
F1B
330
1F
100
AcDbEntity
  8
dimensions
100
AcDbLeader
  3
Standard
 73
     0
 75
     1
 40
0.0266666666666667
 41
0.1961904761904761
 76
     3
 10
8.205892532805416
 20
4.652111763312442
 30
0.0
 10
8.100346163229442
 20
4.73597178947375
 30
0.0
 10
8.070346163229443
 20
4.73597178947375
 30
0.0
340
F1C
213
-0.0187086876727811
223
0.015
233
0.0
1001
ACAD
1000
DSTYLE
1002
{
1070
   147
1040
0.03
1070
    77
1070
     0
1002
}
  0
MTEXT
  5
F1C
102
{ACAD_REACTORS
330
F1B
102
}
330
1F
100
AcDbEntity
  8
0
100
AcDbMText
 10
8.059054850902224
 20
4.72097178947375
 30
0.0
 40
0.02
 41
0.0
 46
0.0
 71
     9
 72
     1
  1
{\Fromans.shx|c0;\C1;Polypropylene}
 73
     1
 44
1.0
  0
LEADER
  5
F60
330
1F
100
AcDbEntity
  8
dimensions
100
AcDbLeader
  3
Standard
 73
     0
 75
     1
 40
0.02
 41
0.0504761904761905
 76
     3
 10
8.230593410634989
 20
4.815930393166869
 30
0.0
 10
8.125047041059016
 20
4.944786244567343
 30
0.0
 10
8.095047041059016
 20
4.944786244567343
 30
0.0
340
F61
213
-0.0187086876727811
223
0.015
233
0.0
1001
ACAD
1000
DSTYLE
1002
{
1070
   147
1040
0.03
1070
    77
1070
     0
1002
}
  0
MTEXT
  5
F61
102
{ACAD_REACTORS
330
F60
102
}
330
1F
100
AcDbEntity
  8
0
100
AcDbMText
 10
8.083755728731798
 20
4.929786244567344
 30
0.0
 40
0.02
 41
0.0
 46
0.0
 71
     9
 72
     1
  1
{\Fromans.shx|c0;\C1;TPE}
 73
     1
 44
1.0
  0
DIMENSION
  5
11F4
330
1F
100
AcDbEntity
  8
dimensions
100
AcDbDimension
  2
*D16
 10
7.969854849346725
 20
4.65129237039235
 30
0.0
 11
7.929239043634046
 21
4.961908176105037
 31
0.0
 70
    34
 71
     5
 42
1.570796326794903
 73
     0
 74
     0
 75
     0
  3
Standard
100
AcDb2LineAngularDimension
 13
8.23985484934673
 23
4.818405619046471
 33
0.0
 14
8.23985484934673
 24
4.671292370392352
 34
0.0
 15
8.229854849346731
 25
4.651292370392352
 35
0.0
 16
8.020216306783567
 26
5.031717485412129
 36
0.0
1001
ACAD
1000
DSTYLE
1002
{
1070
   272
1070
     1
1070
    48
1040
5.0
1070
    72
1070
     0
1070
    71
1070
     1
1070
    41
1040
0.02
1070
    42
1040
0.015
1070
    44
1040
0.015
1070
    78
1070
     4
1070
   140
1040
0.02
1070
   147
1040
0.01
1002
}
  0
MTEXT
  5
13AF
330
1F
100
AcDbEntity
  8
0
100
AcDbMText
 10
8.504904930790072
 20
4.435755744599974
 30
0.0
 40
0.02
 41
0.0
 46
0.0
 71
     9
 72
     1
  1
{\C1;TYP.}
 73
     1
 44
1.0
  0
MTEXT
  5
13B0
330
1F
100
AcDbEntity
  8
0
100
AcDbMText
 10
8.369370757766311
 20
3.81318766894388
 30
0.0
 40
0.02
 41
0.5533104144750052
 46
0.0
 71
     1
 72
     5
  1
{\Fromans.shx|c0;\C1;NOTES:\P1) RIDGED WALL THICKNESS TO BE .040±.005 UNLESS OTHERWISE SHOWN.\P2) ALL RADII TO BE R.010 UNLESS OTHERWISE SPECIFIED.}
 73
     1
 44
1.0
  0
LEADER
  5
13B1
330
1F
100
AcDbEntity
  8
dimensions
100
AcDbLeader
  3
Standard
 73
     0
 75
     1
 40
0.02
 41
0.3438095238095236
 76
     3
 10
8.064854849346726
 20
3.8612419382568
 30
0.0
 10
8.017970886576673
 20
3.743716069360899
 30
0.0
 10
7.987970886576673
 20
3.743716069360899
 30
0.0
340
13B2
213
-0.0187086876727811
223
0.015
233
0.0
1001
ACAD
1000
DSTYLE
1002
{
1070
   147
1040
0.03
1070
    77
1070
     0
1002
}
  0
MTEXT
  5
13B2
102
{ACAD_REACTORS
330
13B1
102
}
330
1F
100
AcDbEntity
  8
0
100
AcDbMText
 10
7.976679574249454
 20
3.728716069360899
 30
0.0
 40
0.02
 41
0.0
 46
0.0
 71
     9
 72
     1
  1
{\Fromans.shx|c0;\C1;GRAY SOFT TOUCH FIN}
 73
     1
 44
1.0
  0
LINE
  5
1605
102
{ACAD_REACTORS
330
6DD
330
740
102
}
330
1F
100
AcDbEntity
  8
dimensions
  6
Continuous
 62
     6
100
AcDbLine
 10
8.279854849346726
 20
4.831292370392355
 30
0.0
 11
8.279854849346723
 21
4.651292370392347
 31
0.0
  0
LINE
  5
1606
330
1F
100
AcDbEntity
  8
dimensions
  6
Continuous
 62
     6
100
AcDbLine
 10
8.239854849346723
 20
4.611292370392348
 30
0.0
 11
7.969854849346725
 21
4.61129237039235
 31
0.0
  0
LINE
  5
1724
330
1F
100
AcDbEntity
  8
dimensions
  6
Continuous
 62
     6
100
AcDbLine
 10
8.269854849346724
 20
4.841292370392355
 30
0.0
 11
8.24985484934673
 21
4.841292370392352
 31
0.0
  0
ARC
  5
1731
330
1F
100
AcDbEntity
  8
dimensions
  6
Continuous
 62
     6
100
AcDbCircle
 10
8.24985484934673
 20
4.831292370392352
 30
0.0
 40
0.01
100
AcDbArc
 50
90.00000000000337
 51
180.0000000000006
  0
ARC
  5
1732
330
1F
100
AcDbEntity
  8
dimensions
  6
Continuous
 62
     6
100
AcDbCircle
 10
8.269854849346726
 20
4.831292370392355
 30
0.0
 40
0.01
100
AcDbArc
 50
359.9999999999994
 51
90.00000000000509
  0
LINE
  5
1761
330
1F
100
AcDbEntity
  8
dimensions
  6
Continuous
 62
     6
100
AcDbLine
 10
7.959854849346726
 20
4.62129237039235
 30
0.0
 11
7.959854849346725
 21
4.641292370392348
 31
0.0
  0
LINE
  5
17F0
330
1F
100
AcDbEntity
  8
dimensions
  6
Continuous
 62
     6
100
AcDbLine
 10
7.731809622765672
 20
5.132014436280083
 30
0.0
 11
7.731809622765672
 21
5.089514436280084
 31
0.0
  0
LINE
  5
17F1
330
1F
100
AcDbEntity
  8
dimensions
  6
Continuous
 62
     6
100
AcDbLine
 10
7.73930962276567
 20
5.132014436280084
 30
0.0
 11
7.73930962276567
 21
5.092014436280082
 31
0.0
  0
ARC
  5
17F2
330
1F
100
AcDbEntity
  8
dimensions
  6
Continuous
 62
     6
100
AcDbCircle
 10
7.736809622765671
 20
5.131889436280084
 30
0.0
 40
0.0025
100
AcDbArc
 50
359.9999999999994
 51
90.00000000000509
  0
LINE
  5
17F3
330
1F
100
AcDbEntity
  8
dimensions
  6
Continuous
 62
     6
100
AcDbLine
 10
7.726809622765669
 20
5.079514436280082
 30
0.0
 11
7.66180962276567
 21
5.079514436280083
 31
0.0
  0
ARC
  5
17F4
102
{ACAD_REACTORS
330
1920
102
}
330
1F
100
AcDbEntity
  8
dimensions
  6
Continuous
 62
     6
100
AcDbCircle
 10
7.726809622765669
 20
5.092014436280082
 30
0.0
 40
0.0125
100
AcDbArc
 50
269.9999999999988
 51
0.0
  0
ARC
  5
17F5
330
1F
100
AcDbEntity
  8
dimensions
  6
Continuous
 62
     6
100
AcDbCircle
 10
7.66180962276567
 20
5.082014436280084
 30
0.0
 40
0.0025
100
AcDbArc
 50
180.0
 51
270.0
  0
LINE
  5
17F6
330
1F
100
AcDbEntity
  8
dimensions
  6
Continuous
 62
     6
100
AcDbLine
 10
7.729309622765672
 20
5.087014436280083
 30
0.0
 11
7.66180962276567
 21
5.087014436280083
 31
0.0
  0
ARC
  5
17F7
330
1F
100
AcDbEntity
  8
dimensions
  6
Continuous
 62
     6
100
AcDbCircle
 10
7.729309622765672
 20
5.089514436280084
 30
0.0
 40
0.0025
100
AcDbArc
 50
270.0000000000002
 51
0.0000000000005979
  0
LINE
  5
17F8
102
{ACAD_REACTORS
330
1920
102
}
330
1F
100
AcDbEntity
  8
dimensions
  6
Continuous
 62
     6
100
AcDbLine
 10
7.65930962276567
 20
5.082014436280084
 30
0.0
 11
7.65930962276567
 21
5.084514436280083
 31
0.0
  0
ARC
  5
17F9
330
1F
100
AcDbEntity
  8
dimensions
  6
Continuous
 62
     6
100
AcDbCircle
 10
7.66180962276567
 20
5.084514436280083
 30
0.0
 40
0.0025
100
AcDbArc
 50
90.00000000000019
 51
180.0000000000025
  0
LINE
  5
17FA
330
1F
100
AcDbEntity
  8
dimensions
  6
Continuous
 62
     6
100
AcDbLine
 10
7.73555962276567
 20
5.134514436280084
 30
0.0
 11
7.73555962276567
 21
5.134514436280084
 31
0.0
  0
ARC
  5
17FB
330
1F
100
AcDbEntity
  8
rigid
100
AcDbCircle
 10
7.721850330621922
 20
5.120877684934238
 30
0.0
 40
0.0024999999999256
100
AcDbArc
 50
120.0000000009897
 51
300.0000000009809
  0
LINE
  5
17FC
330
1F
100
AcDbEntity
  8
rigid
100
AcDbLine
 10
7.731809622765672
 20
5.129514436280084
 30
0.0
 11
7.720600330621921
 21
5.123042748443613
 31
0.0
  0
LINE
  5
17FD
330
1F
100
AcDbEntity
  8
rigid
100
AcDbLine
 10
7.720600330621921
 20
5.123764436280084
 30
0.0
 11
7.720600330621921
 21
5.123764436280084
 31
0.0
  0
LINE
  5
17FE
330
1F
100
AcDbEntity
  8
rigid
100
AcDbLine
 10
7.73930962276567
 20
5.123740933589638
 30
0.0
 11
7.748018914909421
 21
5.118712621424863
 31
0.0
  0
ARC
  5
17FF
330
1F
100
AcDbEntity
  8
rigid
100
AcDbCircle
 10
7.749268914909421
 20
5.120877684934238
 30
0.0
 40
0.0024999999999256
100
AcDbArc
 50
239.9999999990102
 51
59.99999999901027
  0
LINE
  5
1800
330
1F
100
AcDbEntity
  8
rigid
100
AcDbLine
 10
7.75051891490942
 20
5.123042748443613
 30
0.0
 11
7.73930962276567
 21
5.129514436280084
 31
0.0
  0
ARC
  5
1801
330
1F
100
AcDbEntity
  8
rigid
100
AcDbCircle
 10
7.749268914909421
 20
5.100877684934238
 30
0.0
 40
0.0024999999999256
100
AcDbArc
 50
239.9999999990102
 51
59.99999999901027
  0
LINE
  5
1802
330
1F
100
AcDbEntity
  8
rigid
100
AcDbLine
 10
7.748018914909421
 20
5.099434309261334
 30
0.0
 11
7.748018914909421
 21
5.099434309261334
 31
0.0
  0
ARC
  5
1803
330
1F
100
AcDbEntity
  8
rigid
100
AcDbCircle
 10
7.721850330621922
 20
5.100877684934238
 30
0.0
 40
0.0024999999999256
100
AcDbArc
 50
120.0000000009897
 51
300.0000000009809
  0
LINE
  5
1804
330
1F
100
AcDbEntity
  8
rigid
100
AcDbLine
 10
7.720600330621921
 20
5.103764436280084
 30
0.0
 11
7.720600330621921
 21
5.103764436280084
 31
0.0
  0
LINE
  5
1805
330
1F
100
AcDbEntity
  8
rigid
100
AcDbLine
 10
7.73930962276567
 20
5.103740933589638
 30
0.0
 11
7.748018914909421
 21
5.098712621424863
 31
0.0
  0
LINE
  5
1806
330
1F
100
AcDbEntity
  8
rigid
100
AcDbLine
 10
7.75051891490942
 20
5.103042748443614
 30
0.0
 11
7.73930962276567
 21
5.109514436280084
 31
0.0
  0
LINE
  5
1807
330
1F
100
AcDbEntity
  8
rigid
100
AcDbLine
 10
7.723100330621921
 20
5.098712621424863
 30
0.0
 11
7.731809622765672
 21
5.103740933589638
 31
0.0
  0
LINE
  5
1808
330
1F
100
AcDbEntity
  8
rigid
100
AcDbLine
 10
7.731809622765672
 20
5.109514436280083
 30
0.0
 11
7.720600330621921
 21
5.103042748443614
 31
0.0
  0
LINE
  5
1809
330
1F
100
AcDbEntity
  8
rigid
100
AcDbLine
 10
7.723100330621921
 20
5.118712621424863
 30
0.0
 11
7.731809622765672
 21
5.123740933589638
 31
0.0
  0
LINE
  5
181A
330
1F
100
AcDbEntity
  8
dimensions
  6
Continuous
 62
     6
100
AcDbLine
 10
7.699309622765669
 20
5.077014436280083
 30
0.0
 11
7.70180962276567
 21
5.079514436280083
 31
0.0
  0
LINE
  5
181B
330
1F
100
AcDbEntity
  8
dimensions
  6
Continuous
 62
     6
100
AcDbLine
 10
7.699309622765669
 20
5.077014436280083
 30
0.0
 11
7.69680962276567
 21
5.079514436280083
 31
0.0
  0
LINE
  5
181C
330
1F
100
AcDbEntity
  8
dimensions
  6
Continuous
 62
     6
100
AcDbLine
 10
7.66930962276567
 20
5.077014436280084
 30
0.0
 11
7.666809622765669
 21
5.079514436280083
 31
0.0
  0
LINE
  5
181D
330
1F
100
AcDbEntity
  8
dimensions
  6
Continuous
 62
     6
100
AcDbLine
 10
7.66930962276567
 20
5.077014436280084
 30
0.0
 11
7.671809622765669
 21
5.079514436280083
 31
0.0
  0
LINE
  5
1820
330
1F
100
AcDbEntity
  8
rigid
100
AcDbLine
 10
7.709309622765671
 20
5.072139436280084
 30
0.0
 11
7.709309622765671
 21
5.079514436280083
 31
0.0
  0
LINE
  5
1821
330
1F
100
AcDbEntity
  8
rigid
100
AcDbLine
 10
7.65930962276567
 20
5.072139436280084
 30
0.0
 11
7.66680962276567
 21
5.072139436280084
 31
0.0
  0
LINE
  5
1822
330
1F
100
AcDbEntity
  8
rigid
100
AcDbLine
 10
7.671809622765671
 20
5.072139436280084
 30
0.0
 11
7.696809622765671
 21
5.072139436280084
 31
0.0
  0
LINE
  5
1823
330
1F
100
AcDbEntity
  8
rigid
100
AcDbLine
 10
7.70180962276567
 20
5.072139436280084
 30
0.0
 11
7.709309622765671
 21
5.072139436280084
 31
0.0
  0
LINE
  5
1824
330
1F
100
AcDbEntity
  8
rigid
100
AcDbLine
 10
7.66680962276567
 20
5.072139436280084
 30
0.0
 11
7.66680962276567
 21
5.069244103862072
 31
0.0
  0
LINE
  5
1825
330
1F
100
AcDbEntity
  8
rigid
100
AcDbLine
 10
7.671809622765671
 20
5.069244103862072
 30
0.0
 11
7.671809622765671
 21
5.072139436280084
 31
0.0
  0
LINE
  5
1826
330
1F
100
AcDbEntity
  8
rigid
100
AcDbLine
 10
7.69680962276567
 20
5.070494103862071
 30
0.0
 11
7.69680962276567
 21
5.069244103862072
 31
0.0
  0
LINE
  5
1827
330
1F
100
AcDbEntity
  8
rigid
100
AcDbLine
 10
7.70180962276567
 20
5.069244103862072
 30
0.0
 11
7.70180962276567
 21
5.070494103862071
 31
0.0
  0
LINE
  5
1828
330
1F
100
AcDbEntity
  8
rigid
100
AcDbLine
 10
7.70180962276567
 20
5.072139436280084
 30
0.0
 11
7.70180962276567
 21
5.069369103862071
 31
0.0
  0
LINE
  5
1829
330
1F
100
AcDbEntity
  8
rigid
100
AcDbLine
 10
7.696809622765671
 20
5.069369103862071
 30
0.0
 11
7.696809622765671
 21
5.072139436280084
 31
0.0
  0
LINE
  5
182A
330
1F
100
AcDbEntity
  8
rigid
100
AcDbLine
 10
7.66680962276567
 20
5.069244103862072
 30
0.0
 11
7.671809622765671
 21
5.069244103862072
 31
0.0
  0
LINE
  5
182B
330
1F
100
AcDbEntity
  8
rigid
100
AcDbLine
 10
7.69680962276567
 20
5.069244103862072
 30
0.0
 11
7.70180962276567
 21
5.069244103862072
 31
0.0
  0
LINE
  5
182C
330
1F
100
AcDbEntity
  8
rigid
100
AcDbLine
 10
7.65930962276567
 20
5.072139436280084
 30
0.0
 11
7.65930962276567
 21
5.079514436280083
 31
0.0
  0
LINE
  5
182D
330
1F
100
AcDbEntity
  8
rigid
100
AcDbLine
 10
7.65930962276567
 20
5.079514436280083
 30
0.0
 11
7.709309622765671
 21
5.079514436280083
 31
0.0
  0
LINE
  5
1831
330
1F
100
AcDbEntity
  8
rigid
100
AcDbLine
 10
7.68430962276567
 20
5.072139436280084
 30
0.0
 11
7.68430962276567
 21
5.004389436280083
 31
0.0
  0
LINE
  5
1832
330
1F
100
AcDbEntity
  8
rigid
100
AcDbLine
 10
7.686309622765671
 20
5.072139436280084
 30
0.0
 11
7.686309622765671
 21
5.069244103862071
 31
0.0
  0
LINE
  5
1833
330
1F
100
AcDbEntity
  8
rigid
100
AcDbLine
 10
7.68830962276567
 20
5.072139436280084
 30
0.0
 11
7.688309622765672
 21
5.069244103862073
 31
0.0
  0
LINE
  5
1834
330
1F
100
AcDbEntity
  8
rigid
100
AcDbLine
 10
7.690309622765671
 20
5.072139436280084
 30
0.0
 11
7.690309622765671
 21
5.069244103862071
 31
0.0
  0
LINE
  5
1835
330
1F
100
AcDbEntity
  8
rigid
100
AcDbLine
 10
7.692309622765669
 20
5.072139436280084
 30
0.0
 11
7.692309622765669
 21
5.069244103862073
 31
0.0
  0
LINE
  5
1836
330
1F
100
AcDbEntity
  8
rigid
100
AcDbLine
 10
7.69430962276567
 20
5.072139436280084
 30
0.0
 11
7.69430962276567
 21
5.069244103862073
 31
0.0
  0
LINE
  5
1837
330
1F
100
AcDbEntity
  8
rigid
100
AcDbLine
 10
7.682309622765671
 20
5.072139436280084
 30
0.0
 11
7.68230962276567
 21
5.069244103862071
 31
0.0
  0
LINE
  5
1838
330
1F
100
AcDbEntity
  8
rigid
100
AcDbLine
 10
7.680309622765671
 20
5.072139436280084
 30
0.0
 11
7.680309622765671
 21
5.069244103862073
 31
0.0
  0
LINE
  5
1839
330
1F
100
AcDbEntity
  8
rigid
100
AcDbLine
 10
7.67830962276567
 20
5.072139436280084
 30
0.0
 11
7.67830962276567
 21
5.069244103862071
 31
0.0
  0
LINE
  5
183A
330
1F
100
AcDbEntity
  8
rigid
100
AcDbLine
 10
7.676309622765671
 20
5.072139436280084
 30
0.0
 11
7.676309622765671
 21
5.069244103862073
 31
0.0
  0
LINE
  5
183B
330
1F
100
AcDbEntity
  8
rigid
100
AcDbLine
 10
7.674309622765672
 20
5.072139436280084
 30
0.0
 11
7.674309622765671
 21
5.069244103862073
 31
0.0
  0
LINE
  5
183C
330
1F
100
AcDbEntity
  8
rigid
100
AcDbLine
 10
7.69680962276567
 20
5.069244103862072
 30
0.0
 11
7.707906860343204
 21
5.011889436280084
 31
0.0
  0
LINE
  5
183D
102
{ACAD_REACTORS
330
1944
102
}
330
1F
100
AcDbEntity
  8
rigid
100
AcDbLine
 10
7.671809622765671
 20
5.069244103862072
 30
0.0
 11
7.660712385188137
 21
5.011889436280084
 31
0.0
  0
LINE
  5
183E
330
1F
100
AcDbEntity
  8
rigid
100
AcDbLine
 10
7.674309622765671
 20
5.069244103862072
 30
0.0
 11
7.664100164194341
 21
5.011889436280084
 31
0.0
  0
LINE
  5
183F
330
1F
100
AcDbEntity
  8
rigid
100
AcDbLine
 10
7.676309622765671
 20
5.069244103862072
 30
0.0
 11
7.667431832703645
 21
5.011889436280084
 31
0.0
  0
LINE
  5
1840
330
1F
100
AcDbEntity
  8
rigid
100
AcDbLine
 10
7.67830962276567
 20
5.069244103862071
 30
0.0
 11
7.670763501212949
 21
5.011889436280084
 31
0.0
  0
LINE
  5
1841
330
1F
100
AcDbEntity
  8
rigid
100
AcDbLine
 10
7.680309622765671
 20
5.069244103862072
 30
0.0
 11
7.674095169722251
 21
5.011889436280084
 31
0.0
  0
LINE
  5
1842
330
1F
100
AcDbEntity
  8
rigid
100
AcDbLine
 10
7.68230962276567
 20
5.069244103862071
 30
0.0
 11
7.677426838231555
 21
5.011889436280084
 31
0.0
  0
LINE
  5
1843
330
1F
100
AcDbEntity
  8
rigid
100
AcDbLine
 10
7.68430962276567
 20
5.069244103862072
 30
0.0
 11
7.680758506740859
 21
5.011889436280084
 31
0.0
  0
LINE
  5
1844
330
1F
100
AcDbEntity
  8
rigid
100
AcDbLine
 10
7.69430962276567
 20
5.069244103862072
 30
0.0
 11
7.704519081337002
 21
5.011889436280084
 31
0.0
  0
LINE
  5
1845
330
1F
100
AcDbEntity
  8
rigid
100
AcDbLine
 10
7.692309622765669
 20
5.069244103862072
 30
0.0
 11
7.701187412827698
 21
5.011889436280084
 31
0.0
  0
LINE
  5
1846
330
1F
100
AcDbEntity
  8
rigid
100
AcDbLine
 10
7.690309622765671
 20
5.069244103862071
 30
0.0
 11
7.697855744318395
 21
5.011889436280084
 31
0.0
  0
LINE
  5
1847
330
1F
100
AcDbEntity
  8
rigid
100
AcDbLine
 10
7.688309622765672
 20
5.069244103862072
 30
0.0
 11
7.694524075809091
 21
5.011889436280084
 31
0.0
  0
LINE
  5
1848
330
1F
100
AcDbEntity
  8
rigid
100
AcDbLine
 10
7.686309622765671
 20
5.069244103862071
 30
0.0
 11
7.691192407299787
 21
5.011889436280084
 31
0.0
  0
LINE
  5
1849
330
1F
100
AcDbEntity
  8
rigid
100
AcDbLine
 10
7.68430962276567
 20
5.069244103862072
 30
0.0
 11
7.687860738790483
 21
5.011889436280084
 31
0.0
  0
ARC
  5
1857
330
1F
100
AcDbEntity
  8
dimensions
  6
Continuous
 62
     6
100
AcDbCircle
 10
7.734309622765671
 20
5.131889436280083
 30
0.0
 40
0.0025
100
AcDbArc
 50
90.00000000000337
 51
180.0000000000006
  0
DIMENSION
  5
1907
102
{ACAD_XDICTIONARY
360
1915
102
}
102
{ACAD_REACTORS
330
1920
102
}
330
1F
100
AcDbEntity
  8
dimensions
100
AcDbDimension
  2
*D17
 10
7.739309622765668
 20
4.977736864921608
 30
0.0
 11
7.699309622765669
 21
4.977736864921608
 31
0.0
 70
    32
 71
     5
 42
0.3199999999999932
 73
     0
 74
     0
 75
     0
  3
Standard
100
AcDbAlignedDimension
 13
7.65930962276567
 23
5.083264436280083
 33
0.0
 14
7.739309622765668
 24
5.092014436280082
 34
0.0
100
AcDbRotatedDimension
1001
ACAD
1000
DSTYLE
1002
{
1070
    41
1040
0.02
1070
    42
1040
0.015
1070
    44
1040
0.015
1070
    78
1070
     4
1070
   140
1040
0.02
1070
   144
1040
4.0
1070
   147
1040
0.01
1002
}
  0
DIMENSION
  5
192B
102
{ACAD_XDICTIONARY
360
1939
102
}
102
{ACAD_REACTORS
330
1944
102
}
330
1F
100
AcDbEntity
  8
dimensions
100
AcDbDimension
  2
*D18
 10
7.587962461619842
 20
5.134389436280084
 30
0.0
 11
7.587962461619842
 21
5.073139436280085
 31
0.0
 70
   160
 71
     5
 42
0.490000000000002
 73
     0
 74
     0
 75
     0
  3
Standard
100
AcDbAlignedDimension
 13
7.660712385188137
 23
5.011889436280084
 33
0.0
 14
7.73555962276567
 24
5.134389436280084
 34
0.0
 50
90.0
100
AcDbRotatedDimension
1001
ACAD
1000
DSTYLE
1002
{
1070
    41
1040
0.02
1070
    42
1040
0.015
1070
    44
1040
0.015
1070
    78
1070
     4
1070
   140
1040
0.02
1070
   144
1040
4.0
1070
   147
1040
0.01
1002
}
  0
LINE
  5
195A
102
{ACAD_REACTORS
330
1944
102
}
330
1F
100
AcDbEntity
  8
dimensions
  6
Continuous
 62
     6
100
AcDbLine
 10
7.736809622765671
 20
5.134389436280084
 30
0.0
 11
7.734309622765671
 21
5.134389436280084
 31
0.0
  0
LINE
  5
199B
102
{ACAD_REACTORS
330
76E
102
}
330
1F
100
AcDbEntity
  8
dimensions
  6
Continuous
 62
     6
100
AcDbLine
 10
8.229854849346731
 20
4.651292370392352
 30
0.0
 11
7.969854849346725
 21
4.65129237039235
 31
0.0
  0
LINE
  5
199C
330
1F
100
AcDbEntity
  8
dimensions
  6
Continuous
 62
     6
100
AcDbLine
 10
8.23985484934673
 20
4.831292370392352
 30
0.0
 11
8.23985484934673
 21
4.661292370392351
 31
0.0
  0
ARC
  5
19CF
330
1F
100
AcDbEntity
  8
dimensions
  6
Continuous
 62
     6
100
AcDbCircle
 10
8.229854849346731
 20
4.661292370392351
 30
0.0
 40
0.01
100
AcDbArc
 50
270.0000000000004
 51
0.0
  0
ARC
  5
1AF5
102
{ACAD_REACTORS
330
1B3A
102
}
330
1F
100
AcDbEntity
  8
dimensions
  6
Continuous
 62
     6
100
AcDbCircle
 10
8.239854849346723
 20
4.651292370392348
 30
0.0
 40
0.04
100
AcDbArc
 50
269.9999999999995
 51
359.999999999999
  0
DIMENSION
  5
1B25
102
{ACAD_XDICTIONARY
360
1B31
102
}
102
{ACAD_REACTORS
330
1B3A
102
}
330
1F
100
AcDbEntity
  8
dimensions
100
AcDbDimension
  2
*D19
 10
8.23985484934673
 20
4.651292370392349
 30
0.0
 11
8.395422392679371
 21
4.594160143361773
 31
0.0
 70
   164
 71
     5
 42
0.0399999999999938
 73
     0
 74
     0
 75
     0
  3
Standard
100
AcDbRadialDimension
 15
8.273505145122863
 25
4.629666978044966
 35
0.0
 40
0.0
1001
ACAD
1000
DSTYLE
1002
{
1070
   141
1040
0.0
1070
    41
1040
0.02
1070
    42
1040
0.015
1070
    44
1040
0.015
1070
    78
1070
     4
1070
   140
1040
0.02
1070
   147
1040
0.01
1002
}
  0
TEXT
  5
1C2F
330
1F
100
AcDbEntity
  8
TITLE_BLOCK
  6
Continuous
 62
     7
100
AcDbText
 10
8.533045572295119
 20
3.326935335285114
 30
0.0
 40
0.0334460779016412
  1
M16
 41
0.5
100
AcDbText
  0
LINE
  5
1C32
330
1F
100
AcDbEntity
  8
TITLE_BLOCK
  6
Continuous
 62
     7
100
AcDbLine
 10
8.970910707789773
 20
3.264233015331338
 30
0.0
 11
8.970910707789773
 21
5.22640291889429
 31
0.0
  0
LINE
  5
1CD2
330
1F
100
AcDbEntity
  8
TITLE_BLOCK
  6
Continuous
 62
     7
100
AcDbLine
 10
8.970910707789773
 20
3.264233015331338
 30
0.0
 11
7.454688509582041
 21
3.264233015331338
 31
0.0
  0
TEXT
  5
23B4
330
1F
100
AcDbEntity
  8
TITLE_BLOCK
  6
Continuous
 62
     7
100
AcDbText
 10
8.55194283860855
 20
3.422260581737051
 30
0.0
 40
0.0334460779016412
  1
W/ .270 PILE
 41
0.5
100
AcDbText
  0
TEXT
  5
23CD
330
1F
100
AcDbEntity
  8
TITLE_BLOCK
  6
Continuous
 62
     7
100
AcDbText
 10
7.922933600205016
 20
3.47627518143974
 30
0.0
 40
0.0222973852677608
  1
5 of 8
 41
0.5
100
AcDbText
  0
LINE
  5
243B
330
1F
100
AcDbEntity
  8
rigid
100
AcDbLine
 10
8.215017680772573
 20
4.772311608279997
 30
0.0
 11
8.23985484934673
 21
4.786651354245414
 31
0.0
  0
LINE
  5
245C
330
1F
100
AcDbEntity
  8
rigid
100
AcDbLine
 10
8.215017680772575
 20
4.692311608279998
 30
0.0
 11
8.239854849346732
 21
4.706651354245415
 31
0.0
  0
LINE
  5
245E
330
1F
100
AcDbEntity
  8
rigid
100
AcDbLine
 10
8.279854849346724
 20
4.821292370392354
 30
0.0
 11
8.319692017921722
 21
4.798292370392355
 31
0.0
  0
ARC
  5
245F
330
1F
100
AcDbEntity
  8
rigid
100
AcDbCircle
 10
8.307861890902954
 20
4.707801989336097
 30
0.0
 40
0.0158113883003887
100
AcDbArc
 50
258.4349488188946
 51
41.56505117606468
  0
LINE
  5
2460
330
1F
100
AcDbEntity
  8
rigid
100
AcDbLine
 10
8.279854849346724
 20
4.741292370392354
 30
0.0
 11
8.319692017921722
 21
4.718292370392354
 31
0.0
  0
LINE
  5
2461
330
1F
100
AcDbEntity
  8
rigid
100
AcDbLine
 10
8.30469201792088
 20
4.772311608279997
 30
0.0
 11
8.279854849346723
 21
4.786651354245414
 31
0.0
  0
LINE
  5
2462
330
1F
100
AcDbEntity
  8
rigid
100
AcDbLine
 10
8.304692017920878
 20
4.692311608279998
 30
0.0
 11
8.279854849346721
 21
4.706651354245415
 31
0.0
  0
ARC
  5
248D
330
1F
100
AcDbEntity
  8
rigid
100
AcDbCircle
 10
8.309339654749981
 20
4.786948801981098
 30
0.0
 40
0.0153573424634189
100
AcDbArc
 50
252.3841909685984
 51
47.61580902740333
  0
ARC
  5
248F
330
1F
100
AcDbEntity
  8
rigid
100
AcDbCircle
 10
8.210370043943472
 20
4.786948801981098
 30
0.0
 40
0.0153573424634189
100
AcDbArc
 50
132.3841909725966
 51
287.6158090314016
  0
TEXT
  5
24DA
330
1F
100
AcDbEntity
  8
TITLE_BLOCK
  6
Continuous
 62
     7
100
AcDbText
 10
8.63256593725425
 20
5.138058148358769
 30
0.0
 40
0.0125
  1
REV.
 41
0.5
100
AcDbText
  0
LINE
  5
24DB
330
1F
100
AcDbEntity
  8
TITLE_BLOCK
  6
Continuous
 62
     7
100
AcDbLine
 10
8.626315937254251
 20
5.13180814835877
 30
0.0
 11
8.926315937254251
 21
5.13180814835877
 31
0.0
  0
LINE
  5
24DC
330
1F
100
AcDbEntity
  8
TITLE_BLOCK
  6
Continuous
 62
     7
100
AcDbLine
 10
8.626315937254251
 20
5.15680814835877
 30
0.0
 11
8.926315937254251
 21
5.15680814835877
 31
0.0
  0
LINE
  5
24DD
330
1F
100
AcDbEntity
  8
TITLE_BLOCK
  6
Continuous
 62
     7
100
AcDbLine
 10
8.626315937254251
 20
5.106808148358769
 30
0.0
 11
8.626315937254251
 21
5.181808148358769
 31
0.0
  0
TEXT
  5
24DE
330
1F
100
AcDbEntity
  8
TITLE_BLOCK
  6
Continuous
 62
     7
100
AcDbText
 10
8.751315937254251
 20
5.163058148358769
 30
0.0
 40
0.0125
  1
REVISIONS
 41
0.5
100
AcDbText
  0
LINE
  5
24DF
330
1F
100
AcDbEntity
  8
TITLE_BLOCK
  6
Continuous
 62
     7
100
AcDbLine
 10
8.66381593725425
 20
5.106808148358769
 30
0.0
 11
8.66381593725425
 21
5.15680814835877
 31
0.0
  0
TEXT
  5
24E0
330
1F
100
AcDbEntity
  8
TITLE_BLOCK
  6
Continuous
 62
     7
100
AcDbText
 10
8.713815937254251
 20
5.138058148358769
 30
0.0
 40
0.0125
  1
DESCRIPTION
 41
0.5
100
AcDbText
  0
LINE
  5
24E1
330
1F
100
AcDbEntity
  8
TITLE_BLOCK
  6
Continuous
 62
     7
100
AcDbLine
 10
8.82631593725425
 20
5.15680814835877
 30
0.0
 11
8.82631593725425
 21
5.106808148358769
 31
0.0
  0
LINE
  5
24E2
330
1F
100
AcDbEntity
  8
TITLE_BLOCK
  6
Continuous
 62
     7
100
AcDbLine
 10
8.876315937254251
 20
5.15680814835877
 30
0.0
 11
8.876315937254251
 21
5.106808148358769
 31
0.0
  0
TEXT
  5
24E3
330
1F
100
AcDbEntity
  8
TITLE_BLOCK
  6
Continuous
 62
     7
100
AcDbText
 10
8.838815937254251
 20
5.138058148358769
 30
0.0
 40
0.0125
  1
DATE
 41
0.5
100
AcDbText
  0
TEXT
  5
24E4
330
1F
100
AcDbEntity
  8
TITLE_BLOCK
  6
Continuous
 62
     7
100
AcDbText
 10
8.88256593725425
 20
5.138058148358769
 30
0.0
 40
0.0125
  1
APPV'D
 41
0.5
100
AcDbText
  0
LINE
  5
24E5
330
1F
100
AcDbEntity
  8
AREA
  6
Continuous
100
AcDbLine
 10
8.626315937254251
 20
5.106808148358769
 30
0.0
 11
8.926315937254251
 21
5.106808148358769
 31
0.0
  0
TEXT
  5
24E6
330
1F
100
AcDbEntity
  8
TITLE_BLOCK
  6
Continuous
 62
     7
100
AcDbText
 10
8.639585619023224
 20
5.114167293892507
 30
0.0
 40
0.0125
  1
A
 41
0.5
100
AcDbText
  0
TEXT
  5
24E7
330
1F
100
AcDbEntity
  8
TITLE_BLOCK
  6
Continuous
 62
     7
100
AcDbText
 10
8.68838231814702
 20
5.114167293892507
 30
0.0
 40
0.0125
  1
Made Kerf .030"
 41
0.5
100
AcDbText
  0
TEXT
  5
24E8
330
1F
100
AcDbEntity
  8
TITLE_BLOCK
  6
Continuous
 62
     7
100
AcDbText
 10
8.82818004073391
 20
5.114167293892507
 30
0.0
 40
0.0125
  1
3/21/06
 41
0.5
100
AcDbText
  0
TEXT
  5
24E9
330
1F
100
AcDbEntity
  8
TITLE_BLOCK
  6
Continuous
 62
     7
100
AcDbText
 10
8.888309306496894
 20
5.114167293892506
 30
0.0
 40
0.0125
  1
JMB
 41
0.5
100
AcDbText
  0
TEXT
  5
24F2
330
1F
100
AcDbEntity
  8
TITLE_BLOCK
  6
Continuous
 62
     7
100
AcDbText
 10
8.822608137041083
 20
3.326935335285114
 30
0.0
 40
0.0334460779016412
  1
A
 41
0.5
100
AcDbText
  0
VIEWPORT
  5
2521
330
1B
100
AcDbEntity
 67
     1
  8
0
100
AcDbViewport
 10
3.932716536814357
 20
5.015167882414325
 30
0.0
 40
17.59854199104954
 41
10.1177589980423
 68
     1
 69
     1
 12
3.932716536814357
 22
5.015167882414325
 13
0.0
 23
0.0
 14
0.5
 24
0.5
 15
0.5
 25
0.5
 16
0.0
 26
0.0
 36
1.0
 17
0.0
 27
0.0
 37
0.0
 42
50.0
 43
0.0
 44
0.0
 45
10.1177589980423
 50
0.0
 51
0.0
 72
   100
 90
   819232
  1

281
     0
 71
     1
 74
     0
110
0.0
120
0.0
130
0.0
111
1.0
121
0.0
131
0.0
112
0.0
122
1.0
132
0.0
 79
     0
146
0.0
170
     0
 61
     5
348
24FE
292
     1
282
     1
141
0.0
142
0.0
 63
   250
421
  3355443
  0
VIEWPORT
  5
253D
330
1B
100
AcDbEntity
 67
     1
  8
0
100
AcDbViewport
 10
3.932793163051488
 20
5.015069871510892
 30
0.0
 40
7.843549899341944
 41
10.00610311221372
 68
     2
 69
     2
 12
8.212799608685907
 22
4.245317967112814
 13
0.0
 23
0.0
 14
0.5
 24
0.5
 15
0.5
 25
0.5
 16
0.0
 26
0.0
 36
1.0
 17
0.0
 27
0.0
 37
0.0
 42
50.0
 43
0.0
 44
0.0
 45
1.987488224899248
 50
0.0
 51
0.0
 72
   100
 90
   819296
  1

281
     0
 71
     1
 74
     0
110
0.0
120
0.0
130
0.0
111
1.0
121
0.0
131
0.0
112
0.0
122
1.0
132
0.0
 79
     0
146
0.0
170
     0
 61
     5
348
24FE
292
     1
282
     1
141
0.0
142
0.0
 63
   250
421
  3355443
  0
ENDSEC
  0
SECTION
  2
OBJECTS
  0
DICTIONARY
  5
C
330
0
100
AcDbDictionary
281
     1
  3
ACAD_COLOR
350
474
  3
ACAD_GROUP
350
D
  3
ACAD_LAYOUT
350
1A
  3
ACAD_MATERIAL
350
473
  3
ACAD_MLINESTYLE
350
17
  3
ACAD_PLOTSETTINGS
350
19
  3
ACAD_PLOTSTYLENAME
350
E
  3
ACAD_TABLESTYLE
350
475
  3
ACAD_VISUALSTYLE
350
24F8
  3
AcDbVariableDictionary
350
3E0
  3
ASE_INDEX_DICTIONARY
350
2543
  0
DICTIONARY
  5
2519
330
2
100
AcDbDictionary
280
     1
281
     1
  3
ACAD_LAYERSTATES
360
251A
  0
DICTIONARY
  5
49B
330
1F
100
AcDbDictionary
280
     1
281
     1
  3
ACAD_SORTENTS
360
49C
  0
DICTIONARY
  5
6D1
330
6C2
100
AcDbDictionary
280
     1
281
     1
  3
ACAD_DIMASSOC
360
6DD
  0
DICTIONARY
  5
735
330
727
100
AcDbDictionary
280
     1
281
     1
  3
ACAD_DIMASSOC
360
740
  0
DICTIONARY
  5
763
330
755
100
AcDbDictionary
280
     1
281
     1
  3
ACAD_DIMASSOC
360
76E
  0
DICTIONARY
  5
8F6
330
8E7
100
AcDbDictionary
280
     1
281
     1
  3
ACAD_DIMASSOC
360
902
  0
DICTIONARY
  5
AE6
330
AD8
100
AcDbDictionary
280
     1
281
     1
  3
ACAD_DIMASSOC
360
AF1
  0
DICTIONARY
  5
B1F
330
B10
100
AcDbDictionary
280
     1
281
     1
  3
ACAD_DIMASSOC
360
B2B
  0
DICTIONARY
  5
CBC
330
CAD
100
AcDbDictionary
280
     1
281
     1
  3
ACAD_DIMASSOC
360
CC8
  0
DICTIONARY
  5
DAB
330
D9D
100
AcDbDictionary
280
     1
281
     1
  3
ACAD_DIMASSOC
360
DB6
  0
DICTIONARY
  5
1915
330
1907
100
AcDbDictionary
280
     1
281
     1
  3
ACAD_DIMASSOC
360
1920
  0
DICTIONARY
  5
1939
330
192B
100
AcDbDictionary
280
     1
281
     1
  3
ACAD_DIMASSOC
360
1944
  0
DICTIONARY
  5
1B31
330
1B25
100
AcDbDictionary
280
     1
281
     1
  3
ACAD_DIMASSOC
360
1B3A
  0
DICTIONARY
  5
474
102
{ACAD_REACTORS
330
C
102
}
330
C
100
AcDbDictionary
281
     1
  0
DICTIONARY
  5
D
102
{ACAD_REACTORS
330
C
102
}
330
C
100
AcDbDictionary
281
     1
  0
DICTIONARY
  5
1A
102
{ACAD_REACTORS
330
C
102
}
330
C
100
AcDbDictionary
281
     1
  3
Layout1
350
1E
  3
Model
350
22
  0
DICTIONARY
  5
473
102
{ACAD_REACTORS
330
C
102
}
330
C
100
AcDbDictionary
281
     1
  3
ByBlock
350
24F6
  3
ByLayer
350
24F5
  3
Global
350
24F7
  0
DICTIONARY
  5
17
102
{ACAD_REACTORS
330
C
102
}
330
C
100
AcDbDictionary
281
     1
  3
Standard
350
18
  0
DICTIONARY
  5
19
102
{ACAD_REACTORS
330
C
102
}
330
C
100
AcDbDictionary
281
     1
  3
5 to 1
350
3B2
  0
ACDBDICTIONARYWDFLT
  5
E
102
{ACAD_REACTORS
330
C
102
}
330
C
100
AcDbDictionary
281
     1
  3
Normal
350
F
100
AcDbDictionaryWithDefault
340
F
  0
DICTIONARY
  5
475
102
{ACAD_REACTORS
330
C
102
}
330
C
100
AcDbDictionary
281
     1
  3
Standard
350
476
  0
DICTIONARY
  5
24F8
102
{ACAD_REACTORS
330
C
102
}
330
C
100
AcDbDictionary
281
     1
  3
2dWireframe
350
24FE
  3
3D Hidden
350
2500
  3
3dWireframe
350
24FF
  3
Basic
350
24FD
  3
Brighten
350
2504
  3
ColorChange
350
2508
  3
Conceptual
350
2501
  3
Dim
350
2503
  3
Facepattern
350
2507
  3
Flat
350
24F9
  3
FlatWithEdges
350
24FA
  3
Gouraud
350
24FB
  3
GouraudWithEdges
350
24FC
  3
Linepattern
350
2506
  3
Realistic
350
2502
  3
Thicken
350
2505
  0
DICTIONARY
  5
3E0
102
{ACAD_REACTORS
330
C
102
}
330
C
100
AcDbDictionary
281
     1
  3
CTABLESTYLE
350
498
  3
DIMASSOC
350
3E2
  3
HIDETEXT
350
3E1
  0
DICTIONARY
  5
2543
102
{ACAD_REACTORS
330
C
102
}
330
C
100
AcDbDictionary
281
     1
  3
ASEBlockHierarchyIndexRecord
350
2544
1001
DCO15
1040
1608369412.428
  0
DICTIONARY
  5
251A
102
{ACAD_REACTORS
330
2519
102
}
330
2519
100
AcDbDictionary
281
     1
  0
SORTENTSTABLE
  5
49C
102
{ACAD_REACTORS
330
49B
102
}
330
49B
100
AcDbSortentsTable
330
1F
331
ACE
  5
CA4
331
3CC
  5
3CC
331
1AF5
  5
4E2
331
F1B
  5
160F
331
13B2
  5
17F5
331
1828
  5
1833
331
AD6
  5
CAC
331
3D4
  5
3D4
331
8E7
  5
C63
331
3DC
  5
3DC
331
17F1
  5
17F9
331
1838
  5
1840
331
17F9
  5
1801
331
1840
  5
1848
331
602
  5
C4C
331
1801
  5
1809
331
1848
  5
19CF
331
3B5
  5
3B5
331
1732
  5
4E4
331
CA5
  5
102C
331
1809
  5
1823
331
6C2
  5
C4D
331
3BD
  5
3BD
331
CAD
  5
1035
331
3C5
  5
3C5
331
4A4
  5
5D4
331
F0C
  5
1037
331
1821
  5
1829
331
ACF
  5
CA5
331
3CD
  5
3CD
331
F1C
  5
1618
331
1829
  5
1834
331
3D5
  5
3D5
331
D9D
  5
1036
331
1831
  5
1839
331
3DD
  5
3DD
331
19CF
  5
4D3
331
17F2
  5
17FA
331
1839
  5
1841
331
869
  5
C53
331
11F4
  5
1732
331
17FA
  5
1802
331
1841
  5
1849
331
1802
  5
181A
331
1849
  5
1A1C
331
3B6
  5
3B6
331
CA6
  5
102D
331
3BE
  5
3BE
331
1C32
  5
23B4
331
181A
  5
1824
331
1822
  5
182A
331
3C6
  5
3C6
331
4A5
  5
4EE
331
AD0
  5
CA6
331
182A
  5
1835
331
1CD2
  5
23C7
331
3CE
  5
3CE
331
C4F
  5
F0E
331
AD8
  5
CAD
331
1832
  5
183A
331
3D6
  5
3D6
331
5D4
  5
B10
331
3DE
  5
3DE
331
C5F
  5
F60
331
17F3
  5
17FB
331
183A
  5
1842
331
86A
  5
C55
331
17FB
  5
1803
331
1842
  5
1857
331
4DD
  5
755
331
B10
  5
D9D
331
1724
  5
17F6
331
1803
  5
181B
331
1B25
  5
1C32
331
4ED
  5
ACF
331
CA7
  5
102E
331
3B7
  5
3B7
331
3BF
  5
3BF
331
53D
  5
AD6
331
181B
  5
1825
331
AC9
  5
C9E
331
F0E
  5
1038
331
1823
  5
182B
331
3C7
  5
3C7
331
182B
  5
1836
331
AD1
  5
CA7
331
C50
  5
F0F
331
1833
  5
183B
331
3D7
  5
3D7
331
4D6
  5
AD1
331
17F4
  5
17FC
331
C60
  5
F61
331
183B
  5
1843
331
86B
  5
C5F
331
1605
  5
4E1
331
17FC
  5
1804
331
1843
  5
1907
331
4DE
  5
ACB
331
1804
  5
181C
331
4EE
  5
AD5
331
3B8
  5
3B8
331
CA8
  5
1030
331
243B
  5
AD3
331
3C0
  5
3C0
331
181C
  5
1826
331
ACA
  5
C9F
331
3C8
  5
3C8
331
F0F
  5
1605
331
1824
  5
182C
331
195A
  5
1A1D
331
AD2
  5
CA8
331
182C
  5
1837
331
C51
  5
F19
331
3D8
  5
3D8
331
1834
  5
183C
331
C61
  5
1023
331
17F5
  5
17FD
331
183C
  5
1844
331
86C
  5
C60
331
1606
  5
4EB
331
17FD
  5
1805
331
1844
  5
192B
331
192B
  5
1A65
331
23B4
  5
23CB
331
CA1
  5
1028
331
1805
  5
181D
331
3B9
  5
3B9
331
CA9
  5
1031
331
3C1
  5
3C1
331
181D
  5
1827
331
755
  5
C51
331
3C9
  5
3C9
331
ACB
  5
CA1
331
13AF
  5
1761
331
1825
  5
182D
331
AD3
  5
CA9
331
199B
  5
53D
331
182D
  5
1838
331
C52
  5
F1B
331
3D9
  5
3D9
331
1835
  5
183D
331
F60
  5
1724
331
C62
  5
1024
331
17F6
  5
17FE
331
183D
  5
1845
331
17FE
  5
1806
331
1845
  5
195A
331
CA2
  5
1029
331
1806
  5
1820
331
23CD
  5
243B
331
3BA
  5
3BA
331
CAA
  5
1032
331
4A1
  5
602
331
3C2
  5
3C2
331
8A5
  5
C62
331
3CA
  5
3CA
331
ACC
  5
CA2
331
F19
  5
1606
331
13B0
  5
17F1
331
1826
  5
1831
331
AD4
  5
CAA
331
3D2
  5
3D2
331
199C
  5
4A2
331
C53
  5
F1C
331
3DA
  5
3DA
331
1836
  5
183E
331
F61
  5
1731
331
C63
  5
1025
331
17F7
  5
17FF
331
183E
  5
1846
331
727
  5
C4F
331
4E9
  5
ACC
331
C7B
  5
1026
331
17FF
  5
1807
331
1846
  5
199B
331
3B3
  5
3B3
331
CA3
  5
102A
331
1807
  5
1821
331
1C2F
  5
1CDD
331
3BB
  5
3BB
331
CAB
  5
1033
331
3C3
  5
3C3
331
ACD
  5
CA3
331
3CB
  5
3CB
331
561
  5
AD8
331
13B1
  5
17F4
331
1827
  5
1832
331
C4C
  5
F0C
331
AD5
  5
CAB
331
3D3
  5
3D3
331
3DB
  5
3DB
331
1837
  5
183F
331
17F0
  5
17F8
331
17F8
  5
1800
331
183F
  5
1847
331
C7C
  5
1027
331
1800
  5
1808
331
1847
  5
199C
331
877
  5
C61
331
3B4
  5
3B4
331
CA4
  5
102B
331
1731
  5
17F7
331
1808
  5
1822
331
3BC
  5
3BC
331
1857
  5
1A1E
331
1761
  5
561
331
CAC
  5
1034
331
3C4
  5
3C4
331
1907
  5
1A64
331
1820
  5
1828
  0
DIMASSOC
  5
6DD
102
{ACAD_REACTORS
330
6D1
102
}
330
6D1
100
AcDbDimAssoc
330
6C2
 90
        1
 70
     0
 71
     0
  1
AcDbOsnapPointRef
 72
     1
331
4A1
 73
     2
 91
        0
 40
1.0
 10
0.0
 20
0.0
 30
2.000000000000000E+50
 75
     0
  0
DIMASSOC
  5
740
102
{ACAD_REACTORS
330
735
102
}
330
735
100
AcDbDimAssoc
330
727
 90
        1
 70
     0
 71
     0
  1
AcDbOsnapPointRef
 72
     1
331
4A1
 73
     2
 91
        0
 40
1.0
 10
0.0
 20
0.0
 30
2.000000000000000E+50
 75
     0
  0
DIMASSOC
  5
76E
102
{ACAD_REACTORS
330
763
102
}
330
763
100
AcDbDimAssoc
330
755
 90
        1
 70
     0
 71
     0
  1
AcDbOsnapPointRef
 72
     1
331
4A1
 73
     2
 91
        0
 40
1.0
 10
0.0
 20
0.0
 30
2.000000000000000E+50
 75
     0
  0
DIMASSOC
  5
902
102
{ACAD_REACTORS
330
8F6
102
}
330
8F6
100
AcDbDimAssoc
330
8E7
 90
        3
 70
     0
 71
     0
  1
AcDbOsnapPointRef
 72
     1
331
4A5
 73
     2
 91
        0
 40
4.712388980384689
 10
0.0
 20
0.0
 30
2.000000000000000E+50
 75
     0
  1
AcDbOsnapPointRef
 72
    13
331
86C
 73
     2
 91
        0
 40
0.0
 10
0.0
 20
0.0
 30
2.000000000000000E+50
 75
     0
  0
DIMASSOC
  5
AF1
102
{ACAD_REACTORS
330
AE6
102
}
330
AE6
100
AcDbDimAssoc
330
AD8
 90
        3
 70
     0
 71
     0
  1
AcDbOsnapPointRef
 72
    13
331
AD6
 73
     2
 91
        0
 40
0.0
 10
0.0
 20
0.0
 30
2.000000000000000E+50
 75
     0
  1
AcDbOsnapPointRef
 72
     1
331
AD6
 73
     2
 91
        0
 40
1.0
 10
0.0
 20
0.0
 30
2.000000000000000E+50
 75
     0
  0
DIMASSOC
  5
B2B
102
{ACAD_REACTORS
330
B1F
102
}
330
B1F
100
AcDbDimAssoc
330
B10
 90
        3
 70
     0
 71
     0
  1
AcDbOsnapPointRef
 72
    13
331
AD6
 73
     2
 91
        0
 40
0.0
 10
0.0
 20
0.0
 30
2.000000000000000E+50
 75
     0
  1
AcDbOsnapPointRef
 72
    13
331
AD5
 73
     2
 91
        0
 40
0.0
 10
0.0
 20
0.0
 30
2.000000000000000E+50
 75
     0
  0
DIMASSOC
  5
CC8
102
{ACAD_REACTORS
330
CBC
102
}
330
CBC
100
AcDbDimAssoc
330
CAD
 90
        3
 70
     0
 71
     0
  1
AcDbOsnapPointRef
 72
     1
331
C4C
 73
     2
 91
        0
 40
1.0
 10
0.0
 20
0.0
 30
2.000000000000000E+50
 75
     0
  1
AcDbOsnapPointRef
 72
     1
331
C7C
 73
     2
 91
        0
 40
1.0
 10
0.0
 20
0.0
 30
2.000000000000000E+50
 75
     0
  0
DIMASSOC
  5
DB6
102
{ACAD_REACTORS
330
DAB
102
}
330
DAB
100
AcDbDimAssoc
330
D9D
 90
        3
 70
     0
 71
     0
  1
AcDbOsnapPointRef
 72
     1
331
AD6
 73
     2
 91
        0
 40
1.0
 10
0.0
 20
0.0
 30
2.000000000000000E+50
 75
     0
  1
AcDbOsnapPointRef
 72
     1
331
C7B
 73
     2
 91
        0
 40
1.0
 10
0.0
 20
0.0
 30
2.000000000000000E+50
 75
     0
  0
DIMASSOC
  5
1920
102
{ACAD_REACTORS
330
1915
102
}
330
1915
100
AcDbDimAssoc
330
1907
 90
        3
 70
     0
 71
     0
  1
AcDbOsnapPointRef
 72
     2
331
17F8
 73
     2
 91
        0
 40
0.5
 10
0.0
 20
0.0
 30
0.0
 75
     0
  1
AcDbOsnapPointRef
 72
     1
331
17F4
 73
     2
 91
        0
 40
6.283185307179586
 10
0.0
 20
0.0
 30
2.000000000000000E+50
 75
     0
  0
DIMASSOC
  5
1944
102
{ACAD_REACTORS
330
1939
102
}
330
1939
100
AcDbDimAssoc
330
192B
 90
        1
 70
     0
 71
     0
  1
AcDbOsnapPointRef
 72
     1
331
183D
 73
     2
 91
        0
 40
0.9999999999999998
 10
0.0
 20
0.0
 30
2.000000000000000E+50
 75
     0
  0
DIMASSOC
  5
1B3A
102
{ACAD_REACTORS
330
1B31
102
}
330
1B31
100
AcDbDimAssoc
330
1B25
 90
        2
 70
     0
 71
     0
  1
AcDbOsnapPointRef
 72
     3
331
1AF5
 73
     2
 91
        0
 40
0.0
 10
0.0
 20
0.0
 30
0.0
 75
     0
  0
LAYOUT
  5
1E
102
{ACAD_XDICTIONARY
360
2528
102
}
102
{ACAD_REACTORS
330
1A
102
}
330
1A
100
AcDbPlotSettings
  1

  2
HP LaserJet 4V
  4
Letter
  6

 40
5.873749732971191
 41
10.9537296295166
 42
10.53041076660156
 43
13.49374389648437
 44
215.8999938964844
 45
279.3999938964844
 46
0.0
 47
0.0
 48
0.0
 49
0.0
140
0.0
141
0.0
142
1.0
143
1.0
 70
   688
 72
     0
 73
     0
 74
     5
  7
monochrome.ctb
 75
    16
147
1.0
 76
     0
 77
     2
 78
   300
148
0.0
149
0.0
100
AcDbLayout
  1
Layout1
 70
     1
 71
     1
 10
-0.2312499894870548
 20
-0.4312491980124646
 11
8.268749770217056
 21
10.56875056169164
 12
0.0
 22
0.0
 32
0.0
 14
0.0110182133805168
 24
0.0120183154040312
 34
0.0
 15
7.854568112722461
 25
10.01812142761775
 35
0.0
146
0.0
 13
0.0
 23
0.0
 33
0.0
 16
1.0
 26
0.0
 36
0.0
 17
0.0
 27
1.0
 37
0.0
 76
     0
330
1B
331
2521
1001
ACAD_PSEXT
1000
HP LaserJet 4V
1000
HP LaserJet 4V
1000
IP_10.1.1.26
1000

1070
     0
  0
LAYOUT
  5
22
102
{ACAD_REACTORS
330
1A
102
}
330
1A
100
AcDbPlotSettings
  1
5 to 1
  2
HP LaserJet 4V
  4
Letter
  6

 40
5.873749732971191
 41
10.95374488830566
 42
10.53041076660156
 43
13.49374389648437
 44
215.8999938964844
 45
279.3999938964844
 46
3.302
 47
2.794
 48
0.0
 49
0.0
140
0.0
141
0.0
142
1.0
143
0.2
 70
 11940
 72
     0
 73
     0
 74
     1
  7
monochrome.ctb
 75
     0
147
5.0
 76
     0
 77
     2
 78
   300
148
-189.3279794456995
149
-82.90656801157929
100
AcDbLayout
  1
Model
 70
     1
 71
     0
 10
0.0
 20
0.0
 11
12.0
 21
9.0
 12
0.0
 22
0.0
 32
0.0
 14
0.0
 24
0.0
 34
0.0
 15
0.0
 25
0.0
 35
0.0
146
0.0
 13
0.0
 23
0.0
 33
0.0
 16
1.0
 26
0.0
 36
0.0
 17
0.0
 27
1.0
 37
0.0
 76
     0
330
1F
  0
MATERIAL
  5
24F6
102
{ACAD_REACTORS
330
473
102
}
330
473
100
AcDbMaterial
  1
ByBlock
  0
MATERIAL
  5
24F5
102
{ACAD_REACTORS
330
473
102
}
330
473
100
AcDbMaterial
  1
ByLayer
  0
MATERIAL
  5
24F7
102
{ACAD_REACTORS
330
473
102
}
330
473
100
AcDbMaterial
  1
Global
  0
MLINESTYLE
  5
18
102
{ACAD_REACTORS
330
17
102
}
330
17
100
AcDbMlineStyle
  2
STANDARD
 70
     0
  3

 62
   256
 51
90.0
 52
90.0
 71
     2
 49
0.5
 62
   256
  6
BYLAYER
 49
-0.5
 62
   256
  6
BYLAYER
  0
PLOTSETTINGS
  5
3B2
102
{ACAD_REACTORS
330
19
102
}
330
19
100
AcDbPlotSettings
  1
5 to 1
  2
HP LaserJet 4V
  4
Letter
  6

 40
5.873749732971191
 41
10.95374488830566
 42
10.53041076660156
 43
13.49374389648437
 44
215.8999938964844
 45
279.3999938964844
 46
-13.462
 47
-19.05
 48
0.0
 49
0.0
140
0.0
141
0.0
142
1.0
143
0.2
 70
  1700
 72
     0
 73
     0
 74
     1
  7
monochrome.ctb
 75
     0
147
5.0
 76
     0
 77
     2
 78
   300
148
-185.8630746565096
149
-78.09290833800671
  0
ACDBPLACEHOLDER
  5
F
102
{ACAD_REACTORS
330
E
102
}
330
E
  0
TABLESTYLE
  5
476
102
{ACAD_REACTORS
330
475
102
}
330
475
100
AcDbTableStyle
  3
Standard
 70
     0
 71
     0
 40
0.06
 41
0.06
280
     0
281
     0
  7
Standard
140
0.18
170
     2
 62
     0
 63
     7
283
     0
 90
        4
 91
        0
  1

274
    -2
284
     1
 64
     0
275
    -2
285
     1
 65
     0
276
    -2
286
     1
 66
     0
277
    -2
287
     1
 67
     0
278
    -2
288
     1
 68
     0
279
    -2
289
     1
 69
     0
  7
Standard
140
0.25
170
     5
 62
     0
 63
     7
283
     0
 90
        4
 91
        0
  1

274
    -2
284
     1
 64
     0
275
    -2
285
     1
 65
     0
276
    -2
286
     1
 66
     0
277
    -2
287
     1
 67
     0
278
    -2
288
     1
 68
     0
279
    -2
289
     1
 69
     0
  7
Standard
140
0.18
170
     5
 62
     0
 63
     7
283
     0
 90
        4
 91
        0
  1

274
    -2
284
     1
 64
     0
275
    -2
285
     1
 65
     0
276
    -2
286
     1
 66
     0
277
    -2
287
     1
 67
     0
278
    -2
288
     1
 68
     0
279
    -2
289
     1
 69
     0
  0
VISUALSTYLE
  5
24FE
102
{ACAD_REACTORS
330
24F8
102
}
330
24F8
100
AcDbVisualStyle
  2
2dWireframe
 70
     4
 71
     0
 72
     2
 73
     0
 90
        0
 40
-0.6
 41
-30.0
 62
     5
 63
     7
421
 16777215
 74
     1
 91
        4
 64
     7
 65
   257
 75
     1
175
     1
 42
1.0
 92
        0
 66
   257
 43
1.0
 76
     1
 77
     6
 78
     2
 67
     7
 79
     5
170
     0
171
     0
290
     0
174
     0
 93
        1
 44
0.0
173
     0
291
     0
 45
0.0
  0
VISUALSTYLE
  5
2500
102
{ACAD_REACTORS
330
24F8
102
}
330
24F8
100
AcDbVisualStyle
  2
3D Hidden
 70
     6
 71
     1
 72
     2
 73
     2
 90
        0
 40
-0.6
 41
-30.0
 62
     5
 63
     7
421
 16777215
 74
     2
 91
        2
 64
     7
 65
   257
 75
     2
175
     1
 42
40.0
 92
        0
 66
   257
 43
1.0
 76
     1
 77
     6
 78
     2
 67
     7
 79
     3
170
     0
171
     0
290
     0
174
     0
 93
        1
 44
0.0
173
     0
291
     0
 45
0.0
  0
VISUALSTYLE
  5
24FF
102
{ACAD_REACTORS
330
24F8
102
}
330
24F8
100
AcDbVisualStyle
  2
3dWireframe
 70
     5
 71
     0
 72
     2
 73
     0
 90
        0
 40
-0.6
 41
-30.0
 62
     5
 63
     7
421
 16777215
 74
     1
 91
        4
 64
     7
 65
   257
 75
     1
175
     1
 42
1.0
 92
        0
 66
   257
 43
1.0
 76
     1
 77
     6
 78
     2
 67
     7
 79
     5
170
     0
171
     0
290
     0
174
     0
 93
        1
 44
0.0
173
     0
291
     0
 45
0.0
  0
VISUALSTYLE
  5
24FD
102
{ACAD_REACTORS
330
24F8
102
}
330
24F8
100
AcDbVisualStyle
  2
Basic
 70
     7
 71
     1
 72
     0
 73
     1
 90
        0
 40
-0.6
 41
-30.0
 62
     5
 63
     7
421
 16777215
 74
     0
 91
        4
 64
     7
 65
   257
 75
     1
175
     1
 42
1.0
 92
        8
 66
     7
 43
1.0
 76
     1
 77
     6
 78
     2
 67
     7
 79
     5
170
     0
171
     0
290
     0
174
     0
 93
        1
 44
0.0
173
     0
291
     1
 45
0.0
  0
VISUALSTYLE
  5
2504
102
{ACAD_REACTORS
330
24F8
102
}
330
24F8
100
AcDbVisualStyle
  2
Brighten
 70
    12
 71
     2
 72
     2
 73
     0
 90
        0
 40
-0.6
 41
-30.0
 62
     5
 63
     7
421
 16777215
 74
     1
 91
        4
 64
     7
 65
   257
 75
     1
175
     1
 42
1.0
 92
        8
 66
     7
 43
1.0
 76
     1
 77
     6
 78
     2
 67
     7
 79
     5
170
     0
171
     0
290
     0
174
     0
 93
        1
 44
50.0
173
     0
291
     1
 45
0.0
  0
VISUALSTYLE
  5
2508
102
{ACAD_REACTORS
330
24F8
102
}
330
24F8
100
AcDbVisualStyle
  2
ColorChange
 70
    16
 71
     2
 72
     2
 73
     3
 90
        0
 40
-0.6
 41
-30.0
 62
     5
 63
     8
421
  8421504
 74
     1
 91
        4
 64
     7
 65
   257
 75
     1
175
     1
 42
1.0
 92
        8
 66
     8
424
  8421504
 43
1.0
 76
     1
 77
     6
 78
     2
 67
     7
 79
     5
170
     0
171
     0
290
     0
174
     0
 93
        1
 44
0.0
173
     0
291
     1
 45
0.0
  0
VISUALSTYLE
  5
2501
102
{ACAD_REACTORS
330
24F8
102
}
330
24F8
100
AcDbVisualStyle
  2
Conceptual
 70
     9
 71
     3
 72
     2
 73
     0
 90
        0
 40
-0.6
 41
-30.0
 62
     5
 63
     7
421
 16777215
 74
     2
 91
        2
 64
     7
 65
   257
 75
     1
175
     1
 42
40.0
 92
        8
 66
     7
 43
1.0
 76
     1
 77
     6
 78
     2
 67
     7
 79
     3
170
     0
171
     0
290
     0
174
     0
 93
        1
 44
0.0
173
     0
291
     0
 45
0.0
  0
VISUALSTYLE
  5
2503
102
{ACAD_REACTORS
330
24F8
102
}
330
24F8
100
AcDbVisualStyle
  2
Dim
 70
    11
 71
     2
 72
     2
 73
     0
 90
        0
 40
-0.6
 41
-30.0
 62
     5
 63
     7
421
 16777215
 74
     1
 91
        4
 64
     7
 65
   257
 75
     1
175
     1
 42
1.0
 92
        8
 66
     7
 43
1.0
 76
     1
 77
     6
 78
     2
 67
     7
 79
     5
170
     0
171
     0
290
     0
174
     0
 93
        1
 44
-50.0
173
     0
291
     1
 45
0.0
  0
VISUALSTYLE
  5
2507
102
{ACAD_REACTORS
330
24F8
102
}
330
24F8
100
AcDbVisualStyle
  2
Facepattern
 70
    15
 71
     2
 72
     2
 73
     0
 90
        0
 40
-0.6
 41
-30.0
 62
     5
 63
     7
421
 16777215
 74
     1
 91
        4
 64
     7
 65
   257
 75
     1
175
     1
 42
1.0
 92
        8
 66
     7
 43
1.0
 76
     1
 77
     6
 78
     2
 67
     7
 79
     5
170
     0
171
     0
290
     0
174
     0
 93
        1
 44
0.0
173
     0
291
     1
 45
0.0
  0
VISUALSTYLE
  5
24F9
102
{ACAD_REACTORS
330
24F8
102
}
330
24F8
100
AcDbVisualStyle
  2
Flat
 70
     0
 71
     2
 72
     1
 73
     1
 90
        2
 40
-0.6
 41
30.0
 62
     5
 63
     7
421
 16777215
 74
     0
 91
        4
 64
     7
 65
   257
 75
     1
175
     1
 42
1.0
 92
        8
 66
     7
 43
1.0
 76
     1
 77
     6
 78
     2
 67
     7
 79
     5
170
     0
171
     0
290
     0
174
     0
 93
       13
 44
0.0
173
     0
291
     1
 45
0.0
  0
VISUALSTYLE
  5
24FA
102
{ACAD_REACTORS
330
24F8
102
}
330
24F8
100
AcDbVisualStyle
  2
FlatWithEdges
 70
     1
 71
     2
 72
     1
 73
     1
 90
        2
 40
-0.6
 41
30.0
 62
     5
 63
     7
421
 16777215
 74
     1
 91
        4
 64
     7
 65
   257
 75
     1
175
     1
 42
1.0
 92
        0
 66
   257
 43
1.0
 76
     1
 77
     6
 78
     2
 67
     7
 79
     5
170
     0
171
     0
290
     0
174
     0
 93
       13
 44
0.0
173
     0
291
     1
 45
0.0
  0
VISUALSTYLE
  5
24FB
102
{ACAD_REACTORS
330
24F8
102
}
330
24F8
100
AcDbVisualStyle
  2
Gouraud
 70
     2
 71
     2
 72
     2
 73
     1
 90
        2
 40
-0.6
 41
30.0
 62
     5
 63
     7
421
 16777215
 74
     0
 91
        4
 64
     7
 65
   257
 75
     1
175
     1
 42
1.0
 92
        0
 66
     7
 43
1.0
 76
     1
 77
     6
 78
     2
 67
     7
 79
     5
170
     0
171
     0
290
     0
174
     0
 93
       13
 44
0.0
173
     0
291
     1
 45
0.0
  0
VISUALSTYLE
  5
24FC
102
{ACAD_REACTORS
330
24F8
102
}
330
24F8
100
AcDbVisualStyle
  2
GouraudWithEdges
 70
     3
 71
     2
 72
     2
 73
     1
 90
        2
 40
-0.6
 41
30.0
 62
     5
 63
     7
421
 16777215
 74
     1
 91
        4
 64
     7
 65
   257
 75
     1
175
     1
 42
1.0
 92
        0
 66
   257
 43
1.0
 76
     1
 77
     6
 78
     2
 67
     7
 79
     5
170
     0
171
     0
290
     0
174
     0
 93
       13
 44
0.0
173
     0
291
     1
 45
0.0
  0
VISUALSTYLE
  5
2506
102
{ACAD_REACTORS
330
24F8
102
}
330
24F8
100
AcDbVisualStyle
  2
Linepattern
 70
    14
 71
     2
 72
     2
 73
     0
 90
        0
 40
-0.6
 41
-30.0
 62
     5
 63
     7
421
 16777215
 74
     1
 91
        4
 64
     7
 65
   257
 75
     7
175
     7
 42
1.0
 92
        8
 66
     7
 43
1.0
 76
     1
 77
     6
 78
     2
 67
     7
 79
     5
170
     0
171
     0
290
     0
174
     0
 93
        1
 44
0.0
173
     0
291
     1
 45
0.0
  0
VISUALSTYLE
  5
2502
102
{ACAD_REACTORS
330
24F8
102
}
330
24F8
100
AcDbVisualStyle
  2
Realistic
 70
     8
 71
     2
 72
     2
 73
     0
 90
        0
 40
-0.6
 41
-30.0
 62
     5
 63
     7
421
 16777215
 74
     1
 91
        0
 64
     7
 65
   257
 75
     1
175
     1
 42
1.0
 92
        8
 66
     8
424
  7895160
 43
1.0
 76
     1
 77
     6
 78
     2
 67
     7
 79
     5
170
     0
171
     0
290
     0
174
     0
 93
       13
 44
0.0
173
     0
291
     0
 45
0.0
  0
VISUALSTYLE
  5
2505
102
{ACAD_REACTORS
330
24F8
102
}
330
24F8
100
AcDbVisualStyle
  2
Thicken
 70
    13
 71
     2
 72
     2
 73
     0
 90
        0
 40
-0.6
 41
-30.0
 62
     5
 63
     7
421
 16777215
 74
     1
 91
        4
 64
     7
 65
   257
 75
     1
175
     1
 42
1.0
 92
       12
 66
     7
 43
1.0
 76
     1
 77
     6
 78
     2
 67
     7
 79
     5
170
     0
171
     0
290
     0
174
     0
 93
        1
 44
0.0
173
     0
291
     1
 45
0.0
  0
DICTIONARYVAR
  5
498
102
{ACAD_REACTORS
330
3E0
102
}
330
3E0
100
DictionaryVariables
280
     0
  1
STANDARD
  0
DICTIONARYVAR
  5
3E2
102
{ACAD_REACTORS
330
3E0
102
}
330
3E0
100
DictionaryVariables
280
     0
  1
2
  0
DICTIONARYVAR
  5
3E1
102
{ACAD_REACTORS
330
3E0
102
}
330
3E0
100
DictionaryVariables
280
     0
  1
1
  0
XRECORD
  5
2544
102
{ACAD_REACTORS
330
2543
102
}
330
2543
100
AcDbXrecord
280
     1
  0
DICTIONARY
  5
2528
330
1E
100
AcDbDictionary
280
     1
281
     1
  3
ADSK_XREC_LAYOUTTHUMBNAIL
360
2529
  0
XRECORD
  5
2529
102
{ACAD_REACTORS
330
2528
102
}
330
2528
100
AcDbXrecord
280
     1
310
280000006B0000008C0000000100080000000000103B000000000000000000000001000000000000FFFFFF0000000000FFFFFF000000000000000000000000000000000000000000000000000000000000000000330000006600000099000000CC000000FF00000000330000333300006633000099330000CC330000FF3300
310
0000660000336600006666000099660000CC660000FF66000000990000339900006699000099990000CC990000FF99000000CC000033CC000066CC000099CC0000CCCC0000FFCC000000FF000033FF000066FF000099FF0000CCFF0000FFFF000000003300330033006600330099003300CC003300FF003300003333003333
310
33006633330099333300CC333300FF33330000663300336633006666330099663300CC663300FF66330000993300339933006699330099993300CC993300FF99330000CC330033CC330066CC330099CC3300CCCC3300FFCC330000FF330033FF330066FF330099FF3300CCFF3300FFFF330000006600330066006600660099
310
006600CC006600FF00660000336600333366006633660099336600CC336600FF33660000666600336666006666660099666600CC666600FF66660000996600339966006699660099996600CC996600FF99660000CC660033CC660066CC660099CC6600CCCC6600FFCC660000FF660033FF660066FF660099FF6600CCFF6600
310
FFFF660000009900330099006600990099009900CC009900FF00990000339900333399006633990099339900CC339900FF33990000669900336699006666990099669900CC669900FF66990000999900339999006699990099999900CC999900FF99990000CC990033CC990066CC990099CC9900CCCC9900FFCC990000FF99
310
0033FF990066FF990099FF9900CCFF9900FFFF99000000CC003300CC006600CC009900CC00CC00CC00FF00CC000033CC003333CC006633CC009933CC00CC33CC00FF33CC000066CC003366CC006666CC009966CC00CC66CC00FF66CC000099CC003399CC006699CC009999CC00CC99CC00FF99CC0000CCCC0033CCCC0066CC
310
CC0099CCCC00CCCCCC00FFCCCC0000FFCC0033FFCC0066FFCC0099FFCC00CCFFCC00FFFFCC000000FF003300FF006600FF009900FF00CC00FF00FF00FF000033FF003333FF006633FF009933FF00CC33FF00FF33FF000066FF003366FF006666FF009966FF00CC66FF00FF66FF000099FF003399FF006699FF009999FF00CC
310
99FF00FF99FF0000CCFF0033CCFF0066CCFF0099CCFF00CCCCFF00FFCCFF0000FFFF0033FFFF0066FFFF0099FFFF00CCFFFF00FFFFFF00000000000D0D0D001A1A1A00282828003535350043434300505050005D5D5D006B6B6B00787878008686860093939300A1A1A100AEAEAE00BBBBBB00C9C9C900D6D6D600E4E4E400
310
F1F1F100FFFFFF0000000000000000000000000000000000000000000000000000000000000000000000000000000000E2E2E2E2E2E2E2E2E2E2E2E2E2E2E2E2E2E2E2E2E2E2E2E2E2E2E2E2E2E2E2E2E2E2E2E2E2E2E2E2E2E2E2E2E2E2E2E2E2E2E2E2E2E2E2E2E2E2E2E2E2E2E2E2E2E2E2E2E2E2E2E2E2E2E2E2E2E2E2
310
E2E2E2E2E2E2E2E2E2E2E2E2E2E2E2E2E2E2E2E2E2E2E2E2E2E2E2E224E2F5F5F5F5F5F5F5F5F5F5F5F5F5F5F5F5F5F5F5F5F5F5F5F5F5F5F5F5F5F5F5F5F5F5F5F5F5F5F5F5F5F5F5F5F5F5F5F5F5F5F5F5F5F5F5F5F5F5F5F5F5F5F5F5F5F5F5F5F5F5F5F5F5F5F5F5F5F5F5F5F5F5F5F5F5F5F5F5F5F5F5F5F5F5F5F5F5
310
F5F5F5F5F5F5F5F5E27FE2F5F5F5F5F5F5F5F5F5F5F5F5F5F5F5F5F5F5F5F5F5F5F5F5F5F5F5F5F5F5F5F5F5F5F5F5F5F5F5F5F5F5F5F5F5F5F5F5F5F5F5F5F5F5F5F5F5F5F5F5F5F5F5F5F5F5F5F5F5F5F5F5F5F5F5F5F5F5F5F5F5F5F5F5F5F5F5F5F5F5F5F5F5F5F5F5F5F5F5F5F5F5F5F5F5E200E2F5F5F5F5F5F5F5F5
310
F5F5F5F5F5F5F5F5F5F5F5F5F5F5F5F5F5F5F5F5F5F5F5F5F5F5F5F5F5F5F5F5F5F5F5F5F5F5F5F5F5F5F5F5F5F5F5F5F5F5F5F5F5F5F5F5F5F5F5F5F5F5F5F5F5F5F5F5F5F5F5F5F5F5F5F5F5F5F5F5F5F5F5F5F5F5F5F5F5F5F5F5F5F5F5F5F5E200E2F5F5F5F5F5F5F5F5F5F5F5F5F5F5F5F5F5F5F5F5F5F5F5F5F5F5F5
310
F5F5F5F5F5F5F5F5F5F5F5F5F5F5F5F5F5F5F5F5F5F5F5F5F5F5F5F5F5F5F5F5F5F5F5F5F5F5F5F5F5F5F5F5F5F5F5F5F5F5F5F5F5F5F5F5F5F5F5F5F5F5F5F5F5F5F5F5F5F5F5F5F5F5F5F5F5F5E2FFE2F5F5F5F5F5F5F5F5F5F5F5F5F5F5F5F5F5F5F5F5F5F5F5F5F5F5F5F5F5F5F5F5F5F5F5F5F5F5F5F5F5F5F5F5F5F5
310
F5F5F5F5F5F5F5F5F5F5F5F5F5F5F5F5F5F5F5F5F5F5F5F5F5F5F5F5F5F5F5F5F5F5F5F5F5F5F5F5F5F5F5F5F5F5F5F5F5F5F5F5F5F5F5F5F5F5F5E200E2F5F5E2E2E2E2E2E2E2E2E2E2E2E2E2E2E2E2E2E2E2E2E2E2E2E2E2E2E2E2E2E2E2E2E2E2E2E2E2E2E2E2E2E2E2E2E2E2E2E2E2E2E2E2E2E2E2E2E2E2E2E2E2E2E2
310
E2E2E2E2E2E2E2E2E2E2E2E2E2E2E2E2E2E2E2E2E2E2E2E2E2E2E2E2E2E2E2E2E2E2E2E2F5F5F5F5E200E2F5F5E2E2E2E2E2E2E2E2E2E2E2E2E2E2E2E2E2E2E2E2E2E2E2E2E2E2E2E2E2E2E2E2E2E2E2E2E2E2E2E2E2E2E2E2E2E2E2E2E2E2E2E2E2E2E2E2E2E2E2E2E2E2E2E2E2E2E2E2E2E2E2E2E2E2E2E2E2E2E2E2E2E2
310
E2E2E2E2E2E2E2E2E2E2E2E2E2E2E2E2E2F5F5F5F5E200E2F5F5E2E2F5F5F5F5F5F5F5F5F5F5F5F5F5F5F5F5F5F5F5F5F5F5F5F5F5F5F5F5F5F5F5F5F5F5F5F5F5F5F5F5F5F5F5F5F5F5F5F5F5F5F5F5F5F5F5F5F5F5F5F5F5F5F5F5F5F5F5F5F5F5F5F5F5F5F5F5F5F5F5F5F5F5F5F5F5F5F5F5F5F5F5F5F5F5F5E2E2F5F5
310
F5F5E200E2F5F5E2E2F5F5E2E2E2E2E2E2E2E2E2E2E2E2E2E2E2E2E2E2E2E2E2E2E2E2E2E2E2E2E2E2E2E2E2E2E2E2E2E2E2E2E2E2E2E2E2E2E2E2E2E2E2E2E2E2E2E2E2E2E2E2E2E2E2E2E2E2E2E2E2E2E2E2E2E2E2E2E2E2E2E2E2E2E2E2E2E2E2E2E2E2E2F5F5E2E2F5F5F5F5E200E2F5F5E2E2F5F5E2F5F5F5F5F5F5F5
310
F5F5F5F5F5F5F5F5F5F5F5F5F5F5E2F5F5F5F5F5F5F5F5F5F5F5F5F5F5F5F5F5F5F5F5F5F5F5F5F5F5F5F5F5F5F5F5F5E2F5F5F5F5F5F5F5F5E2E2E2E2F5F5F5F5F5F5F5F5F5F5E2F5F5F5F5E2F5F5F5F5F5E2F5F5E2E2F5F5F5F5E200E2F5F5E2E2F5F5E2F5F5F5F5F5F5F5F5F5F5F5F5F5F5F5F5F5F5F5F5F5E2F5F5F5F5
310
F5F5F5F5F5F5F5F5F5F5F5F5F5F5F5F5F5F5F5F5F5F5F5F5F5F5F5F5F5E2E2E2E2E2E2F5F5F5E2E2E2E2F5F5F5F5F5F5F5F5F5F5E2E2E2F5F5E2F5F5F5F5F5E2F5F5E2E2F5F5F5F5E200E2F5F5E2E2F5F5E2F5F5F5F5F5F5F5F5F5F5F5F5F5F5F5F5F5F5F5F5F5E2F5F5F5F5F5F5F5F5F5F5F5F5F5F5F5F5F5F5F5F5F5F5F5
310
F5F5F5F5F5F5F5F5F5F5E2E2E2E2E2E2F5F5F5E2E2E2E2F5F5F5F5F5F5F5F5F5F5E2E2E2E2F5E2F5F5F5F5F5E2F5F5E2E2F5F5F5F5E27FE2F5F5E2E2F5F5E2F5F5F5F5F5F5F5F5F5F5F5F5F5F5F5F5F5F5F5F5F5E2E2E2E2E2E2E2E2E2E2E2E2E2E2E2E2E2E2E2E2E2E2F5F5F5F5F5F5F5F5F5F5F5F5E2E2E2E2E2E2F5F5F5
310
E2E2E2E2F5F5F5F5F5F5F5F5F5F5E2E2E2F5F5E2F5F5F5F5F5E2F5F5E2E2F5F5F5F5E233E2F5F5E2E2F5F5E2E2E2E2E2E2E2E2E2E2E2E2E2E2E2E2E2E2E2E2E2E2E2E2E2E2E2E2E2E2E2E2E2E2E2E2E2E2E2E2E2E2E2E2E2E2E2E2E2E2E2E2E2E2E2E2E2E2E2E2E2E2E2E2E2E2E2E2E2E2E2E2E2E2E2E2E2E2E2E2E2E2E2E2
310
E2E2E2E2E2E2E2F5F5E2E2F5F5F5F5E200E2F5F5E2E2F5F5E2E2E2E2E2E2E2E2E2E2E2E2E2E2E2E2E2E2E2E2E2E2E2E2E2E2E2E2E2E2E2E2E2E2E2E2E2E2E2E2E2E2E2E2E2E2E2E2E2E2E2E2E2E2E2E2E2F5F5F5F5F5F5F5F5F5F5F5F5F5F5F5F5F5F5F5F5F5F5F5F5F5F5F5F5F5F5F5F5F5E2F5F5E2E2F5F5F5F5E2FFE2F5
310
F5E2E2F5F5E2F5F5F5F5F5F5F5F5F5F5F5F5F5F5F5F5F5F5F5F5F5E2E2E2E2E2E2E2E2E2E2E2E2E2E2E2E2E2E2E2E2E2E2E2E2E2E2E2E2E2E2E2E2E2F5E2F5F5F5F5F5F5F5F5F5F5E2E2F5E2E2E2E2E2E2E2E2E2F5F5F5F5F5F5F5F5F5F5F5E2F5F5E2E2F5F5F5F5E200E2F5F5E2E2F5F5E2F5F5F5F5F5F5F5F5F5F5F5F5F5
310
F5F5F5F5F5F5F5F5E2E2E2E2E2E2E2E2E2E2E2E2E2E2E2E2E2E2E2E2E2E2E2E2E2E2E2E2E2E2E2E2E2E2E2F5F5F5F5F5F5F5F5F5F5E2E2F5E2E2E2E2E2E2E2E2E2F5F5F5F5F5F5F5F5F5F5F5E2F5F5E2E2F5F5F5F5E216E2F5F5E2E2F5F5E2F5F5F5F5F5F5F5F5F5F5F5F5F5F5F5F5F5F5F5F5F5E2E2E2E2E2E2E2E2E2E2E2
310
E2E2E2E2E2E2E2E2E2E2E2E2E2E2E2E2E2E2E2E2E2E2F5E2F5F5F5F5F5F5F5F5F5E2F5E2E2E2E2E2E2E2E2E2E2F5F5F5F5F5F5F5F5F5F5F5F5E2F5F5E2E2F5F5F5F5E2FFE2F5F5E2E2F5F5E2E2E2E2F5F5F5F5F5F5F5F5F5F5F5F5F5F5F5F5F5F5E2E2E2E2E2E2E2E2E2E2E2E2E2E2E2E2E2E2E2E2E2E2E2E2E2E2E2E2E2E2
310
E2E2E2E2E2F5F5F5F5F5F5F5F5F5E2E2E2E2F5E2E2E2E2E2E2E2E2E2F5E2E2E2F5E2E2E2E2F5E2F5F5E2E2F5F5F5F5E200E2F5F5E2E2F5F5E2E2E2E2F5F5F5F5F5F5F5F5F5F5F5F5F5F5F5F5F5F5E2E2E2E2F5E2E2E2E2E2F5F5E2F5F5F5F5F5F5F5F5F5F5E2F5F5F5F5F5F5F5F5F5F5E2F5F5F5F5F5F5F5F5F5E2E2E2E2F5
310
F5E2E2E2E2E2E2E2E2E2E2E2E2F5E2E2E2E2F5E2F5F5E2E2F5F5F5F5E200E2F5F5E2E2F5F5E2E2E2E2E2E2E2E2E2E2E2E2E2E2E2E2E2E2E2E2E2E2E2E2E2E2F5E2E2E2E2E2F5F5E2F5F5F5F5F5F5F5F5F5F5E2F5F5F5F5F5F5F5F5F5F5E2E2E2E2E2F5F5F5F5F5F5E2E2E2F5E2E2E2E2E2E2E2E2E2E2E2E2E2F5E2E2E2E2E2
310
E2F5F5E2E2F5F5F5F5E200E2F5F5E2E2F5F5E2F5F5F5F5F5F5F5F5F5F5F5F5F5F5F5F5F5F5F5F5F5E2E2E2E2E2E2E2E2E2E2E2E2E2F5F5F5F5F5F5F5F5F5F5E2F5F5F5F5F5F5F5F5F5F5E2E2E2E2E2F5F5F5F5F5F5F5F5F5F5F5F5F5F5F5F5F5F5F5F5F5F5F5F5F5F5F5F5F5E2F5F5E2E2F5F5F5F5E27FE2F5F5E2E2F5F5E2
310
F5F5F5F5F5F5F5F5F5F5F5F5F5F5F5F5F5F5F5F5F5E2E2E2F5F5E2F5F5F5F5F5F5E2E2E2E2F5F5F5F5F5F5F5E2F5F5F5F5F5F5F5F5F5F5E2E2E2E2E2E2E2E2E2E2E2E2E2E2E2E2E2E2E2E2E2E2E2E2E2E2E2E2E2E2E2E2E2E2E2F5F5E2E2F5F5F5F5E200E2F5F5E2E2F5F5E2F5F5F5F5F5F5F5F5F5F5F5F5F5F5F5F5F5F5F5
310
F5F5E2E2E2F5F5E2F5F5F5F5F5F5E2E2E2E2F5F5F5F5F5F5F5E2F5F5F5F5F5F5F5F5F5F5E2F5E2E2E2E2E2E2E2E2E2E2E2E2E2E2F5F5F5F5F5F5F5F5F5F5F5F5F5F5F5F5F5F5E2F5F5E2E2F5F5F5F5E200E2F5F5E2E2F5F5E2E2E2E2E2E2E2E2E2E2E2F5F5F5F5F5F5F5F5F5F5F5E2E2E2E2E2E2E2E2E2E2E2E2E2E2E2E2E2
310
E2E2E2F5F5F5E2E2E2F5F5F5F5F5F5F5F5E2F5E2E2F5E2E2E2E2E2E2E2E2E2E2E2F5E2E2E2E2E2E2E2E2E2E2E2E2E2E2E2F5F5E2F5F5E2E2F5F5F5F5E202E2F5F5E2E2F5F5E2E2E2E2E2E2E2E2E2E2E2F5F5F5F5F5F5F5F5F5F5F5E2E2E2E2F5E2E2F5F5F5F5F5E2E2E2E2F5F5F5F5F5F5F5E2E2E2F5F5F5F5F5F5F5F5E2F5
310
E2E2F5E2E2E2E2E2F5E2E2E2E2E2F5E2E2E2E2E2E2E2E2E2E2E2E2E2E2E2F5F5E2F5F5E2E2F5F5F5F5E200E2F5F5E2E2F5F5E2E2E2E2E2E2E2E2E2E2E2E2E2E2E2E2E2E2E2E2E2E2E2E2E2E2E2E2E2E2E2E2E2E2E2E2E2E2E2E2E2E2E2E2E2E2E2E2E2E2E2E2E2E2E2E2E2E2E2E2E2E2E2E2E2E2E2E2E2E2E2E2E2E2E2E2E2
310
E2E2E2E2E2E2E2E2E2E2E2E2E2E2F5F5E2E2F5F5F5F5E200E2F5F5E2E2F5F5E2F5F5F5F5F5F5F5F5F5F5F5F5F5F5F5F5F5F5F5F5F5F5F5F5F5F5F5F5F5F5F5F5F5F5F5F5F5F5F5F5F5F5F5F5F5F5F5F5F5F5F5F5F5F5F5F5F5F5F5F5F5F5F5F5F5F5F5F5F5F5F5F5F5F5F5F5F5F5F5F5F5F5F5F5F5F5F5F5F5E2F5F5E2E2F5
310
F5F5F5E242E2F5F5E2E2F5F5E2F5F5F5F5F5F5F5F5F5F5F5F5F5F5F5F5F5F5F5F5F5F5F5F5F5F5F5F5F5F5F5F5F5F5F5F5F5F5F5F5F5F5F5F5F5F5F5F5F5F5F5F5F5F5BEBEBEBEBEBEBEBEBEBEBEBEBEBEBEBEBEBEBEBEBEBEF5F5F5F5F5F5F5F5F5F5F5F5F5E2F5F5E2E2F5F5F5F5E200E2F5F5E2E2F5F5E2F5F5F5F5F5F5
310
F5F5F5F5F5F5F5F5F5F5F5F5F5F5F5F5F5F5F5F5F5F5F5F5F5F5F5F5F5F5F5F5F5F5F5F5F5F5F5F5F5F5F5F5F5F5F5F5BEBEBEBEBEBEBEBEBEBEBEBEBEBEBEBEBEBEBEBEBEF5F5F5F5F5F5F5F5F5F5F5F5F5F5E2F5F5E2E2F5F5F5F5E2CDE2F5F5E2E2F5F5E2F5F5F5F5F5F5F5F5F5F5F5F5F5F5F5F5F5F5F5F5F5F5F5F5F5
310
F5F5F5F5F5F5F5F5F5F5F5F5F5F5F5F5F5F5F5F5F5F5F5F5F5F5F5F5F5BEBEBEBEBEBEBEF5BEBEBEBEBEF5BEBEF5BEBEBEF5BEBEBEBEBEBEBEBEBEBEBEBEBEBEE2F5F5E2E2F5F5F5F5E200E2F5F5E2E2F5F5E2F5F5F5F5F5F5F5F5F5F5F5F5F5F5F5F5F5F5F5F5F5F5F5F5F5F5F5F5F5F5F5F5F5F5F5F5F5F5F5F5F5F5F5F5
310
F5F5F5F5F5F5F5F5F5F5BEBEF5F5BEBEF5F5BEBEBEBEBEBEBEBEF5BEBEBEF5BEBEBEBEBEBEBEBEBEBEBEBEBEBEE2F5F5E2E2F5F5F5F5E2CDE2F5F5E2E2F5F5E2F5F5F5F5F5F5F5F5F5F5F5F5F5F5F5F5F5F5F5F5F5F5F5F5F5F5F5F5F5F5F5F5F5F5F5F5F5F5F5F5F5F5F5F5F5F5F5F5F5F5F5F5F5F5BEBEBEBEBEBEBEBEF5
310
F5F5F5F5F5F5F5F5F5F5F5F5F5F5F5F5F5F5F5F5F5F5F5F5F5F5E2F5F5E2E2F5F5F5F5E200E2F5F5E2E2F5F5E2F5F5F5F5F5F5F5F5F5F5F5F5F5F5F5F5F5F5F5F5F5F5F5F5F5F5F5F5F5F5F5F5F5F5F5F5F5F5F5F5F5F5F5F5F5F5F5F5F5F5F5F5F5F5BEBEBEBEBEBEBEF5F5F5F5F5F5F5F5F5F5F5F5F5F5F5F5F5F5F5F5F5
310
F5F5F5F5F5F5F5E2F5F5E2E2F5F5F5F5E2CDE2F5F5E2E2F5F5E2F5F5F5F5F5F5F5F5F5F5F5F5F5F5F5F5F5F5F5F5F5F5F5F5F5F5F5F5F5F5F5F5F5F5F5F5F5F5F5F5F5F5F5F5F5F5F5F5F5F5F5F5F5F5BEBEBEBEBEBEBEBEBEBEF5BEBEBEBEBEBEBEBEF5BEBEBEBEBEBEBEBEBEBEBEF5F5F5F5E2F5F5E2E2F5F5F5F5E200E2
310
F5F5E2E2F5F5E2F5F5F5F5F5F5F5BEBEBEBEBEF5BEBEBEBEBEF5BEBEBEBEBEBEBEF5BEBEBEF5F5F5F5F5F5F5F5F5F5F5F5F5F5F5F5F5F5F5F5F5F5F5F5BEBEBEBEBEBEBEBEBEBEF5BEBEBEBEBEBEBEBEF5BEBEBEBEBEBEBEBEBEBEF5F5F5F5F5E2F5F5E2E2F5F5F5F5E2CDE2F5F5E2E2F5F5E2F5F5F5F5F5F5F5BEBEBEBEBE
310
BEBEBEBEBEBEBEBEBEBEBEBEBEBEF5BEBEBEBEBEBEF5F5F5F5F5F5F5F5F5F5F5F5F5F5F5F5F5F5F5F5F5BEBEBEBEBEBEBEBEBEBEF5BEBEBEBEBEBEBEBEBEBEBEBEBEBEBEBEBEBEBEBEF5BEBEBEE2F5F5E2E2F5F5F5F5E200E2F5F5E2E2F5F5E2F5F5F5F5F5F5F5F5F5F5F5F5F5F5F5F5F5F5F5F5F5F5F5F5F5F5F5F5F5F5F5
310
F5BEF5F5F5F5F5F5F5F5F5F5F5F5F5F5F5F5F5F5F5F5F5BEBEF5BEBEBEBEBEBEBEF5BEBEBEBEBEF5BEBEBEBEBEBEBEBEBEBEBEF5BEBEF5BEBEBEE2F5F5E2E2F5F5F5F5E2CDE2F5F5E2E2F5F5E2F5F5F5F5F5F5F5F5F5F5F5F5F5F5F5F5F5F5F5F5F5F5F5F5F5F5F5F5F5F5F5F5F5BEF5F5F5F5F5F5F5F5F5F5F5F5F5F5F5F5
310
F5F5F5F5BEBEF5BEBEBEBEBEBEBEF5BEBEBEBEBEF5BEBEBEBEBEBEBEBEBEBEBEBEBEBEF5BEBEBEE2F5F5E2E2F5F5F5F5E200E2F5F5E2E2F5F5E2F5F5F5F5F5F5F5F5F5F5F5F5F5F5F5F5F5F5F5F5F5F5F5F5F5F5F5F5F5F5F5F5F5BEF5F5F5F5F5F5F5F5F5F5F5F5F5F5F5F5F5F5F5F5BEBEBEBEBEBEBEF5F5F5F5F5F5F5F5
310
F5F5F5F5F5F5F5F5F5F5F5F5F5F5F5F5F5F5F5F5E2F5F5E2E2F5F5F5F5E2CDE2F5F5E2E2F5F5E2F5F5F5F5F5F5F5F5F5F5F5F5F5F5F5F5F5F5F5F5F5F5F5F5F5F5BEF5F5F5F5F5F5F5BEF5F5F5F5F5F5F5F5F5F5F5F5F5F5F5F5F5F5F5BEBEBEBEBEBEBEF5F5F5F5F5F5F5F5F5F5F5F5F5F5F5F5F5F5F5F5F5F5F5F5F5F5F5
310
F5E2F5F5E2E2F5F5F5F5E200E2F5F5E2E2F5F5E2F5F5F5F5F5F5F5F5F5F5F5F5F5F5F5F5F5F5F5F5F5F5F5F5F5F5BEF5F5F5F5F5F5F5BEF5F5F5F5F5F5F5F5F5F5F5F5F5F5F5F5F5F5F5F5F5F5F5F5F5F5F5F5F5F5F5F5F5F5F5F5F5F5F5F5F5F5F5F5F5F5F5F5F5F5F5F5F5F5E2F5F5E2E2F5F5F5F5E2CDE2F5F5E2E2F5F5
310
E2F5F5F5F5F5F5F5F5F5F5F5F5F5F5F5F5F5F5F5F5F5F5F5F5F5F5BEBEF5F5F5F5F5F5F5BEF5F5F5F5F5F5F5F5F5F5F5F5F5F5F5F5F5F5F5F5F5F5F5F5F5F5F5F5F5F5F5F5F5F5F5F5F5F5F5F5F5F5F5F5F5F5F5F5F5F5F5F5F5E2F5F5E2E2F5F5F5F5E200E2F5F5E2E2F5F5E2F5F5F5F5F5F5F5F5F5F5F5F5F5F5F5F5F5F5
310
F5F5F5F5F5F5F5F5BEBEBEBEBEBEBEBEBEBEF5F5F5F5F5F5F5F5F5F5F5F5F5F5F5F5F5F5F5F5F5F5F5F5F5F5F5F5F5F5F5F5F5F5F5F5F5F5F5F5F5F5F5F5F5F5F5F5F5F5F5F5F5E2F5F5E2E2F5F5F5F5E2CDE2F5F5E2E2F5F5E2F5F5F5F5F5F5F5F5F5F5F5F5F5F5F5F5F5F5F5F5F5F5F5F5F5F5F5F5F5F5F5F5F5F5F50FF5
310
F5F5F5F5F5F5F5F5F5F5F5F5F5F5F5F5F5F5F5F5F5F5F5F5F5F5F5F5F5F5F5F5F5F5F5F5F5F5F5F5F5F5F5F5F5F5F5F5F5F5F5F5E2F5F5E2E2F5F5F5F5E200E2F5F5E2E2F5F5E2F5F5F5F5F5F5F5F5F5F5F5F5F5F5F5F5F5F5F5F5F5F5F5F5F5F5BEBEBEBE0F0F0F0F0F0F0F0F0F0F0FBEBEBEBEBEBEBEF5F5F5F5F5F5F5F5
310
F5F5F5F5F5F5F5F5F5F5F5F5F5F5F5F5F5F5F5F5F5F5F5F5F5F5F5F5F5F5F5F5F5E2F5F5E2E2F5F5F5F5E2CDE2F5F5E2E2F5F5E2F5F5F5F5F5F5F5F5F5F5F5F5F5F5F5F5F5F5F5F5F5F5F5F5F5F5BEBEF50F0F0F0F0F0F0F0F0F0F0F0F0FF5F5F5F5BEF5F5F5F5F5F5F5F5F5F5F5F5F5F5F5F5F5F5F5F5F5F5F5F5F5F5F5F5
310
F5F5F5F5F5F5F5F5F5F5F5F5F5F5E2F5F5E2E2F5F5F5F5E200E2F5F5E2E2F5F5E2F5F5F5F5F5F5F5F5F5F5F5F5F5F5F5F5F5BEBEBEBEF5BEBEBEF5BEF5F50F0F0F0F0F0F0F0F0F0F0F0F0FF5F5F5F5BEF5F5F5F5F5F5F5F5F5F5F5F5F5F5F5F5F5F5F5F5F5F5F5F5F5F5F5F5F5F5F5F5F5F5F5F5F5F5F5F5F5F5E2F5F5E2E2
310
F5F5F5F5E2CDE2F5F5E2E2F5F5E2F5F5F5F5F5F5F5F5F5F5F5F5F5F5F5F5F5BEBEBEBEBEBEBEBEBEBEF5F50F0F0F0F0F0F0F0F0F0F0F0FF5F5F5F5F5BEF5F5F5F5F5F5F5F5F5F5F5F5F5F5F5F5F5F5F5F5F5F5F5F5F5F5F5F5F5F5F5F5F5F5F5F5F5F5F5F5F5F5E2F5F5E2E2F5F5F5F5E201E2F5F5E2E2F5F5E2F5F5F5F5F5
310
F5F5F5F5F5F5F5F5F5F5F5F5BEBEBEBEBEBEBEBEF5F5F5F5F50F0F0F0F0F0F0F0F0F0F0FF5F5F5F5F5BEF5F5F5F5F5F5F5F5F5F5F5F5F5F5F5F5F5F5F5F5F5F5F5F5F5F5F5F5F5F5F5F5F5F5F5F5F5F5F5F5F5F5E2F5F5E2E2F5F5F5F5E200E2F5F5E2E2F5F5E2F5F5F5F5F5F5F5F5F5F5F5F5F5F5F5F5F5F5F5F5F5F5F5F5
310
F5F5F5F5F5F50F0F0F0F0F0F0F0F0F0F0FF5F5F5F5F5BEF5F5F5F5F5F5F5F5F5F5F5F5F5F5F5F5F5F5F5F5F5F5F5F5F5F5F5F5F5F5F5F5F5F5F5F5F5F5F5F5F5F5E2F5F5E2E2F5F5F5F5E200E2F5F5E2E2F5F5E2F5F5F5F5F5F5F5F5F5F5F5F5F5F5F5F5F5F5F5F5F5F5F5F5F5F5F5F5F5F50F0F0F0F0F0F0F0F0F0F0FF5F5
310
F5F5F5BEF5F5F5F5F5F5F5F5F5F5F5F5F5F5F5F5F5F5F5F5F5F5F5F5F5F5F5F5F5F5F5F5F5F5F5F5F5F5F5F5F5F5E2F5F5E2E2F5F5F5F5E233E2F5F5E2E2F5F5E2F5F5F5F5F5F5F5F5F5F5F5F5F5F5F5F5F5F5F5F5F5F5F5F5F5F5F5F5F5F50F0F0F0F0F0F0F0F0F0FF5F5F5F5F5F5BEF5F5F5F5F5F5F5F5F5F5F5F5F5F5F5
310
F5F5F5F5F5F5F5F5F5F5F5F5F5F5F5F5F5F5F5F5F5F5F5F5F5F5F5E2F5F5E2E2F5F5F5F5E201E2F5F5E2E2F5F5E2F5F5F5F5F5F5F5F5F5F5F5F5F5F5F5F5F5F5F5F5F5F5F5F5F5F5F5F5F5F50F0F0F0F0F0F0F0F0F0FF5F5BEBEBEBEBEBEBEBEBEBEF5F5F5F5F5F5F5F5F5F5F5F5F5F5F5F5F5F5F5F5F5F5F5F5F5F5F5F5F5
310
F5F5F5F5F5F5F5F5E2F5F5E2E2F5F5F5F5E200E2F5F5E2E2F5F5E2F5F5F5F5F5F5F5F5F5F5F5F5F5F5F5F5F5F5F5F5F5F5F5F5F5F5F5F5F5F50F0F0F0F0F0F0F0F0F0FF5F5BEBEBEBEBEF5BEBEBEBEF5F5F5F5F5F5F5F5F5F5F5F5F5F5F5F5F5F5F5F5F5F5F5F5F5F5F5F5F5F5F5F5F5F5F5F5F5E2F5F5E2E2F5F5F5F5E200
310
E2F5F5E2E2F5F5E2F5F5F5F5F5F5F5F5F5F5F5F5F5F5F5F5F5F5F5F5F5F5F5F5F5F5F5F5F5F50F0F0F0F0F0F0F0F0F0FF5F5F5F5F5F5BEF5F5F5F5F5F5F5F5F5F5F5F5F5F5F5F5F5F5F5F5F5F5F5F5F5F5F5F5F5F5F5F5F5F5F5F5F5F5F5F5F5F5E2F5F5E2E2F5F5F5F5E217E2F5F5E2E2F5F5E2F5F5F5F5F5F5F5F5F5F5F5
310
F5F5F5F5F5F5F5F5F5F5F5F5F5F5F5F5F5F5F5F50F0F0F0F0F0F0F0F0FF5F5F5F5F5F5BEF5F5F5F5F5F5F5F5F5F5F5F5F5F5F5F5F5F5F5F5F5F5F5F5F5F5F5F5F5F5F5F5F5F5F5F5F5F5F5F5F5F5E2F5F5E2E2F5F5F5F5E20BE2F5F5E2E2F5F5E2F5F5F5F5F5F5F5F5F5F5F5F5F5F5F5F5F5F5F5F5F5F5F5F5BEF5F5F5F5F5
310
F50F0F0F0F0F0F0F0FF5F5F5F5F5F5F5BEF5F5F5F5F5F5F5F5F5F5F5F5F5F5F5F5F5F5F5F5F5F5F5F5F5F5F5F5F5F5F5F5F5F5F5F5F5F5F5F5F5F5E2F5F5E2E2F5F5F5F5E200E2F5F5E2E2F5F5E2F5F5F5F5F5F5F5F5F5F5F5F5F5F5F5F5F5F5F5F5F5F5F5F5BEF5F5F5F5F5F50F0F0F0F0F0F0F0FF5F5F5F5F5F5F5BEF5F5
310
F5F5F5F5F5F5F5F5F5F5F5F5F5F5F5F5F5F5F5F5F5F5F5F5F5F5F5F5F5F5F5F5F5F5F5F5F5F5F5F5E2F5F5E2E2F5F5F5F5E200E2F5F5E2E2F5F5E2F5F5F5F5F5F5F5F5F5F5F5F5F5F5F5F5F5F5F5F5F5F5F5F5BEF5F5F5F5F50F0F0F0F0F0F0F0F0F0FF5F5F5F5F5F5BEF5F5F5F5F5F5F5F5F5F5F5F5F5F5F5F5F5F5F5F5F5
310
F5F5F5F5F5F5F5F5F5F5F5F5F5F5F5F5F5F5F5F5F5E2F5F5E2E2F5F5F5F5E233E2F5F5E2E2F5F5E2F5F5F5F5F5F5F5F5F5F5F5F5F5F5F5F5F5F5F5F5F5F5F5BEBEBEBEBEBE0F0F0F0F0F0F0F0F0F0F0F0F0FF5F5F5F5BEF5F5F5F5F5F5F5F5F5F5F5F5F5F5F5F5F5F5F5F5F5F5F5F5F5F5F5F5F5F5F5F5F5F5F5F5F5F5F5F5
310
F5F5E2F5F5E2E2F5F5F5F5E201E2F5F5E2E2F5F5E2F5F5F5F5F5F5F5F5F5F5F5F5F5F5F5F5F5F5F5F5F5F5F5F5F5F5F5F50FF5F5F5F5F5F5F5F5F5F5F5F50FF5F5F5F5BEF5F5F5F5F5F5F5F5F5F5F5F5F5F5F5F5F5F5F5F5F5F5F5F5F5F5F5F5F5F5F5F5F5F5F5F5F5F5F5F5F5F5E2F5F5E2E2F5F5F5F5E200E2F5F5E2E2F5
310
F5E2F5F5F5F5F5F5F5F5F5F5F5F5F5F5F5F5F5F5F5F5F5F5F5BEBEBEBEBEBE0F0F0F0F0F0F0F0F0F0F0F0FBEBEBEBEBEBEBEF5F5F5F5F5F5F5F5F5F5F5F5F5F5F5F5F5F5F5F5F5F5F5F5F5F5F5F5F5F5F5F5F5F5F5F5F5F5F5F5F5E2F5F5E2E2F5F5F5F5E200E2F5F5E2E2F5F5E2F5F5F5F5F5F5F5F5F5F5F5F5F5F5F5F5F5
310
F5F5F5F5F5F5F5BEF5F5F5BEF5F5F5F5F5F5F5F5F5F5F5F5BEF5F5F5F5F5F5F5F5F5F5F5F5F5F5F5F5F5F5F5F5F5F5F5F5F5F5F5F5F5F5F5F5F5F5F5F5F5F5F5F5F5F5F5F5F5F5F5E2F5F5E2E2F5F5F5F5E233E2F5F5E2E2F5F5E2F5F5F5F5F5F5F5F5F5F5F5F5BEBEBEBEBEBEBEBEBEBEBEF5BEF5BEBEBEF5BEBEBEBEBEBE
310
BEBEBEBEF5BEBEBEF5F5F5F5F5F5F5F5F5F5F5F5F5F5F5F5F5F5F5F5F5F5F5F5F5F5F5F5F5F5F5F5F5F5F5F5F5F5F5F5F5F5F5F5F5E2F5F5E2E2F5F5F5F5E201E2F5F5E2E2F5F5E2F5F5F5F5F5F5F5F5F5F5F5F5BEBEBEBEBEBEBEBEBEBEBEBEBEF5F5F5BEF5F5BEBEBEBEBEBEBEBEBEF5BEF5F5F5F5F5F5F5F5F5F5F5F5F5
310
F5F5F5F5F5F5F5F5F5F5F5F5F5F5F5F5F5F5F5F5F5F5F5F5F5F5F5F5F5F5F5F5F5F5E2F5F5E2E2F5F5F5F5E200E2F5F5E2E2F5F5E2F5F5F5F5F5F5F5F5F5F5F5F5F5F5F5F5F5F5F5F5F5F5F5F5F5F5F5F5F5F5F5F5F5F5F5F5F5F5F5F5F5F5F5F5F5F5F5F5F5F5F5F5F5F5F5F5F5F5F5F5F5F5F5F5F5F5F5F5F5F5F5F5F5F5
310
F5F5F5F5F5F5F5F5F5F5F5F5F5F5F5E2F5F5E2E2F5F5F5F5E27EE2F5F5E2E2F5F5E2F5F5F5F5F5F5F5F5F5F5F5F5F5F5F5F5F5F5F5F5F5F5F5F5F5F5F5F5F5F5F5F5F5F5F5F5F5F5F5F5F5F5F5F5F5F5F5F5F5F5F5F5F5F5F5F5F5F5F5F5F5F5F5F5F5F5F5F5F5F5F5F5F5F5F5F5F5F5F5F5F5F5F5F5F5F5F5F5F5E2F5F5E2
310
E2F5F5F5F5E27EE2F5F5E2E2F5F5E2F5F5F5F5F5F5F5F5F5F5F5F5F5F5F5F5F5F5F5F5F5F5F5F5F5F5F5F5F5F5F5F5F5F5F5F5F5F5F5F5F5F5F5F5F5F5F5F5F5F5F5F5F5F5F5F5F5F5F5F5F5F5F5F5F5F5F5F5F5F5F5F5F5F5F5F5F5F5F5F5F5F5F5F5F5F5F5F5F5E2F5F5E2E2F5F5F5F5E200E2F5F5E2E2F5F5E2F5F5F5F5
310
F5F5F5F5F5F5F5F5F5F5F5F5F5F5F5F5F5F5F5F5F5F5F5F5F5F5F5F5F5F5F5F5F5F5F5F5F5F5F5F5F5F5F5F5F5F5F5F5F5F5F5F5F5F5F5F5F5F5F5F5F5F5F5F5F5F5F5F5F5F5F5F5F5F5F5F5F5F5F5F5F5F5F5F5F5E2F5F5E2E2F5F5F5F5E2CDE2F5F5E2E2F5F5E2F5F5F5F5F5F5F5F5F5F5F5F5F5F5F5F5F5F5F5F5F5F5F5
310
F5F5F5F5F5F5F5F5F5F5F5F5F5F5F5F5F5F5F5F5F5F5F5F5F5F5F5F5F5F5F5F5F5F5F5F5F5F5F5F5F5F5F5F5F5F5F5F5F5F5F5F5F5F5F5F5F5F5F5F5F5F5F5F5F5F5E2F5F5E2E2F5F5F5F5E200E2F5F5E2E2F5F5E2F5F5F5F5F5F5F5F5F5F5F5F5F5F5F5F5F5F5F5F5F5F5F5F5F5F5F5F5F5F5F5F5F5F5F5F5F5F5F5F5F5F5
310
F5F5F5F5F5F5F5F5F5F5F5F5F5F5F5F5F5F5F5F5F5F5F5F5F5F5F5F5F5F5F5F5F5F5F5F5F5F5F5F5F5F5F5F5F5F5F5E2F5F5E2E2F5F5F5F5E2CDE2F5F5E2E2F5F5E2F5F5F5F5F5F5F5F5F5F5F5F5F5F5F5F5F5F5F5F5F5F5F5F5F5F5F5F5BEF5F5F5F5F5F5BEBEBEBEF5BEBEBEBEF5F5F5F5BEF5F5F5F5F5F5F5F5F5F5F5F5
310
F5F5F5F5F5F5F5F5F5F5F5F5F5F5F5F5F5F5F5F5F5F5F5F5F5F5F5F5E2F5F5E2E2F5F5F5F5E200E2F5F5E2E2F5F5E2F5F5F5F5F5F5F5F5F5F5F5F5F5F5F5F5F5F5F5F5F5F5F5F5F5F5F5F5BEBEBEBEBEBEBEBEBEBEBEBEBEBEBEBEBEBEBEBEBEF5F5F5F5F5F5F5F5F5F5F5F5F5F5F5F5F5F5F5F5F5F5F5F5F5F5F5F5F5F5F5
310
F5F5F5F5F5F5F5F5F5E2F5F5E2E2F5F5F5F5E2CDE2F5F5E2E2F5F5E2F5F5F5F5F5F5F5F5F5F5F5F5F5F5F5F5F5F5F5F5F5F5F5F5F5F5F5F5BEF5F5F5F5F5F5BEBEBEBEBEBEBEBEBEF5F5F5F5BEF5F5F5F5F5F5F5F5F5F5F5F5F5F5F5F5F5F5F5F5F5F5F5F5F5F5F5F5F5F5F5F5F5F5F5F5F5F5F5F5E2F5F5E2E2F5F5F5F5E2
310
00E2F5F5E2E2F5F5E2F5F5F5F5F5F5F5F5F5F5F5F5F5F5F5F5F5F5F5F5F5F5F5F5F5F5F5F5BEF5F5F5F5F5F5F5F5F5F5F5F5F5F5F5F5F5F5F5BEF5F5F5F5F5F5F5F5F5F5F5F5F5F5F5F5F5F5F5F5F5F5F5F5F5F5F5F5F5F5F5F5F5F5F5F5F5F5F5F5E2F5F5E2E2F5F5F5F5E2CDE2F5F5E2E2F5F5E2F5F5F5F5F5F5F5F5F5F5
310
F5F5F5F5F5F5F5F5F5F5F5F5F5F5F5F5F5F5BEF5F5F5F5F5F5F5F5F5F5F5F5F5F5F5F5F5F5F5BEF5F5F5F5F5F5F5F5F5F5F5F5F5F5F5F5F5F5F5F5F5F5F5F5F5F5F5F5F5F5F5F5F5F5F5F5F5F5F5F5E2F5F5E2E2F5F5F5F5E200E2F5F5E2E2F5F5E2F5F5F5F5F5F5F5F5F5F5F5F5F5F5F5F5F5F5F5F5F5F5F5F5F5F5F5F5BE
310
F5F5F5F5F5F5F5F5F5F5F5F5F5F5F5F5F5F5F5BEF5F5F5F5F5F5F5F5F5F5F5F5F5F5F5F5F5F5F5F5F5F5F5F5F5F5F5F5F5F5F5F5F5F5F5F5F5F5F5F5E2F5F5E2E2F5F5F5F5E2CDE2F5F5E2E2F5F5E2F5F5F5F5F5F5F5F5F5F5F5F5F5F5F5F5F5F5F5F5F5F5F5F5F5F5F5F5BEF5F5BEF5F5F5F5F5BEF5F5F5F5F5F5F5F5F5F5
310
BEBEBEBEF5F5F5F5F5F5F5F5F5F5F5F5F5F5F5F5F5F5F5F5F5F5F5F5F5F5F5F5F5F5F5F5F5F5F5F5F5E2F5F5E2E2F5F5F5F5E200E2F5F5E2E2F5F5E2F5F5F5F5F5F5F5F5F5F5F5F5F5F5F5F5BEBEBEBEBEBEBEBEBEBEBEBEBEBEBEBEF5F5F5F5F5BEBEBEBEF5F5F5F5F5F5F5BEBEF5F5BEBEBEBEF5F5F5BEBEBEBEF5F5F5F5
310
F5F5F5F5F5F5F5F5F5F5F5F5F5F5F5F5F5F5F5F5F5F5E2F5F5E2E2F5F5F5F5E2CDE2F5F5E2E2F5F5E2F5F5F5F5F5F5F5F5F5F5F5F5F5F5F5F5F5BEBEBEBEBEBEBEBEF5F5F5BEF5BEBEF5F5F5F5F5BEBEBEF5F5F5F5F5F5F5F5BEF5F5F5F5F5F5F5BEBEBEBEBEBEBEF5F5F5F5F5F5F5F5F5F5F5F5F5F5F5F5F5F5F5F5F5F5F5
310
F5F5F5E2F5F5E2E2F5F5F5F5E200E2F5F5E2E2F5F5E2F5F5F5F5F5F5F5F5F5F5F5F5F5F5F5F5F5F5F5F5F5F5F5F5F5F5F5F5BEF5F5BEF5F5F5F5F5BEF5F5F5F5F5F5F5F5F5F5BEF5F5F5F5F5F5F5F5F5F5BEBEBEF5F5F5F5F5F5F5F5F5F5F5F5F5F5F5F5F5F5F5F5F5F5F5F5F5F5F5E2F5F5E2E2F5F5F5F5E2CDE2F5F5E2E2
310
F5F5E2F5F5F5F5F5F5F5F5F5F5F5F5F5F5F5F5BEBEBEBEF5BEBEBEBEBEF5F5BEF5BEBEF5F5F5F5F5BEF5F5F5F5F5F5F5F5F5F5BEF5F5F5F5F5F5F5F5F5F5BEBEBEF5F5F5F5F5F5F5F5F5F5F5F5F5F5F5F5F5F5F5F5F5F5F5F5F5F5F5E2F5F5E2E2F5F5F5F5E200E2F5F5E2E2F5F5E2F5F5F5F5F5F5F5F5F5F5F5F5F5F5F5F5
310
BEBEBEBEBEBEBEBEBEBEBEBEBEF5BEBEBEF5F5F5F5BEF5F5F5F5F5F5F5F5F5F5BEF5F5F5F5F5F5F5F5F5F5F5F5F5BEF5F5F5F5F5F5F5F5F5F5F5F5F5F5F5F5F5F5F5F5F5F5F5F5F5F5E2F5F5E2E2F5F5F5F5E2CDE2F5F5E2E2F5F5E2F5F5F5F5F5F5F5F5F5F5F5F5F5F5F5F5F5BEBEBEF5BEBEBEBEBEF5F5BEF5BEBEF5F5F5
310
F5F5BEF5F5F5F5F5F5F5F5F5F5BEF5F5F5F5F5F5F5F5F5F5F5F5F5F5BEF5F5F5F5F5F5F5F5F5F5F5F5F5F5F5F5F5F5F5F5F5F5F5F5F5E2F5F5E2E2F5F5F5F5E200E2F5F5E2E2F5F5E2F5F5F5F5F5F5F5F5F5F5F5F5F5F5F5F5F5F5F5F5F5F5F5F5F5F5F5F5BEF5BEBEF5F5F5F5F5BEF5F5F5F5F5F5F5F5F5F5BEF5F5F5F5F5
310
F5F5F5F5F5F5F5F5F5F5BEF5F5F5F5F5F5F5F5F5F5F5F5F5F5F5F5F5F5F5F5F5F5F5F5E2F5F5E2E2F5F5F5F5E2CDE2F5F5E2E2F5F5E2F5F5F5F5F5F5F5F5F5F5F5F5F5F5BEBEBEBEBEBEBEBEBEBEBEF5F5F5BEF5BEBEF5F5F5F5F5BEF5F5F5F5F5F5F5F5F5F5BEF5F5F5F5F5F5F5F5F5F5F5F5F5F5F5F5BEF5F5F5F5F5F5F5
310
F5F5F5F5F5F5F5F5F5F5F5F5F5F5F5F5E2F5F5E2E2F5F5F5F5E200E2F5F5E2E2F5F5E2F5F5F5F5F5F5F5F5F5F5F5F5F5F5BEBEBEBEBEBEBEBEBEF5BEF5F5F5BEF5BEBEF5F5F5F5F5BEF5F5F5F5F5F5F5F5F5F5BEF5F5F5F5F5F5F5F5F5F5F5F5F5F5F5F5F5BEF5F5F5F5F5F5F5F5F5F5F5F5F5F5F5F5F5F5F5F5F5F5E2F5F5
310
E2E2F5F5F5F5E200E2F5F5E2E2F5F5E2F5F5F5F5F5F5F5F5F5F5F5F5F5F5F5F5F5F5F5F5F5F5F5BEBEF5F5F5BEF5BEBEF5F5F5F5F5BEF5F5F5F5F5F5F5F5F5F5BEF5F5F5F5BEBEBEBEBEBEF5F5F5F5F5F5F5F5BEF5F5F5F5F5F5F5F5F5F5F5F5F5F5F5F5F5F5F5F5F5E2F5F5E2E2F5F5F5F5E200E2F5F5E2E2F5F5E2F5F5F5
310
F5F5F5F5F5F5F5F5F5F5F5F5F5F5F5F5F5F5F5F5BEBEBEBEBEBEBEBEBEF5F5F5F5F5BEC3F5F5F5F5F5F5F5F5F5BEF5F5BEBEBEBEBEBEBEBEF5F5F5F5F5F5F5F5F5BEF5F5F5F5F5F5F5F5F5F5F5F5F5F5F5F5F5F5F5F5E2F5F5E2E2F5F5F5F5E2CDE2F5F5E2E2F5F5E2F5F5F5F5F5F5F5F5F5F5F5F5F5F5F5F5F5F5F5F5F5F5
310
F5BEBEBEBEBEBEBEBEBEC3C3C3C3C3BEC3C3C3C3C3C3C3C3C3C3BEBEBEF5F5F5F5F5F5F5F5F5F5F5F5F5F5F5F5F5F5BEF5F5F5F5F5F5F5F5F5F5F5F5F5F5F5F5F5F5F5E2F5F5E2E2F5F5F5F5E200E2F5F5E2E2F5F5E2F5F5F5F5F5F5F5F5F5F5F5F5F5F5F5F5F5F5F5F5F5F5F5BEBEF5F5F5BEF5F5F5F5F5F5F5F5F5F5F5F5
310
F5F5F5F5F5F5F5BEBEF5F5F5F5F5F5F5F5F5F5F5F5F5F5F5F5F5BEBEF5F5F5F5F5F5F5F5F5F5F5F5F5F5F5F5F5F5F5F5E2F5F5E2E2F5F5F5F5E2CDE2F5F5E2E2F5F5E2F5F5F5F5F5F5F5F5F5F5F5F5F5F5F5F5F5BEBEBEBEBEBEBEBEBEBEBEBEBEC3C3C3C3C3C3C3C3C3C3C3C3C3C3BEBEBEBEBEBEBEBEBEBEBEBEBEBEBEBE
310
BEBEBEBEBEBEBEBEBEBEBEBEBEBEBEF5F5F5F5F5F5F5F5F5F5F5F5F5F5E2F5F5E2E2F5F5F5F5E200E2F5F5E2E2F5F5E2F5F5F5F5F5F5F5F5F5F5F5F5F5F5F5F5F5F5BEF5F5F5F5F5F5F5F5F5F5F5F5F5F5F5F5F5F5F5F5F5F5F5BEBEF5F5C3F5BEF5F5F5F5F5F5F5F5F5F5F5F5F5F5BEBEF5F5F5F5F5F5F5F5BEF5F5F5F5F5
310
F5F5F5F5F5F5F5F5F5F5E2F5F5E2E2F5F5F5F5E2CDE2F5F5E2E2F5F5E2F5F5F5F5F5F5F5F5F5F5F5F5F5F5F5F5F5F5BEF5F5F5F5F5F5F5F5F5F5F5F5F5F5F5F5F5F5F5F5F5F5F5BEF5F5F5BEF5BEF5F5F5F5F5F5F5F5F5F5F5F5BEBEF5F5F5F5F5F5F5F5F5F5BEF5F5F5F5F5F5F5F5F5F5F5F5F5F5F5E2F5F5E2E2F5F5F5F5
310
E200E2F5F5E2E2F5F5E2F5F5F5F5F5F5F5F5F5F5F5F5F5F5F5F5F5F5BEF5F5F5F5F5F5F5F5F5F5F5F5F5F5F5F5F5F5F5F5F5F5BEF50F0FF5C3F5C3F50F0FF5F5F5F5F5F5F5F5BEF5F5F5F5F5F5F5F5F5F5F5F5BEF5F5F5F5F5F5F5F5F5F5F5F5F5F5F5E2F5F5E2E2F5F5F5F5E2CDE2F5F5E2E2F5F5E2F5F5F5F5F5F5F5F5F5
310
F5F5F5F5F5F5F5F5F5BEF5F5F5F5F5F5F5F5F5F5F5F5F5F5F5F5F5F5F5F5BEBEF5BE0FF50F0FF50F0FF50FF5F5F5F5F5F5BEBEF5F5F5F5F5F5F5F5F5F5F5F5F5BEF5F5F5F5F5F5F5F5F5F5F5F5F5F5F5E2F5F5E2E2F5F5F5F5E200E2F5F5E2E2F5F5E2F5F5F5F5F5F5F5F5F5F5F5F5F5F5F5F5F5F5F5BEF5F5BEBEBEBEBEBE
310
BEBEBEBEBEBEBEF5F5F5BEF5F5BEBE0F0FF5C3F5C3F50F0FF5F5F5F5BEBEF5F5F5F5F5F5F5F5F5F5F5F5F5F5F5BEF5F5F5F5F5F5F5F5F5F5F5F5F5F5F5E2F5F5E2E2F5F5F5F5E2CDE2F5F5E2E2F5F5E2F5F5F5F5F5F5F5F5F5F5F5F5F5F5F5F5F5F5F5BEF5F5BEBEBEBEBEBEBEBEBEBEBEBEBEBEBEBEF5F5BEBEF5F5F50F0F
310
F50F0FBEBEBEBEBEBEBEBEBEBEBEBEBEF5F5F5F5F5F5F5F5F5F5BEF5F5F5F5F5F5F5F5F5F5F5F5F5F5F5E2F5F5E2E2F5F5F5F5E200E2F5F5E2E2F5F5E2F5F5F5F5F5F5F5F5F5F5F5F5F5F5F5F5F5F5F5BEF5F5F5F5F5F5F5F5F5F5F5F5F5F5F5F5F5F5F5BEF5BEBEF5F5F5C3F5C3F5F5F5BEBEF5F5F5F5F5F5F5BEF5F5F5F5
310
F5F5F5BEBEBEBEBEBEBEBEBEF5F5F5F5F5F5F5F5F5F5F5E2F5F5E2E2F5F5F5F5E2CDE2F5F5E2E2F5F5E2F5F5F5F5F5F5F5F5F5F5F5F5F5F5F5F5F5F5F5BEF5F5F5F5F5F5F5F5F5F5F5F5F5F5F5F5F5F5F5F5BEBEF50F0FF5C3F5C3F50F0FF5F5F5F5F5F5F5F5F5BEF5F5F5F5F5F5F5F5BEBEBEBEBEBEBEBEF5F5F5F5F5F5F5
310
F5F5F5F5E2F5F5E2E2F5F5F5F5E200E2F5F5E2E2F5F5E2F5F5F5F5F5F5F5F5F5F5F5F5F5F5F5F5F5F5F5F5BEF5F5F5F5F5F5F5F5F5F5F5F5F5F5F5F5F5F5BEBEF5BE0FF50F0FF50F0FF50FF5BEF5F5F5BEBEBEBEBEBEBEBEBEF5F5F5F5F5F5F5BEF5F5F5F5F5F5F5F5F5F5F5F5F5F5F5E2F5F5E2E2F5F5F5F5E2CDE2F5F5E2
310
E2F5F5E2F5F5F5F5F5F5F5F5F5F5F5F5F5F5F5F5F5F5F5F5BEF5F5F5F5BEBEBEF5F5F5F5F5F5F5F5F5F5F5BEF5F5F50F0FF5C3F5BEF50F0FF5BEBEF5F5F5BEBEBEBEBEBEBEBEF5F5F5F5F5F5F5BEF5F5F5F5F5F5F5F5F5F5F5F5F5F5F5E2F5F5E2E2F5F5F5F5E200E2F5F5E2E2F5F5E2F5F5F5F5F5F5F5F5F5F5F5F5F5F5F5
310
F5F5F5F5F5BEF5F5F5F5BEBEBEBEBEBEBEBEBEBEBEBEBEBEF5F5F5F5BEF5BEBEF50F0FBEBEBEBEBEF5F5F5F5F5F5BEF5F5F5F5F5F5F5F5F5F5F5BEF5F5F5F5F5F5F5F5F5F5F5F5F5F5F5E2F5F5E2E2F5F5F5F5E2CDE2F5F5E2E2F5F5E2F5F5F5F5F5F5F5F5F5F5F5F5F5F5F5F5F5F5F5F5F5BEF5F5F5BEBEBEBEBEBEBEBEBE
310
BEBEBEF5F5F5F5F5F5BEBEF5C3C3C3BEBEBEBEBEBEBEBEBEBEBEBEBEBEBEBEBEBEBEBEBEBEBEBEBEBEF5F5F5F5F5F5F5F5F5F5F5F5F5F5E2F5F5E2E2F5F5F5F5E200E2F5F5E2E2F5F5E2F5F5F5F5F5F5F5F5F5F5F5F5F5F5F5F5F5F5F5F5F5BEF5F5F5F5F5F5F5F5F5F5F5F5F5F5F5F5F5F5F5F5F5BEF5F5BEF5BEF5F5BEF5
310
BEBEF5F5F5F5F5F5F5F5F5F5F5F5F5F5F5F5F5F5F5F5F5F5F5F5F5F5F5F5F5F5F5F5F5F5E2F5F5E2E2F5F5F5F5E2CDE2F5F5E2E2F5F5E2F5F5F5F5F5F5F5F5F5F5F5F5F5F5F5F5F5F5F5F5F5F5BEF5F5F5F5F5F5F5F5F5F5F5F5F5F5F5F5F5F5F5BEBEF5F5BEF5BEF5F5BEF5BEBEBEBEBEBEBEBEBEBEBEBEF5F5F5F5F5F5F5
310
F5F5F5F5F5F5F5F5F5F5F5F5F5F5F5F5F5E2F5F5E2E2F5F5F5F5E200E2F5F5E2E2F5F5E2F5F5F5F5F5F5F5F5F5F5F5F5F5F5F5F5F5F5F5F5F5F5BEF5F5F5F5F5F5F5F5F5F5F5F5F5F5F5F5F5F5BEF5BEF5F5BEF5BEF5F5BEF5BEBEBEBEBEBEBEBEBEBEBEBEF5F5F5F5F5F5F5F5F5F5F5F5F5F5F5F5F5F5F5F5F5F5F5F5E2F5
310
F5E2E2F5F5F5F5E206E2F5F5E2E2F5F5E2F5F5F5F5F5F5F5F5F5F5F5F5F5F5F5F5F5F5F5F5F5F5F5BEF5F5F5F5F5F5F5F5F5F5F5F5F5F5F5F5F5BEF5BEF5F5BEF5BEF5F5BEF5F5F5F5F5F5F5F5F5F5F5F5F5F5F5F5F5F5F5F5F5F5F5F5F5F5F5F5F5F5F5F5F5F5F5F5F5E2F5F5E2E2F5F5F5F5E200E2F5F5E2E2F5F5E2F5F5
310
F5F5F5F5F5F5F5F5F5F5F5F5F5F5F5F5F5F5F5F5F5BEF5F5F5F5F5F5F5F5F5F5F5F5F5F5F5F5BEF5F5BEF5F5BEF5BEF5F5BEF5F5F5F5F5F5F5F5F5F5F5F5F5F5F5F5F5F5F5F5F5F5F5F5F5F5F5F5F5F5F5F5F5F5F5F5F5E2F5F5E2E2F5F5F5F5E2FFE2F5F5E2E2F5F5E2F5F5F5F5F5F5F5F5F5F5F5F5F5F5F5F5F5F5F5F5F5
310
F5F5F5BEF5F5F5BEF5F5F5F5BEBEBEBEF5F5BEF5F5F5BEF5F5BEF5BEF5F5BEF5F5F5BEBEBEBEF5BEBEBEBEBEF5F5F5F5F5F5F5F5F5F5F5F5F5F5F5F5F5F5F5F5F5F5F5F5E2F5F5E2E2F5F5F5F5E200E2F5F5E2E2F5F5E2F5F5F5F5F5F5F5F5F5F5F5F5F5F5F5F5F5F5F5F5F5F5F5BEBEBEBEBEBEBEF5F5F5BEBEBEBEBEBEF5
310
F5F5F5BEF5F5BEBEBEF5F5BEBEBEBEBEBEBEBEBEBEBEBEBEBEF5F5F5F5F5F5F5F5F5F5F5F5F5F5F5F5F5F5F5F5F5F5F5F5E2F5F5E2E2F5F5F5F5E2FFE2F5F5E2E2F5F5E2F5F5F5F5F5F5F5F5F5BEBEBEBEBEBEF5F5F5F5F5F5F5F5BEBEBEBEBEBEBEF5F5F5F5F5F5F5F5F5F5F5F5F5BEF5F5BEF5BEF5F5BEF5F5F5F5BEBEBE
310
BEBEBEBEBEBEF5F5F5F5F5F5F5F5F5F5F5F5F5F5F5F5F5F5F5F5F5F5F5F5E2F5F5E2E2F5F5F5F5E200E2F5F5E2E2F5F5E2F5F5F5F5F5F5BEBEBEBEBEBEBEBEBEBEBEBEF5F5F5F5F5BEBEBEBEBEBEBEF5F5F5F5F5F5F5F5F5F5F5F5F5BEF5F5BEF5F5F5F5BEF5F5F5F5F5F5F5F5F5F5F5F5F5F5F5F5F5F5F5F5F5F5F5F5F5F5
310
F5F5F5F5F5F5F5F5F5F5F5E2F5F5E2E2F5F5F5F5E2FFE2F5F5E2E2F5F5E2F5F5F5F5F5F5F5F5F5BEBEBEBEBEBEF5F5F5F5F5F5F5F5F5F5F5F5F5BEF5F5F5F5F5F5F5F5F5F5F5F5F5F5BEF5F5BEF5F5F5F5BEF5F5F5F5F5F5F5F5F5F5F5F5F5F5F5F5F5F5F5F5F5F5F5F5F5F5F5F5F5F5F5F5F5F5F5F5F5E2F5F5E2E2F5F5F5
310
F5E200E2F5F5E2E2F5F5E2F5F5F5F5BEBEBEBEBEBE0F0F0FF5BEF5F5F5F5F5F5F5F5F5F5F5F5F5F5BEBEF5F5F5F5F5F5F5F5F5BEBEBEBEF5F5BEF5F5F5F5BEBEBEBEBEBEBEBEBEBEBEBEBEF5F5F5F5F5F5F5F5F5F5F5F5F5F5F5F5F5F5F5F5F5F5F5F5F5E2F5F5E2E2F5F5F5F5E2FFE2F5F5E2E2F5F5E2F5F5F5F5BEBEF5F5
310
F5BE0F0F0FF5BEF5F5F5F5F5F5F5F5F5F5F5F5F5F5F5F5BEBEF5F5F5F5F5F5F5F5F5BEBEF5F5BEF5F5F5F5BEBEF5F5F5BEBEBEBEBEBEBEBEF5F5F5F5F5F5F5F5F5F5F5F5F5F5F5F5F5F5F5F5F5F5F5F5F5E2F5F5E2E2F5F5F5F5E200E2F5F5E2E2F5F5E2F5F5F5F5BEF5F5F5F5BE0F0F0FF5BEF5F5F5F5F5F5F5F5F5F5F5F5
310
F5F5F5F5F5F5BEBEF5F5F5F5F5F5F5F5F5F5F5BEF5F5F5F5F5F5F5F5F5F5F5F5F5F5F5F5F5F5F5F5F5F5F5F5F5F5F5F5F5F5F5F5F5F5F5F5F5F5F5F5F5F5E2F5F5E2E2F5F5F5F5E2FFE2F5F5E2E2F5F5E2F5F5F5BEBEBEBEF5F5BE0F0FF5F5BEF5F5F5F5F5F5F5F5F5F5F5F5F5F5F5F5F5F5F5F5BEBEBEF5F5F5F5F5F5F5F5
310
BEF5F5F5F5F5F5F5F5F5F5F5F5F5F5F5F5F5F5F5F5F5F5F5F5F5F5F5F5F5F5F5F5F5F5F5F5F5F5F5F5F5F5E2F5F5E2E2F5F5F5F5E200E2F5F5E2E2F5F5E2F5F5F5BEBEBEBEF5F5BE0F0F0FC3BEF5F5F5F5F5F5F5F5F5F5F5F5F5F5F5F5F5F5F5F5F5F5F5BEBEBEBEF5F5F5F5BEF5F5F5F5F5F5F5F5F5F5F5F5F5F5F5F5F5F5
310
F5F5F5F5F5F5F5F5F5F5F5F5F5F5F5F5F5F5F5F5F5F5F5F5E2F5F5E2E2F5F5F5F5E2FFE2F5F5E2E2F5F5E2F5F5F5F5BEF5F5F5F5BEC3C3C30FBE0FF5F5F5F5F5F5F5F5F5F5F5F5F5F5F5F5F5F5F5F5F5F5F5F5F5F5BEBEBEBEBEF5F5F5F5F5F5F5F5F5F5F5F5F5F5F5F5F5F5F5F5F5F5F5F5F5F5F5F5F5F5F5F5F5F5F5F5F5
310
F5F5F5F5F5E2F5F5E2E2F5F5F5F5E200E2F5F5E2E2F5F5E2F5F5F5F5BEBEF5F5F5F5F5F5F50F0F0FF5F5F5F5F5F5F5F5F5F5F5F5F5F5F5F5F5F5F5F5F5F5F5F5F5F5F5F5F5F5BEF5F5F5F5F5F5F5F5F5F5F5F5F5F5F5F5F5F5F5F5F5F5F5E2E2E2E2E2E2E2E2E2E2E2E2E2E2E2E2E2E2E2E2F5F5E2E2F5F5F5F5E2FFE2F5F5
310
E2E2F5F5E2F5F5F5F5BEBEF5F5F5F5F5F5F50F0F0FF5F5F5F5F5F5F5F5F5F5F5F5F5F5F5F5F5F5F5F5F5F5F5F5F5F5F5F5F5F5F5F5F5F5F5F5F5F5F5F5F5F5F5F5F5F5F5F5F5F5F5F5F5F5E2E2F5E2E2E2E2E2E2E2F5F5F5E2E2E2E2E2E2E2F5F5E2E2F5F5F5F5E200E2F5F5E2E2F5F5E2F5F5F5F5BEBEBEBEBEBEBEBEBEBE
310
BEF5F5F5F5F5F5F5F5F5F5F5F5F5F5F5F5F5F5F5F5F5F5F5F5F5F5F5F5F5F5F5F5F5F5F5F5F5F5F5F5F5F5F5F5F5F5F5F5F5F5F5F5F5F5F5E2E2E2E2E2E2E2E2E2E2E2E2E2E2E2E2E2E2E2E2F5F5E2E2F5F5F5F5E2FFE2F5F5E2E2F5F5E2F5F5F5F5F5F5F5F5F5F5F5F5F5F5F5F5F5F5F5F5F5F5F5F5F5F5F5F5F5F5F5F5F5
310
F5F5F5F5F5F5F5F5F5F5F5F5F5F5F5F5F5F5F5F5F5F5F5F5F5F5F5F5F5F5F5F5F5F5F5F5F5E2E2E2E2E2E2E2E2E2E2E2E2E2E2E2E2E2E2E2E2F5F5E2E2F5F5F5F5E200E2F5F5E2E2F5F5E2F5F5F5F5F5F5F5F5F5F5F5F5F5F5F5F5F5F5F5F5F5F5F5F5F5F5F5F5F5F5F5F5F5F5F5F5F5F5F5F5F5F5F5F5F5F5F5F5F5F5F5F5
310
F5F5F5F5F5F5F5F5F5F5F5F5F5F5F5F5F5F5E2F5F5F5F5F5F5F5E2E2E2E2F5F5F5F5F5F5F5E2F5F5E2E2F5F5F5F5E2FFE2F5F5E2E2F5F5E2E2E2E2E2E2E2E2E2E2E2E2E2E2E2E2E2E2E2E2E2E2E2E2E2E2E2E2E2E2E2E2E2E2E2E2E2E2E2E2E2E2E2E2E2E2E2E2E2E2E2E2E2E2E2E2E2E2E2E2E2E2E2E2E2E2E2E2E2E2E2E2
310
E2E2E2E2E2E2E2E2E2E2E2E2E2E2E2E2E2E2E2F5F5E2E2F5F5F5F5E200E2F5F5E2E2F5F5F5F5F5F5F5F5F5F5F5F5F5F5F5F5F5F5F5F5F5F5F5F5F5F5F5F5F5F5F5F5F5F5F5F5F5F5F5F5F5F5F5F5F5F5F5F5F5F5F5F5F5F5F5F5F5F5F5F5F5F5F5F5F5F5F5F5F5F5F5F5F5F5F5F5F5F5F5F5F5F5F5F5F5F5F5F5F5F5F5F5F5
310
F5F5E2E2F5F5F5F5E200E2F5F5E2E2E2E2E2E2E2E2E2E2E2E2E2E2E2E2E2E2E2E2E2E2E2E2E2E2E2E2E2E2E2E2E2E2E2E2E2E2E2E2E2E2E2E2E2E2E2E2E2E2E2E2E2E2E2E2E2E2E2E2E2E2E2E2E2E2E2E2E2E2E2E2E2E2E2E2E2E2E2E2E2E2E2E2E2E2E2E2E2E2E2E2E2E2E2E2E2E2E2F5F5F5F5E200E2F5F5E2F5F5F5F5F5
310
F5F5F5F5F5F5F5F5F5F5F5F5F5F5F5F5F5F5F5F5F5F5F5F5F5F5F5F5F5F5F5F5F5F5F5F5F5F5F5F5F5F5F5F5F5F5F5F5F5F5F5F5F5F5F5F5F5F5F5F5F5F5F5F5F5F5F5F5F5F5F5F5F5F5F5F5F5F5F5F5F5F5F5F5F5F5F5F5F5F5F5F5E2F5F5F5F5E233E2F5F5E2E2E2E2E2E2E2E2E2E2E2E2E2E2E2E2E2E2E2E2E2E2E2E2E2
310
E2E2E2E2E2E2E2E2E2E2E2E2E2E2E2E2E2E2E2E2E2E2E2E2E2E2E2E2E2E2E2E2E2E2E2E2E2E2E2E2E2E2E2E2E2E2E2E2E2E2E2E2E2E2E2E2E2E2E2E2E2E2E2E2E2E2E2E2E2E2E2E2E2E2F5F5F5F5E201E2F5F5F5F5F5F5F5F5F5F5F5F5F5F5F5F5F5F5F5F5F5F5F5F5F5F5F5F5F5F5F5F5F5F5F5F5F5F5F5F5F5F5F5F5F5F5
310
F5F5F5F5F5F5F5F5F5F5F5F5F5F5F5F5F5F5F5F5F5F5F5F5F5F5F5F5F5F5F5F5F5F5F5F5F5F5F5F5F5F5F5F5F5F5F5F5F5F5F5F5F5F5F5F5F5F5F5E200E2F5F5F5F5F5F5F5F5F5F5F5F5F5F5F5F5F5F5F5F5F5F5F5F5F5F5F5F5F5F5F5F5F5F5F5F5F5F5F5F5F5F5F5F5F5F5F5F5F5F5F5F5F5F5F5F5F5F5F5F5F5F5F5F5F5
310
F5F5F5F5F5F5F5F5F5F5F5F5F5F5F5F5F5F5F5F5F5F5F5F5F5F5F5F5F5F5F5F5F5F5F5F5F5F5F5F5E200E2F5F5F5F5F5F5F5F5F5F5F5F5F5F5F5F5F5F5F5F5F5F5F5F5F5F5F5F5F5F5F5F5F5F5F5F5F5F5F5F5F5F5F5F5F5F5F5F5F5F5F5F5F5F5F5F5F5F5F5F5F5F5F5F5F5F5F5F5F5F5F5F5F5F5F5F5F5F5F5F5F5F5F5F5
310
F5F5F5F5F5F5F5F5F5F5F5F5F5F5F5F5F5F5F5F5F5E233E2F5F5F5F5F5F5F5F5F5F5F5F5F5F5F5F5F5F5F5F5F5F5F5F5F5F5F5F5F5F5F5F5F5F5F5F5F5F5F5F5F5F5F5F5F5F5F5F5F5F5F5F5F5F5F5F5F5F5F5F5F5F5F5F5F5F5F5F5F5F5F5F5F5F5F5F5F5F5F5F5F5F5F5F5F5F5F5F5F5F5F5F5F5F5F5F5F5F5F5F5F5F5F5
310
F5F5E201E2F5F5F5F5F5F5F5F5F5F5F5F5F5F5F5F5F5F5F5F5F5F5F5F5F5F5F5F5F5F5F5F5F5F5F5F5F5F5F5F5F5F5F5F5F5F5F5F5F5F5F5F5F5F5F5F5F5F5F5F5F5F5F5F5F5F5F5F5F5F5F5F5F5F5F5F5F5F5F5F5F5F5F5F5F5F5F5F5F5F5F5F5F5F5F5F5F5F5F5F5F5F5F5F5F5E200E2F5F5F5F5F5F5F5F5F5F5F5F5F5F5
310
F5F5F5F5F5F5F5F5F5F5F5F5F5F5F5F5F5F5F5F5F5F5F5F5F5F5F5F5F5F5F5F5F5F5F5F5F5F5F5F5F5F5F5F5F5F5F5F5F5F5F5F5F5F5F5F5F5F5F5F5F5F5F5F5F5F5F5F5F5F5F5F5F5F5F5F5F5F5F5F5F5F5F5F5F5F5F5F5F5F5F5E200E2E2E2E2E2E2E2E2E2E2E2E2E2E2E2E2E2E2E2E2E2E2E2E2E2E2E2E2E2E2E2E2E2E2
310
E2E2E2E2E2E2E2E2E2E2E2E2E2E2E2E2E2E2E2E2E2E2E2E2E2E2E2E2E2E2E2E2E2E2E2E2E2E2E2E2E2E2E2E2E2E2E2E2E2E2E2E2E2E2E2E2E2E2E2E2E2E2E2E2E2E2E2E2E2E2E2E2E233EFEFEFEFEFEFEFEFEFEFEFEFEFEFEFEFEFEFEFEFEFEFEFEFEFEFEFEFEFEFEFEFEFEFEFEFEFEFEFEFEFEFEFEFEFEFEFEFEFEFEFEFEF
310
EFEFEFEFEFEFEFEFEFEFEFEFEFEFEFEFEFEFEFEFEFEFEFEFEFEFEFEFEFEFEFEFEFEFEFEFEFEFEFEFEFEFEFEFEFEFEFEFEFEFEFEFEFEF01
  0
ENDSEC
  0
EOF
